  0
SECTION
  2
HEADER
  9
$ACADVER
  1
AC1015
  9
$ACADMAINTVER
 70
    20
  9
$DWGCODEPAGE
  3
ANSI_1252
  9
$INSBASE
 10
0.0
 20
0.0
 30
0.0
  9
$EXTMIN
 10
0.9805307641864828
 20
0.9879462492978063
 30
-0.0015258207003583
  9
$EXTMAX
 10
419.019471191591
 20
296.0120551337162
 30
0.0000000349246037
  9
$LIMMIN
 10
0.0
 20
0.0
  9
$LIMMAX
 10
420.0
 20
297.0
  9
$ORTHOMODE
 70
     1
  9
$REGENMODE
 70
     1
  9
$FILLMODE
 70
     1
  9
$QTEXTMODE
 70
     0
  9
$MIRRTEXT
 70
     1
  9
$LTSCALE
 40
1.0
  9
$ATTMODE
 70
     1
  9
$TEXTSIZE
 40
2.5
  9
$TRACEWID
 40
1.0
  9
$TEXTSTYLE
  7
Standard
  9
$CLAYER
  8
0
  9
$CELTYPE
  6
Continuous
  9
$CECOLOR
 62
     7
  9
$CELTSCALE
 40
1.0
  9
$DISPSILH
 70
     0
  9
$DIMSCALE
 40
1.0
  9
$DIMASZ
 40
3.72
  9
$DIMEXO
 40
0.0
  9
$DIMDLI
 40
5.0
  9
$DIMRND
 40
0.0
  9
$DIMDLE
 40
0.0
  9
$DIMEXE
 40
1.5
  9
$DIMTP
 40
0.0
  9
$DIMTM
 40
0.0
  9
$DIMTXT
 40
2.5
  9
$DIMCEN
 40
0.0
  9
$DIMTSZ
 40
0.0
  9
$DIMTOL
 70
     0
  9
$DIMLIM
 70
     0
  9
$DIMTIH
 70
     0
  9
$DIMTOH
 70
     0
  9
$DIMSE1
 70
     0
  9
$DIMSE2
 70
     0
  9
$DIMTAD
 70
     1
  9
$DIMZIN
 70
     8
  9
$DIMBLK
  1
_OPEN15
  9
$DIMASO
 70
     1
  9
$DIMSHO
 70
     1
  9
$DIMPOST
  1

  9
$DIMAPOST
  1
"
  9
$DIMALT
 70
     0
  9
$DIMALTD
 70
     2
  9
$DIMALTF
 40
0.0393700787401575
  9
$DIMLFAC
 40
1.0
  9
$DIMTOFL
 70
     1
  9
$DIMTVP
 40
0.0
  9
$DIMTIX
 70
     0
  9
$DIMSOXD
 70
     0
  9
$DIMSAH
 70
     0
  9
$DIMBLK1
  1

  9
$DIMBLK2
  1

  9
$DIMSTYLE
  2
phoenix
  9
$DIMCLRD
 70
     1
  9
$DIMCLRE
 70
     1
  9
$DIMCLRT
 70
     5
  9
$DIMTFAC
 40
0.6666666666666666
  9
$DIMGAP
 40
0.5
  9
$DIMJUST
 70
     0
  9
$DIMSD1
 70
     0
  9
$DIMSD2
 70
     0
  9
$DIMTOLJ
 70
     1
  9
$DIMTZIN
 70
     8
  9
$DIMALTZ
 70
     0
  9
$DIMALTTZ
 70
     0
  9
$DIMUPT
 70
     1
  9
$DIMDEC
 70
     6
  9
$DIMTDEC
 70
     6
  9
$DIMALTU
 70
     2
  9
$DIMALTTD
 70
     2
  9
$DIMTXSTY
  7
Standard
  9
$DIMAUNIT
 70
     0
  9
$DIMADEC
 70
     4
  9
$DIMALTRND
 40
0.0
  9
$DIMAZIN
 70
     2
  9
$DIMDSEP
 70
    46
  9
$DIMATFIT
 70
     0
  9
$DIMFRAC
 70
     0
  9
$DIMLDRBLK
  1
_OPEN15
  9
$DIMLUNIT
 70
     2
  9
$DIMLWD
 70
    25
  9
$DIMLWE
 70
    25
  9
$DIMTMOVE
 70
     0
  9
$LUNITS
 70
     2
  9
$LUPREC
 70
     4
  9
$SKETCHINC
 40
1.0
  9
$FILLETRAD
 40
10.0
  9
$AUNITS
 70
     0
  9
$AUPREC
 70
     0
  9
$MENU
  1
.
  9
$ELEVATION
 40
0.0
  9
$PELEVATION
 40
0.0
  9
$THICKNESS
 40
0.0
  9
$LIMCHECK
 70
     0
  9
$CHAMFERA
 40
10.0
  9
$CHAMFERB
 40
10.0
  9
$CHAMFERC
 40
20.0
  9
$CHAMFERD
 40
0.0
  9
$SKPOLY
 70
     0
  9
$TDCREATE
 40
2453705.353824502
  9
$TDUCREATE
 40
2453705.270491169
  9
$TDUPDATE
 40
2456898.554352118
  9
$TDUUPDATE
 40
2456898.471018785
  9
$TDINDWG
 40
0.4379516551
  9
$TDUSRTIMER
 40
0.4379503935
  9
$USRTIMER
 70
     1
  9
$ANGBASE
 50
0.0
  9
$ANGDIR
 70
     0
  9
$PDMODE
 70
    35
  9
$PDSIZE
 40
-2.0
  9
$PLINEWID
 40
0.0
  9
$SPLFRAME
 70
     0
  9
$SPLINETYPE
 70
     6
  9
$SPLINESEGS
 70
     8
  9
$HANDSEED
  5
15DBD
  9
$SURFTAB1
 70
     6
  9
$SURFTAB2
 70
     6
  9
$SURFTYPE
 70
     6
  9
$SURFU
 70
     6
  9
$SURFV
 70
     6
  9
$UCSBASE
  2

  9
$UCSNAME
  2

  9
$UCSORG
 10
0.0
 20
0.0
 30
0.0
  9
$UCSXDIR
 10
1.0
 20
0.0
 30
0.0
  9
$UCSYDIR
 10
0.0
 20
1.0
 30
0.0
  9
$UCSORTHOREF
  2

  9
$UCSORTHOVIEW
 70
     0
  9
$UCSORGTOP
 10
0.0
 20
0.0
 30
0.0
  9
$UCSORGBOTTOM
 10
0.0
 20
0.0
 30
0.0
  9
$UCSORGLEFT
 10
0.0
 20
0.0
 30
0.0
  9
$UCSORGRIGHT
 10
0.0
 20
0.0
 30
0.0
  9
$UCSORGFRONT
 10
0.0
 20
0.0
 30
0.0
  9
$UCSORGBACK
 10
0.0
 20
0.0
 30
0.0
  9
$PUCSBASE
  2

  9
$PUCSNAME
  2

  9
$PUCSORG
 10
0.0
 20
0.0
 30
0.0
  9
$PUCSXDIR
 10
1.0
 20
0.0
 30
0.0
  9
$PUCSYDIR
 10
0.0
 20
1.0
 30
0.0
  9
$PUCSORTHOREF
  2

  9
$PUCSORTHOVIEW
 70
     0
  9
$PUCSORGTOP
 10
0.0
 20
0.0
 30
0.0
  9
$PUCSORGBOTTOM
 10
0.0
 20
0.0
 30
0.0
  9
$PUCSORGLEFT
 10
0.0
 20
0.0
 30
0.0
  9
$PUCSORGRIGHT
 10
0.0
 20
0.0
 30
0.0
  9
$PUCSORGFRONT
 10
0.0
 20
0.0
 30
0.0
  9
$PUCSORGBACK
 10
0.0
 20
0.0
 30
0.0
  9
$USERI1
 70
     0
  9
$USERI2
 70
     0
  9
$USERI3
 70
     0
  9
$USERI4
 70
     0
  9
$USERI5
 70
     0
  9
$USERR1
 40
0.0
  9
$USERR2
 40
0.0
  9
$USERR3
 40
0.0
  9
$USERR4
 40
0.0
  9
$USERR5
 40
0.0
  9
$WORLDVIEW
 70
     1
  9
$SHADEDGE
 70
     3
  9
$SHADEDIF
 70
    70
  9
$TILEMODE
 70
     1
  9
$MAXACTVP
 70
    64
  9
$PINSBASE
 10
0.0
 20
0.0
 30
0.0
  9
$PLIMCHECK
 70
     0
  9
$PEXTMIN
 10
1.000000000000000E+20
 20
1.000000000000000E+20
 30
1.000000000000000E+20
  9
$PEXTMAX
 10
-1.000000000000000E+20
 20
-1.000000000000000E+20
 30
-1.000000000000000E+20
  9
$PLIMMIN
 10
0.0
 20
0.0
  9
$PLIMMAX
 10
420.0
 20
297.0
  9
$UNITMODE
 70
     0
  9
$VISRETAIN
 70
     1
  9
$PLINEGEN
 70
     0
  9
$PSLTSCALE
 70
     1
  9
$TREEDEPTH
 70
  3020
  9
$CMLSTYLE
  2
Standard
  9
$CMLJUST
 70
     0
  9
$CMLSCALE
 40
20.0
  9
$PROXYGRAPHICS
 70
     1
  9
$MEASUREMENT
 70
     1
  9
$CELWEIGHT
370
    50
  9
$ENDCAPS
280
     0
  9
$JOINSTYLE
280
     0
  9
$LWDISPLAY
290
     0
  9
$INSUNITS
 70
     4
  9
$HYPERLINKBASE
  1

  9
$STYLESHEET
  1
HP_SW.ctb
  9
$XEDIT
290
     1
  9
$CEPSNTYPE
380
     0
  9
$PSTYLEMODE
290
     1
  9
$FINGERPRINTGUID
  2
{B543F27C-3435-4922-B880-2E7AA2CF23D7}
  9
$VERSIONGUID
  2
{84D00B81-2ADC-4C1F-A9A4-40A93B0B6D48}
  9
$EXTNAMES
290
     1
  9
$PSVPSCALE
 40
0.0
  9
$OLESTARTUP
290
     0
  0
ENDSEC
  0
SECTION
  2
CLASSES
  0
CLASS
  1
ACDBDICTIONARYWDFLT
  2
AcDbDictionaryWithDefault
  3
ObjectDBX Classes
 90
        0
280
     0
281
     0
  0
CLASS
  1
ACDBPLACEHOLDER
  2
AcDbPlaceHolder
  3
ObjectDBX Classes
 90
        0
280
     0
281
     0
  0
CLASS
  1
LAYOUT
  2
AcDbLayout
  3
ObjectDBX Classes
 90
        0
280
     0
281
     0
  0
CLASS
  1
PH_VARS
  2
PhoenixVars
  3
PHOENIX7010
 90
        0
280
     0
281
     0
  0
CLASS
  1
PH_GROUP
  2
PhGroup
  3
PHOENIX7010
 90
        0
280
     0
281
     0
  0
CLASS
  1
DICTIONARYVAR
  2
AcDbDictionaryVar
  3
ObjectDBX Classes
 90
        0
280
     0
281
     0
  0
CLASS
  1
TABLESTYLE
  2
AcDbTableStyle
  3
ObjectDBX Classes
 90
     4095
280
     0
281
     0
  0
CLASS
  1
PLOTSETTINGS
  2
AcDbPlotSettings
  3
ObjectDBX Classes
 90
        0
280
     0
281
     0
  0
CLASS
  1
PH_ENTDIMREACTOR
  2
EntDimReactor
  3
PHOENIX7010
 90
        0
280
     0
281
     0
  0
CLASS
  1
PH_DIMENTREACTOR
  2
DimEntReactor
  3
PHOENIX7010
 90
        0
280
     0
281
     0
  0
CLASS
  1
SORTENTSTABLE
  2
AcDbSortentsTable
  3
ObjectDBX Classes
 90
        0
280
     0
281
     0
  0
CLASS
  1
MATERIAL
  2
AcDbMaterial
  3
ObjectDBX Classes
 90
     1153
280
     0
281
     0
  0
CLASS
  1
VISUALSTYLE
  2
AcDbVisualStyle
  3
ObjectDBX Classes
 90
     4095
280
     0
281
     0
  0
CLASS
  1
SCALE
  2
AcDbScale
  3
ObjectDBX Classes
 90
     1153
280
     0
281
     0
  0
CLASS
  1
MLEADERSTYLE
  2
AcDbMLeaderStyle
  3
ACDB_MLEADERSTYLE_CLASS
 90
     4095
280
     0
281
     0
  0
CLASS
  1
CELLSTYLEMAP
  2
AcDbCellStyleMap
  3
ObjectDBX Classes
 90
     1152
280
     0
281
     0
  0
ENDSEC
  0
SECTION
  2
TABLES
  0
TABLE
  2
VPORT
  5
8
330
0
100
AcDbSymbolTable
 70
     1
  0
VPORT
  5
15AC1
330
8
100
AcDbSymbolTableRecord
100
AcDbViewportTableRecord
  2
*Active
 70
     0
 10
0.0
 20
0.0
 11
1.0
 21
1.0
 12
210.0000009778888
 22
148.500000691507
 13
0.0
 23
0.0
 14
10.0
 24
10.0
 15
10.0
 25
10.0
 16
0.0
 26
0.0
 36
1.0
 17
0.0
 27
0.0
 37
0.0
 40
297.1400617403709
 41
1.909415971394517
 42
50.0
 43
0.0
 44
0.0
 50
0.0
 51
0.0
 71
     0
 72
   100
 73
     1
 74
     3
 75
     0
 76
     0
 77
     0
 78
     0
281
     0
 65
     1
110
0.0
120
0.0
130
0.0
111
1.0
121
0.0
131
0.0
112
0.0
122
1.0
132
0.0
 79
     0
146
0.0
  0
ENDTAB
  0
TABLE
  2
LTYPE
  5
5
330
0
100
AcDbSymbolTable
 70
     3
  0
LTYPE
  5
14
330
5
100
AcDbSymbolTableRecord
100
AcDbLinetypeTableRecord
  2
ByBlock
 70
     0
  3

 72
    65
 73
     0
 40
0.0
  0
LTYPE
  5
15
330
5
100
AcDbSymbolTableRecord
100
AcDbLinetypeTableRecord
  2
ByLayer
 70
     0
  3

 72
    65
 73
     0
 40
0.0
  0
LTYPE
  5
16
330
5
100
AcDbSymbolTableRecord
100
AcDbLinetypeTableRecord
  2
Continuous
 70
     0
  3
Solid line
 72
    65
 73
     0
 40
0.0
  0
LTYPE
  5
3788
330
5
100
AcDbSymbolTableRecord
100
AcDbLinetypeTableRecord
  2
ACAD_ISO04W100
 70
     0
  3
____ . ____ . ____ . ____ . ____ . ____ . ____ 
 72
    65
 73
     4
 40
30.5
 49
24.0
 74
     0
 49
-3.0
 74
     0
 49
0.5
 74
     0
 49
-3.0
 74
     0
  0
LTYPE
  5
3A5F
330
5
100
AcDbSymbolTableRecord
100
AcDbLinetypeTableRecord
  2
ACAD_ISO02W100
 70
     0
  3
__ __ __ __ __ __ __ __ __ __ __ __ __ __ __ __
 72
    65
 73
     2
 40
15.0
 49
12.0
 74
     0
 49
-3.0
 74
     0
  0
ENDTAB
  0
TABLE
  2
LAYER
  5
2
102
{ACAD_XDICTIONARY
360
15B06
102
}
330
0
100
AcDbSymbolTable
 70
     3
  0
LAYER
  5
10
102
{ACAD_XDICTIONARY
360
15D43
102
}
330
2
100
AcDbSymbolTableRecord
100
AcDbLayerTableRecord
  2
0
 70
     0
 62
     7
  6
Continuous
370
    -3
390
F
  0
LAYER
  5
69
330
2
100
AcDbSymbolTableRecord
100
AcDbLayerTableRecord
  2
Defpoints
 70
     0
 62
    -7
  6
Continuous
290
     0
370
    -3
390
F
  0
LAYER
  5
B21
102
{ACAD_XDICTIONARY
360
15D45
102
}
330
2
100
AcDbSymbolTableRecord
100
AcDbLayerTableRecord
  2
PH_HILFSELEMENTE
 70
     0
 62
    -7
  6
Continuous
370
    -3
390
F
  0
ENDTAB
  0
TABLE
  2
STYLE
  5
3
330
0
100
AcDbSymbolTable
 70
     2
  0
STYLE
  5
11
330
3
100
AcDbSymbolTableRecord
100
AcDbTextStyleTableRecord
  2
Standard
 70
     0
 40
0.0
 41
1.199999999999999
 50
0.0
 71
     0
 42
2.5
  3
isocp.shx
  4

  0
ENDTAB
  0
TABLE
  2
VIEW
  5
6
330
0
100
AcDbSymbolTable
 70
     0
  0
ENDTAB
  0
TABLE
  2
UCS
  5
7
330
0
100
AcDbSymbolTable
 70
     0
  0
ENDTAB
  0
TABLE
  2
APPID
  5
9
330
0
100
AcDbSymbolTable
 70
     5
  0
APPID
  5
12
330
9
100
AcDbSymbolTableRecord
100
AcDbRegAppTableRecord
  2
ACAD
 70
     0
  0
APPID
  5
40
330
9
100
AcDbSymbolTableRecord
100
AcDbRegAppTableRecord
  2
PHOENIX7010
 70
     0
  0
APPID
  5
3A68
330
9
100
AcDbSymbolTableRecord
100
AcDbRegAppTableRecord
  2
ACAD_PSEXT
 70
     0
  0
APPID
  5
15D41
330
9
100
AcDbSymbolTableRecord
100
AcDbRegAppTableRecord
  2
ACAD_EXEMPT_FROM_CAD_STANDARDS
 70
     0
  0
APPID
  5
15DBC
330
9
100
AcDbSymbolTableRecord
100
AcDbRegAppTableRecord
  2
ACAD_MLEADERVER
 70
     0
  0
ENDTAB
  0
TABLE
  2
DIMSTYLE
  5
A
330
0
100
AcDbSymbolTable
 70
    12
100
AcDbDimStyleTable
 71
     3
340
47
340
48
340
27
  0
DIMSTYLE
105
27
330
A
100
AcDbSymbolTableRecord
100
AcDbDimStyleTableRecord
  2
ISO-25
 70
     0
 41
2.5
 42
0.625
 43
3.75
 44
1.25
 73
     0
 74
     0
 77
     1
 78
     8
140
2.5
141
2.5
143
0.03937007874016
147
0.625
171
     3
172
     1
271
     2
272
     2
274
     3
278
    44
283
     0
284
     8
340
11
  0
DIMSTYLE
105
47
102
{ACAD_REACTORS
330
88B6
330
98B5
330
BC44
330
C55B
330
CDD5
330
D69C
330
10C8F
330
11FBA
330
1383C
102
}
330
A
100
AcDbSymbolTableRecord
100
AcDbDimStyleTableRecord
  2
phoenix
 70
     0
  4
"
 41
3.72
 42
0.0
 43
5.0
 44
1.5
 73
     0
 74
     0
 77
     1
 78
     8
 79
     2
140
2.5
141
0.0
143
0.0393700787401575
146
0.6666666666666666
147
0.5
172
     1
176
     1
177
     1
178
     5
179
     4
271
     6
272
     6
284
     8
288
     1
289
     0
340
11
341
41
342
41
371
    25
372
    25
  0
DIMSTYLE
105
48
102
{ACAD_REACTORS
330
A4C4
102
}
330
A
100
AcDbSymbolTableRecord
100
AcDbDimStyleTableRecord
  2
phoenix$4
 70
     0
  4
"
 41
3.72
 42
0.0
 43
2.0
 44
1.5
 73
     0
 74
     0
 77
     1
 78
     8
140
3.5
141
0.0
143
0.0393700787401575
146
0.6666666666666666
147
2.0
176
     1
177
     1
178
     5
271
     2
272
     2
277
     6
284
     8
288
     1
289
     0
340
11
341
41
342
41
371
    25
372
    25
  0
DIMSTYLE
105
3A60
330
A
100
AcDbSymbolTableRecord
100
AcDbDimStyleTableRecord
  2
STANDARD
 70
     0
 41
2.5
 42
0.625
 43
3.75
 44
1.25
 73
     0
 74
     0
 77
     1
 78
     8
140
2.5
141
2.5
143
0.0394
147
0.625
171
     4
172
     1
273
     8
274
     4
277
     6
340
11
  0
DIMSTYLE
105
3A61
330
A
100
AcDbSymbolTableRecord
100
AcDbDimStyleTableRecord
  2
ISO-35
 70
     0
 41
3.5
 42
0.875
 43
5.25
 44
1.75
 73
     0
 74
     0
 77
     1
 78
     8
140
3.5
141
3.5
143
0.0394
147
0.875
171
     4
172
     1
273
     8
274
     4
277
     6
340
11
  0
DIMSTYLE
105
3A62
330
A
100
AcDbSymbolTableRecord
100
AcDbDimStyleTableRecord
  2
ISO-5
 70
     0
 41
5.0
 42
1.25
 43
7.5
 44
2.5
 73
     0
 74
     0
 77
     1
 78
     8
140
5.0
141
5.0
143
0.0394
147
1.25
171
     4
172
     1
273
     8
274
     4
277
     6
340
11
  0
DIMSTYLE
105
3A63
330
A
100
AcDbSymbolTableRecord
100
AcDbDimStyleTableRecord
  2
ISO-7
 70
     0
 41
7.0
 42
1.75
 43
10.5
 44
3.5
 73
     0
 74
     0
 77
     1
 78
     8
140
7.0
141
7.0
143
0.0394
147
1.75
171
     4
172
     1
273
     8
274
     4
277
     6
340
11
  0
DIMSTYLE
105
3A64
330
A
100
AcDbSymbolTableRecord
100
AcDbDimStyleTableRecord
  2
ISO1
 70
     0
 41
10.0
 42
2.5
 43
15.0
 44
5.0
 73
     0
 74
     0
 77
     1
 78
     8
140
10.0
141
10.0
143
0.0394
147
2.5
171
     4
172
     1
273
     8
274
     4
277
     6
340
11
  0
DIMSTYLE
105
3A65
330
A
100
AcDbSymbolTableRecord
100
AcDbDimStyleTableRecord
  2
ISO1-4
 70
     0
 41
14.0
 42
3.5
 43
21.0
 44
7.0
 74
     0
 77
     1
 78
     8
140
14.0
141
14.0
143
0.0394
145
5.599999999999999
147
3.5
172
     1
273
     8
277
     6
340
11
  0
DIMSTYLE
105
3A66
330
A
100
AcDbSymbolTableRecord
100
AcDbDimStyleTableRecord
  2
ISO2
 70
     0
 41
20.0
 42
5.0
 43
30.0
 44
10.0
 73
     0
 74
     0
 77
     1
 78
     8
140
20.0
141
20.0
143
0.0394
147
5.0
171
     4
172
     1
273
     8
274
     4
277
     6
340
11
  0
DIMSTYLE
105
3A67
330
A
100
AcDbSymbolTableRecord
100
AcDbDimStyleTableRecord
  2
ISO-4
 70
     0
 41
14.0
 42
3.5
 43
21.0
 44
7.0
 73
     0
 74
     0
 77
     1
 78
     8
140
14.0
141
14.0
143
0.0394
147
3.5
171
     4
172
     1
273
     8
274
     4
277
     6
340
11
  0
ENDTAB
  0
TABLE
  2
BLOCK_RECORD
  5
1
330
0
100
AcDbSymbolTable
 70
    16
  0
BLOCK_RECORD
  5
1F
102
{ACAD_XDICTIONARY
360
4813
102
}
330
1
100
AcDbSymbolTableRecord
100
AcDbBlockTableRecord
  2
*Model_Space
340
22
  0
BLOCK_RECORD
  5
1B
330
1
100
AcDbSymbolTableRecord
100
AcDbBlockTableRecord
  2
*Paper_Space
340
1E
  0
BLOCK_RECORD
  5
23
330
1
100
AcDbSymbolTableRecord
100
AcDbBlockTableRecord
  2
*Paper_Space0
340
26
  0
BLOCK_RECORD
  5
41
330
1
100
AcDbSymbolTableRecord
100
AcDbBlockTableRecord
  2
_OPEN15
340
0
102
{BLKREFS
331
1364C
331
1364D
331
13657
331
13658
331
13660
331
13661
331
13669
331
1366A
331
13672
331
13673
331
1367D
331
1367E
331
13839
331
14BD4
331
14BD5
331
151C2
331
151C3
331
15AB1
331
15AB2
102
}
  0
BLOCK_RECORD
  5
5C
330
1
100
AcDbSymbolTableRecord
100
AcDbBlockTableRecord
  2
_Open30
340
0
  0
BLOCK_RECORD
  5
62
330
1
100
AcDbSymbolTableRecord
100
AcDbBlockTableRecord
  2
_Open90
340
0
  0
BLOCK_RECORD
  5
3784
330
1
100
AcDbSymbolTableRecord
100
AcDbBlockTableRecord
  2
PH_GRPBLK
340
0
102
{BLKREFS
331
15CEF
331
15CF2
331
15D2A
331
15D6C
102
}
  0
BLOCK_RECORD
  5
456F
330
1
100
AcDbSymbolTableRecord
100
AcDbBlockTableRecord
  2
*X5
340
0
102
{BLKREFS
331
45E5
102
}
  0
BLOCK_RECORD
  5
88B7
330
1
100
AcDbSymbolTableRecord
100
AcDbBlockTableRecord
  2
*D6
340
0
  0
BLOCK_RECORD
  5
98B6
330
1
100
AcDbSymbolTableRecord
100
AcDbBlockTableRecord
  2
*D7
340
0
  0
BLOCK_RECORD
  5
A4C5
330
1
100
AcDbSymbolTableRecord
100
AcDbBlockTableRecord
  2
*D8
340
0
  0
BLOCK_RECORD
  5
BC45
330
1
100
AcDbSymbolTableRecord
100
AcDbBlockTableRecord
  2
*D9
340
0
  0
BLOCK_RECORD
  5
C55C
330
1
100
AcDbSymbolTableRecord
100
AcDbBlockTableRecord
  2
*D10
340
0
  0
BLOCK_RECORD
  5
CDD6
330
1
100
AcDbSymbolTableRecord
100
AcDbBlockTableRecord
  2
*D11
340
0
  0
BLOCK_RECORD
  5
D69D
330
1
100
AcDbSymbolTableRecord
100
AcDbBlockTableRecord
  2
*D12
340
0
  0
BLOCK_RECORD
  5
10C90
330
1
100
AcDbSymbolTableRecord
100
AcDbBlockTableRecord
  2
*D13
340
0
  0
BLOCK_RECORD
  5
11FBB
330
1
100
AcDbSymbolTableRecord
100
AcDbBlockTableRecord
  2
*D14
340
0
  0
BLOCK_RECORD
  5
1383D
330
1
100
AcDbSymbolTableRecord
100
AcDbBlockTableRecord
  2
*D15
340
0
  0
ENDTAB
  0
ENDSEC
  0
SECTION
  2
BLOCKS
  0
BLOCK
  5
20
330
1F
100
AcDbEntity
  8
0
100
AcDbBlockBegin
  2
*Model_Space
 70
     0
 10
0.0
 20
0.0
 30
0.0
  3
*Model_Space
  1

  0
ENDBLK
  5
21
330
1F
100
AcDbEntity
  8
0
100
AcDbBlockEnd
  0
BLOCK
  5
1C
330
1B
100
AcDbEntity
 67
     1
  8
0
100
AcDbBlockBegin
  2
*Paper_Space
 70
     0
 10
0.0
 20
0.0
 30
0.0
  3
*Paper_Space
  1

  0
ENDBLK
  5
1D
330
1B
100
AcDbEntity
 67
     1
  8
0
100
AcDbBlockEnd
  0
BLOCK
  5
24
330
23
100
AcDbEntity
 67
     1
  8
0
100
AcDbBlockBegin
  2
*Paper_Space0
 70
     0
 10
0.0
 20
0.0
 30
0.0
  3
*Paper_Space0
  1

  0
ENDBLK
  5
25
330
23
100
AcDbEntity
 67
     1
  8
0
100
AcDbBlockEnd
  0
BLOCK
  5
45
330
41
100
AcDbEntity
  8
0
100
AcDbBlockBegin
  2
_OPEN15
 70
     0
 10
1.0
 20
0.0
 30
0.0
  3
_OPEN15
  1

  0
LINE
  5
42
330
41
100
AcDbEntity
  8
0
  6
ByBlock
 62
     0
100
AcDbLine
 10
0.0
 20
0.0
 30
0.0
 11
1.0
 21
0.0
 31
0.0
  0
LINE
  5
43
330
41
100
AcDbEntity
  8
0
  6
ByBlock
 62
     0
100
AcDbLine
 10
1.0
 20
0.0
 30
0.0
 11
0.0
 21
0.1316524975873958
 31
0.0
  0
LINE
  5
44
330
41
100
AcDbEntity
  8
0
  6
ByBlock
 62
     0
100
AcDbLine
 10
1.0
 20
0.0
 30
0.0
 11
0.0
 21
-0.1316524975873958
 31
0.0
  0
ENDBLK
  5
46
330
41
100
AcDbEntity
  8
0
100
AcDbBlockEnd
  0
BLOCK
  5
60
330
5C
100
AcDbEntity
  8
0
 62
     7
370
    50
100
AcDbBlockBegin
  2
_Open30
 70
     0
 10
0.0
 20
0.0
 30
0.0
  3
_Open30
  1

  0
LINE
  5
5D
330
5C
100
AcDbEntity
  8
0
  6
Continuous
 62
     0
370
    -2
100
AcDbLine
 10
-1.0
 20
0.26794919
 30
0.0
 11
0.0
 21
0.0
 31
0.0
  0
LINE
  5
5E
330
5C
100
AcDbEntity
  8
0
  6
Continuous
 62
     0
370
    -2
100
AcDbLine
 10
0.0
 20
0.0
 30
0.0
 11
-1.0
 21
-0.26794919
 31
0.0
  0
LINE
  5
5F
330
5C
100
AcDbEntity
  8
0
  6
Continuous
 62
     0
370
    -2
100
AcDbLine
 10
0.0
 20
0.0
 30
0.0
 11
-1.0
 21
0.0
 31
0.0
  0
ENDBLK
  5
61
330
5C
100
AcDbEntity
  8
0
 62
     7
370
    50
100
AcDbBlockEnd
  0
BLOCK
  5
66
330
62
100
AcDbEntity
  8
0
 62
     7
370
    50
100
AcDbBlockBegin
  2
_Open90
 70
     0
 10
0.0
 20
0.0
 30
0.0
  3
_Open90
  1

  0
LINE
  5
63
330
62
100
AcDbEntity
  8
0
  6
Continuous
 62
     0
370
    -2
100
AcDbLine
 10
-0.5
 20
0.5
 30
0.0
 11
0.0
 21
0.0
 31
0.0
  0
LINE
  5
64
330
62
100
AcDbEntity
  8
0
  6
Continuous
 62
     0
370
    -2
100
AcDbLine
 10
0.0
 20
0.0
 30
0.0
 11
-0.5
 21
-0.5
 31
0.0
  0
LINE
  5
65
330
62
100
AcDbEntity
  8
0
  6
Continuous
 62
     0
370
    -2
100
AcDbLine
 10
0.0
 20
0.0
 30
0.0
 11
-1.0
 21
0.0
 31
0.0
  0
ENDBLK
  5
67
330
62
100
AcDbEntity
  8
0
 62
     7
370
    50
100
AcDbBlockEnd
  0
BLOCK
  5
3785
330
3784
100
AcDbEntity
  8
0
 62
     1
370
    25
100
AcDbBlockBegin
  2
PH_GRPBLK
 70
     0
 10
0.0
 20
0.0
 30
0.0
  3
PH_GRPBLK
  1

  0
POINT
  5
3786
330
3784
100
AcDbEntity
  8
Defpoints
  6
Continuous
 62
     0
370
    25
100
AcDbPoint
 10
0.0
 20
0.0
 30
0.0
  0
ENDBLK
  5
3787
330
3784
100
AcDbEntity
  8
0
 62
     1
370
    25
100
AcDbBlockEnd
  0
BLOCK
  5
4570
330
456F
100
AcDbEntity
  8
0
100
AcDbBlockBegin
  2
*X5
 70
     1
 10
0.0
 20
0.0
 30
0.0
  3
*X5
  1

  0
LINE
  5
4571
330
456F
100
AcDbEntity
  8
0
  6
Continuous
 62
     0
100
AcDbLine
 10
479.3103099751266
 20
221.9234416232234
 30
0.0
 11
480.8103099751266
 21
223.4234416232234
 31
0.0
  0
LINE
  5
4572
330
456F
100
AcDbEntity
  8
0
  6
Continuous
 62
     0
100
AcDbLine
 10
479.3103099751266
 20
223.3376551855965
 30
0.0
 11
480.8103099751266
 21
224.8376551855965
 31
0.0
  0
LINE
  5
4573
330
456F
100
AcDbEntity
  8
0
  6
Continuous
 62
     0
100
AcDbLine
 10
479.3103099751267
 20
224.7518687479696
 30
0.0
 11
480.8103099751266
 21
226.2518687479696
 31
0.0
  0
LINE
  5
4574
330
456F
100
AcDbEntity
  8
0
  6
Continuous
 62
     0
100
AcDbLine
 10
482.0066290341682
 20
227.4481878070112
 30
0.0
 11
482.270156500673
 21
227.711715273516
 31
0.0
  0
LINE
  5
4575
330
456F
100
AcDbEntity
  8
0
  6
Continuous
 62
     0
100
AcDbLine
 10
479.3103099751267
 20
226.1660823103428
 30
0.0
 11
482.255175515724
 21
229.1109478509401
 31
0.0
  0
LINE
  5
4576
330
456F
100
AcDbEntity
  8
0
  6
Continuous
 62
     0
100
AcDbLine
 10
479.2019881063937
 20
227.4719740039828
 30
0.0
 11
481.3550241664964
 21
229.6250100640856
 31
0.0
  0
LINE
  5
4577
330
456F
100
AcDbEntity
  8
0
  6
Continuous
 62
     0
100
AcDbLine
 10
478.0054008728086
 20
227.6896003327709
 30
0.0
 11
479.9885296443433
 21
229.6727291043055
 31
0.0
  0
LINE
  5
4578
330
456F
100
AcDbEntity
  8
0
  6
Continuous
 62
     0
100
AcDbLine
 10
476.6389063506554
 20
227.7373193729907
 30
0.0
 11
478.62203512219
 21
229.7204481445253
 31
0.0
  0
LINE
  5
4579
330
456F
100
AcDbEntity
  8
0
  6
Continuous
 62
     0
100
AcDbLine
 10
475.2724118285022
 20
227.7850384132106
 30
0.0
 11
477.2555406000368
 21
229.7681671847451
 31
0.0
  0
LINE
  5
457A
330
456F
100
AcDbEntity
  8
0
  6
Continuous
 62
     0
100
AcDbLine
 10
474.3103099751267
 20
228.2371501222082
 30
0.0
 11
474.6393498683986
 21
228.5661900154802
 31
0.0
  0
LINE
  5
457B
330
456F
100
AcDbEntity
  8
0
  6
Continuous
 62
     0
100
AcDbLine
 10
475.8103099751267
 20
229.7371501222082
 30
0.0
 11
475.8890460778835
 21
229.815886224965
 31
0.0
  0
LINE
  5
457C
330
456F
100
AcDbEntity
  8
0
  6
Continuous
 62
     0
100
AcDbLine
 10
479.3103099751266
 20
220.5092280608503
 30
0.0
 11
479.6197176645363
 21
220.81863575026
 31
0.0
  0
LINE
  5
457D
330
456F
100
AcDbEntity
  8
0
  6
Continuous
 62
     0
100
AcDbLine
 10
479.6197176645363
 20
220.81863575026
 30
0.0
 11
480.8103099751266
 21
222.0092280608503
 31
0.0
  0
LINE
  5
457E
330
456F
100
AcDbEntity
  8
0
  6
Continuous
 62
     0
100
AcDbLine
 10
479.3103099751266
 20
219.0950144984772
 30
0.0
 11
480.8103099751267
 21
220.5950144984773
 31
0.0
  0
LINE
  5
457F
330
456F
100
AcDbEntity
  8
0
  6
Continuous
 62
     0
100
AcDbLine
 10
474.6956637020207
 20
213.0661546629982
 30
0.0
 11
475.4893166081433
 21
213.8598075691208
 31
0.0
  0
LINE
  5
4580
330
456F
100
AcDbEntity
  8
0
  6
Continuous
 62
     0
100
AcDbLine
 10
479.3103099751266
 20
217.6808009361041
 30
0.0
 11
480.8103099751267
 21
219.1808009361043
 31
0.0
  0
LINE
  5
4581
330
456F
100
AcDbEntity
  8
0
  6
Continuous
 62
     0
100
AcDbLine
 10
475.8103099751267
 20
212.766587373731
 30
0.0
 11
476.9547025761206
 21
213.9109799747251
 31
0.0
  0
LINE
  5
4582
330
456F
100
AcDbEntity
  8
0
  6
Continuous
 62
     0
100
AcDbLine
 10
479.3103099751266
 20
216.266587373731
 30
0.0
 11
480.8103099751267
 21
217.7665873737311
 31
0.0
  0
LINE
  5
4583
330
456F
100
AcDbEntity
  8
0
  6
Continuous
 62
     0
100
AcDbLine
 10
476.2934433015547
 20
211.8355071377859
 30
0.0
 11
478.420088544098
 21
213.9621523803293
 31
0.0
  0
LINE
  5
4584
330
456F
100
AcDbEntity
  8
0
  6
Continuous
 62
     0
100
AcDbLine
 10
479.3103099751266
 20
214.8523738113579
 30
0.0
 11
480.8103099751267
 21
216.352373811358
 31
0.0
  0
LINE
  5
4585
330
456F
100
AcDbEntity
  8
0
  6
Continuous
 62
     0
100
AcDbLine
 10
477.7588292695319
 20
211.8866795433901
 30
0.0
 11
480.8103099751267
 21
214.9381602489849
 31
0.0
  0
LINE
  5
4586
330
456F
100
AcDbEntity
  8
0
  6
Continuous
 62
     0
100
AcDbLine
 10
479.2242152375091
 20
211.9378519489943
 30
0.0
 11
481.5410661570545
 21
214.2547028685397
 31
0.0
  0
LINE
  5
4587
330
456F
100
AcDbEntity
  8
0
  6
Continuous
 62
     0
100
AcDbLine
 10
480.6896012054864
 20
211.9890243545985
 30
0.0
 11
482.3103099751266
 21
213.6097331242387
 31
0.0
  0
ENDBLK
  5
4588
330
456F
100
AcDbEntity
  8
0
100
AcDbBlockEnd
  0
BLOCK
  5
88C3
330
88B7
100
AcDbEntity
  8
0
 62
     7
370
    50
100
AcDbBlockBegin
  2
*D6
 70
     1
 10
0.0
 20
0.0
 30
0.0
  3
*D6
  1

  0
LINE
  5
15AAE
330
88B7
100
AcDbEntity
  8
0
  6
Continuous
 62
     1
370
    25
100
AcDbLine
 10
220.4825502516487
 20
218.1162085129873
 30
0.0
 11
232.0000000000001
 21
218.1162085129873
 31
0.0
  0
LINE
  5
15AAF
330
88B7
100
AcDbEntity
  8
0
  6
Continuous
 62
     1
370
    25
100
AcDbLine
 10
220.4825502516487
 20
204.4317141556931
 30
0.0
 11
232.0000000000001
 21
204.4317141556931
 31
0.0
  0
LINE
  5
15AB0
330
88B7
100
AcDbEntity
  8
0
  6
Continuous
 62
     1
370
    25
100
AcDbLine
 10
230.5000000000001
 20
214.3962085129873
 30
0.0
 11
230.5000000000001
 21
208.151714155693
 31
0.0
  0
INSERT
  5
15AB1
330
88B7
100
AcDbEntity
  8
0
  6
Continuous
 62
     1
370
    25
100
AcDbBlockReference
  2
_OPEN15
 10
230.5000000000001
 20
218.1162085129873
 30
0.0
 41
3.72
 42
3.72
 43
3.72
 50
90.0
  0
INSERT
  5
15AB2
330
88B7
100
AcDbEntity
  8
0
  6
Continuous
 62
     1
370
    25
100
AcDbBlockReference
  2
_OPEN15
 10
230.5000000000001
 20
204.4317141556931
 30
0.0
 41
3.72
 42
3.72
 43
3.72
 50
270.0
  0
MTEXT
  5
15AB3
330
88B7
100
AcDbEntity
  8
0
  6
Continuous
 62
     5
370
    35
100
AcDbMText
 10
228.75
 20
211.2739613343403
 30
0.0
 40
2.5
 41
0.0
 71
     5
 72
     1
  1
\A1;13.6
 11
0.0000000000000001
 21
1.0
 31
0.0
 73
     1
 44
1.0
1001
ACAD
1000
MTEXTBEGIN
1070
    73
1070
     1
1070
    44
1040
1.0
1070
    74
1070
     0
1000
MTEXTEND
  0
POINT
  5
15AB4
330
88B7
100
AcDbEntity
  8
Defpoints
  6
Continuous
 62
     0
370
    50
100
AcDbPoint
 10
220.4825502516487
 20
218.1162085129873
 30
0.0
  0
POINT
  5
15AB5
330
88B7
100
AcDbEntity
  8
Defpoints
  6
Continuous
 62
     0
370
    50
100
AcDbPoint
 10
220.4825502516487
 20
204.4317141556931
 30
0.0
  0
POINT
  5
15AB6
330
88B7
100
AcDbEntity
  8
Defpoints
  6
Continuous
 62
     0
370
    50
100
AcDbPoint
 10
230.5000000000001
 20
204.4317141556931
 30
0.0
  0
ENDBLK
  5
88C4
330
88B7
100
AcDbEntity
  8
0
 62
     7
370
    50
100
AcDbBlockEnd
  0
BLOCK
  5
98C2
330
98B6
100
AcDbEntity
  8
0
 62
     7
370
    50
100
AcDbBlockBegin
  2
*D7
 70
     1
 10
0.0
 20
0.0
 30
0.0
  3
*D7
  1

  0
LINE
  5
151BD
330
98B6
100
AcDbEntity
  8
0
  6
Continuous
 62
     1
370
    25
100
AcDbLine
 10
187.5437662897672
 20
181.2739613343414
 30
0.0
 11
205.531722790875
 21
181.2739613343413
 31
0.0
  0
LINE
  5
151BE
330
98B6
100
AcDbEntity
  8
0
  6
Continuous
 62
     1
370
    25
100
AcDbLine
 10
187.5000219580042
 20
180.7739613343414
 30
0.0
 11
205.531722790875
 21
180.7739613343413
 31
0.0
  0
LINE
  5
151BF
330
98B6
100
AcDbEntity
  8
0
  6
Continuous
 62
     1
370
    25
100
AcDbLine
 10
204.031722790875
 20
177.0539613343413
 30
0.0
 11
204.031722790875
 21
173.3339613343413
 31
0.0
  0
LINE
  5
151C0
330
98B6
100
AcDbEntity
  8
0
  6
Continuous
 62
     1
370
    25
100
AcDbLine
 10
204.031722790875
 20
184.9939613343413
 30
0.0
 11
204.031722790875
 21
194.0405876077777
 31
0.0
  0
LINE
  5
151C1
330
98B6
100
AcDbEntity
  8
0
  6
Continuous
 62
     1
370
    25
100
AcDbLine
 10
204.031722790875
 20
180.7739613343413
 30
0.0
 11
204.031722790875
 21
181.2739613343413
 31
0.0
  0
INSERT
  5
151C2
330
98B6
100
AcDbEntity
  8
0
  6
Continuous
 62
     1
370
    25
100
AcDbBlockReference
  2
_OPEN15
 10
204.031722790875
 20
180.7739613343413
 30
0.0
 41
3.72
 42
3.72
 43
3.72
 50
90.0
  0
INSERT
  5
151C3
330
98B6
100
AcDbEntity
  8
0
  6
Continuous
 62
     1
370
    25
100
AcDbBlockReference
  2
_OPEN15
 10
204.031722790875
 20
181.2739613343413
 30
0.0
 41
3.72
 42
3.72
 43
3.72
 50
270.0
  0
MTEXT
  5
151C4
330
98B6
100
AcDbEntity
  8
0
  6
Continuous
 62
     5
370
    35
100
AcDbMText
 10
202.2817227908749
 20
191.3772744710595
 30
0.0
 40
2.5
 41
0.0
 71
     5
 72
     1
  1
\A1;0.5
 11
0.0000000000000001
 21
1.0
 31
0.0
 73
     1
 44
1.0
1001
ACAD
1000
MTEXTBEGIN
1070
    73
1070
     1
1070
    44
1040
1.0
1070
    74
1070
     0
1000
MTEXTEND
  0
POINT
  5
151C5
330
98B6
100
AcDbEntity
  8
Defpoints
  6
Continuous
 62
     0
370
    50
100
AcDbPoint
 10
187.5437662897672
 20
181.2739613343414
 30
0.0
  0
POINT
  5
151C6
330
98B6
100
AcDbEntity
  8
Defpoints
  6
Continuous
 62
     0
370
    50
100
AcDbPoint
 10
187.5000219580042
 20
180.7739613343414
 30
0.0
  0
POINT
  5
151C7
330
98B6
100
AcDbEntity
  8
Defpoints
  6
Continuous
 62
     0
370
    50
100
AcDbPoint
 10
204.031722790875
 20
180.7739613343413
 30
0.0
  0
ENDBLK
  5
98C3
330
98B6
100
AcDbEntity
  8
0
 62
     7
370
    50
100
AcDbBlockEnd
  0
BLOCK
  5
A4CB
330
A4C5
100
AcDbEntity
  8
0
 62
     7
370
    50
100
AcDbBlockBegin
  2
*D8
 70
     1
 10
0.0
 20
0.0
 30
0.0
  3
*D8
  1

  0
LINE
  5
13837
330
A4C5
100
AcDbEntity
  8
0
  6
Continuous
 62
     1
370
    25
100
AcDbLine
 10
181.3154138583131
 20
163.9543906941282
 30
0.0
 11
186.0900995995509
 21
175.7878729633302
 31
0.0
  0
MTEXT
  5
13838
330
A4C5
100
AcDbEntity
  8
0
  6
Continuous
 62
     5
370
    35
100
AcDbMText
 10
180.9918511540488
 20
168.3304873660907
 30
0.0
 40
2.5
 41
0.0
 71
     5
 72
     1
  1
\A1;R0,5
 11
0.3741786577108452
 21
0.9273566369599723
 31
0.0
 73
     1
 44
1.0
1001
ACAD
1000
MTEXTBEGIN
1070
    73
1070
     1
1070
    44
1040
1.0
1070
    74
1070
     0
1000
MTEXTEND
  0
INSERT
  5
13839
330
A4C5
100
AcDbEntity
  8
0
  6
Continuous
 62
     1
370
    25
100
AcDbBlockReference
  2
_OPEN15
 10
187.4820442062353
 20
179.2376396528213
 30
0.0
 41
3.72
 42
3.72
 43
3.72
 50
68.02644203184577
  0
POINT
  5
1383A
330
A4C5
100
AcDbEntity
  8
Defpoints
  6
Continuous
 62
     0
370
    50
100
AcDbPoint
 10
187.4820442062353
 20
179.2376396528213
 30
0.0
  0
POINT
  5
1383B
330
A4C5
100
AcDbEntity
  8
Defpoints
  6
Continuous
 62
     0
370
    50
100
AcDbPoint
 10
187.2949548773803
 20
178.7739613343423
 30
0.0
  0
ENDBLK
  5
A4CC
330
A4C5
100
AcDbEntity
  8
0
 62
     7
370
    50
100
AcDbBlockEnd
  0
BLOCK
  5
BC51
330
BC45
100
AcDbEntity
  8
0
 62
     7
370
    50
100
AcDbBlockBegin
  2
*D9
 70
     1
 10
0.0
 20
0.0
 30
0.0
  3
*D9
  1

  0
LINE
  5
13678
330
BC45
100
AcDbEntity
  8
0
  6
Continuous
 62
     1
370
    25
100
AcDbLine
 10
152.705089038629
 20
179.2739613343414
 30
0.0
 11
129.4683211251335
 21
179.2739613343414
 31
0.0
  0
LINE
  5
13679
330
BC45
100
AcDbEntity
  8
0
  6
Continuous
 62
     1
370
    25
100
AcDbLine
 10
148.0658190295691
 20
175.7739613343414
 30
0.0
 11
129.4683211251335
 21
175.7739613343414
 31
0.0
  0
LINE
  5
1367A
330
BC45
100
AcDbEntity
  8
0
  6
Continuous
 62
     1
370
    25
100
AcDbLine
 10
130.9683211251335
 20
182.9939613343413
 30
0.0
 11
130.9683211251335
 21
186.7139613343413
 31
0.0
  0
LINE
  5
1367B
330
BC45
100
AcDbEntity
  8
0
  6
Continuous
 62
     1
370
    25
100
AcDbLine
 10
130.9683211251335
 20
172.0539613343414
 30
0.0
 11
130.9683211251335
 21
163.0096972656294
 31
0.0
  0
LINE
  5
1367C
330
BC45
100
AcDbEntity
  8
0
  6
Continuous
 62
     1
370
    25
100
AcDbLine
 10
130.9683211251335
 20
179.2739613343414
 30
0.0
 11
130.9683211251335
 21
175.7739613343414
 31
0.0
  0
INSERT
  5
1367D
330
BC45
100
AcDbEntity
  8
0
  6
Continuous
 62
     1
370
    25
100
AcDbBlockReference
  2
_OPEN15
 10
130.9683211251335
 20
179.2739613343414
 30
0.0
 41
3.72
 42
3.72
 43
3.72
 50
270.0
  0
INSERT
  5
1367E
330
BC45
100
AcDbEntity
  8
0
  6
Continuous
 62
     1
370
    25
100
AcDbBlockReference
  2
_OPEN15
 10
130.9683211251335
 20
175.7739613343414
 30
0.0
 41
3.72
 42
3.72
 43
3.72
 50
90.0
  0
MTEXT
  5
1367F
330
BC45
100
AcDbEntity
  8
0
  6
Continuous
 62
     5
370
    35
100
AcDbMText
 10
129.2183211251335
 20
165.6718292999854
 30
0.0
 40
2.5
 41
0.0
 71
     5
 72
     1
  1
\A1;3.5
 11
0.0000000000000001
 21
1.0
 31
0.0
 73
     1
 44
1.0
1001
ACAD
1000
MTEXTBEGIN
1070
    73
1070
     1
1070
    44
1040
1.0
1070
    74
1070
     0
1000
MTEXTEND
  0
POINT
  5
13680
330
BC45
100
AcDbEntity
  8
Defpoints
  6
Continuous
 62
     0
370
    50
100
AcDbPoint
 10
152.705089038629
 20
179.2739613343414
 30
0.0
  0
POINT
  5
13681
330
BC45
100
AcDbEntity
  8
Defpoints
  6
Continuous
 62
     0
370
    50
100
AcDbPoint
 10
148.0658190295691
 20
175.7739613343414
 30
0.0
  0
POINT
  5
13682
330
BC45
100
AcDbEntity
  8
Defpoints
  6
Continuous
 62
     0
370
    50
100
AcDbPoint
 10
130.9683211251335
 20
175.7739613343414
 30
0.0
  0
ENDBLK
  5
BC52
330
BC45
100
AcDbEntity
  8
0
 62
     7
370
    50
100
AcDbBlockEnd
  0
BLOCK
  5
C568
330
C55C
100
AcDbEntity
  8
0
 62
     7
370
    50
100
AcDbBlockBegin
  2
*D10
 70
     1
 10
0.0
 20
0.0
 30
0.0
  3
*D10
  1

  0
LINE
  5
1366F
330
C55C
100
AcDbEntity
  8
0
  6
Continuous
 62
     1
370
    25
100
AcDbLine
 10
152.2053936251192
 20
178.7914110826926
 30
0.0
 11
152.2053936251192
 21
160.7739613343413
 31
0.0
  0
LINE
  5
13670
330
C55C
100
AcDbEntity
  8
0
  6
Continuous
 62
     1
370
    25
100
AcDbLine
 10
187.7946502908892
 20
178.7914110826926
 30
0.0
 11
187.7946502908892
 21
160.7739613343413
 31
0.0
  0
LINE
  5
13671
330
C55C
100
AcDbEntity
  8
0
  6
Continuous
 62
     1
370
    25
100
AcDbLine
 10
155.9253936251192
 20
162.2739613343413
 30
0.0
 11
184.0746502908892
 21
162.2739613343413
 31
0.0
  0
INSERT
  5
13672
330
C55C
100
AcDbEntity
  8
0
  6
Continuous
 62
     1
370
    25
100
AcDbBlockReference
  2
_OPEN15
 10
152.2053936251192
 20
162.2739613343413
 30
0.0
 41
3.72
 42
3.72
 43
3.72
 50
180.0
  0
INSERT
  5
13673
330
C55C
100
AcDbEntity
  8
0
  6
Continuous
 62
     1
370
    25
100
AcDbBlockReference
  2
_OPEN15
 10
187.7946502908892
 20
162.2739613343413
 30
0.0
 41
3.72
 42
3.72
 43
3.72
  0
MTEXT
  5
13674
330
C55C
100
AcDbEntity
  8
0
  6
Continuous
 62
     5
370
    35
100
AcDbMText
 10
170.0000219580042
 20
164.0239613343413
 30
0.0
 40
2.5
 41
0.0
 71
     5
 72
     1
  1
\A1;35.5
 73
     1
 44
1.0
1001
ACAD
1000
MTEXTBEGIN
1070
    73
1070
     1
1070
    44
1040
1.0
1070
    74
1070
     0
1000
MTEXTEND
  0
POINT
  5
13675
330
C55C
100
AcDbEntity
  8
Defpoints
  6
Continuous
 62
     0
370
    50
100
AcDbPoint
 10
152.2053936251192
 20
178.7914110826926
 30
0.0
  0
POINT
  5
13676
330
C55C
100
AcDbEntity
  8
Defpoints
  6
Continuous
 62
     0
370
    50
100
AcDbPoint
 10
187.7946502908892
 20
178.7914110826926
 30
0.0
  0
POINT
  5
13677
330
C55C
100
AcDbEntity
  8
Defpoints
  6
Continuous
 62
     0
370
    50
100
AcDbPoint
 10
187.7946502908892
 20
162.2739613343413
 30
0.0
  0
ENDBLK
  5
C569
330
C55C
100
AcDbEntity
  8
0
 62
     7
370
    50
100
AcDbBlockEnd
  0
BLOCK
  5
CDE2
330
CDD6
100
AcDbEntity
  8
0
 62
     7
370
    50
100
AcDbBlockBegin
  2
*D11
 70
     1
 10
0.0
 20
0.0
 30
0.0
  3
*D11
  1

  0
LINE
  5
13666
330
CDD6
100
AcDbEntity
  8
0
  6
Continuous
 62
     1
370
    25
100
AcDbLine
 10
152.4999999999996
 20
141.7739613343414
 30
0.0
 11
152.4999999999996
 21
152.7739613343415
 31
0.0
  0
LINE
  5
13667
330
CDD6
100
AcDbEntity
  8
0
  6
Continuous
 62
     1
370
    25
100
AcDbLine
 10
187.4999999999996
 20
141.7739613343414
 30
0.0
 11
187.4999999999996
 21
152.7739613343415
 31
0.0
  0
LINE
  5
13668
330
CDD6
100
AcDbEntity
  8
0
  6
Continuous
 62
     1
370
    25
100
AcDbLine
 10
156.2199999999996
 20
151.2739613343415
 30
0.0
 11
183.7799999999996
 21
151.2739613343415
 31
0.0
  0
INSERT
  5
13669
330
CDD6
100
AcDbEntity
  8
0
  6
Continuous
 62
     1
370
    25
100
AcDbBlockReference
  2
_OPEN15
 10
152.4999999999996
 20
151.2739613343415
 30
0.0
 41
3.72
 42
3.72
 43
3.72
 50
180.0
  0
INSERT
  5
1366A
330
CDD6
100
AcDbEntity
  8
0
  6
Continuous
 62
     1
370
    25
100
AcDbBlockReference
  2
_OPEN15
 10
187.4999999999996
 20
151.2739613343415
 30
0.0
 41
3.72
 42
3.72
 43
3.72
  0
MTEXT
  5
1366B
330
CDD6
100
AcDbEntity
  8
0
  6
Continuous
 62
     5
370
    35
100
AcDbMText
 10
169.9999999999999
 20
153.5945544368677
 30
0.0
 40
2.5
 41
0.0
 71
     5
 72
     1
  1
\A1;35{\H1.666667;\S+0.2^ -0.1;}
 73
     1
 44
1.0
1001
ACAD
1000
MTEXTBEGIN
1070
    73
1070
     1
1070
    44
1040
1.0
1070
    74
1070
     0
1000
MTEXTEND
  0
POINT
  5
1366C
330
CDD6
100
AcDbEntity
  8
Defpoints
  6
Continuous
 62
     0
370
    50
100
AcDbPoint
 10
152.4999999999996
 20
141.7739613343414
 30
0.0
  0
POINT
  5
1366D
330
CDD6
100
AcDbEntity
  8
Defpoints
  6
Continuous
 62
     0
370
    50
100
AcDbPoint
 10
187.4999999999996
 20
141.7739613343414
 30
0.0
  0
POINT
  5
1366E
330
CDD6
100
AcDbEntity
  8
Defpoints
  6
Continuous
 62
     0
370
    50
100
AcDbPoint
 10
187.4999999999996
 20
151.2739613343415
 30
0.0
  0
ENDBLK
  5
CDE3
330
CDD6
100
AcDbEntity
  8
0
 62
     7
370
    50
100
AcDbBlockEnd
  0
BLOCK
  5
D6A9
330
D69D
100
AcDbEntity
  8
0
 62
     7
370
    50
100
AcDbBlockBegin
  2
*D12
 70
     1
 10
0.0
 20
0.0
 30
0.0
  3
*D12
  1

  0
LINE
  5
1365D
330
D69D
100
AcDbEntity
  8
0
  6
Continuous
 62
     1
370
    25
100
AcDbLine
 10
152.4562556682366
 20
141.8177056661044
 30
0.0
 11
138.9999999999998
 21
141.8177056661044
 31
0.0
  0
LINE
  5
1365E
330
D69D
100
AcDbEntity
  8
0
  6
Continuous
 62
     1
370
    25
100
AcDbLine
 10
152.4562556682366
 20
128.7302170025785
 30
0.0
 11
138.9999999999998
 21
128.7302170025785
 31
0.0
  0
LINE
  5
1365F
330
D69D
100
AcDbEntity
  8
0
  6
Continuous
 62
     1
370
    25
100
AcDbLine
 10
140.4999999999998
 20
138.0977056661044
 30
0.0
 11
140.4999999999998
 21
132.4502170025785
 31
0.0
  0
INSERT
  5
13660
330
D69D
100
AcDbEntity
  8
0
  6
Continuous
 62
     1
370
    25
100
AcDbBlockReference
  2
_OPEN15
 10
140.4999999999998
 20
141.8177056661044
 30
0.0
 41
3.72
 42
3.72
 43
3.72
 50
90.0
  0
INSERT
  5
13661
330
D69D
100
AcDbEntity
  8
0
  6
Continuous
 62
     1
370
    25
100
AcDbBlockReference
  2
_OPEN15
 10
140.4999999999998
 20
128.7302170025785
 30
0.0
 41
3.72
 42
3.72
 43
3.72
 50
270.0
  0
MTEXT
  5
13662
330
D69D
100
AcDbEntity
  8
0
  6
Continuous
 62
     5
370
    35
100
AcDbMText
 10
138.7499999999998
 20
135.2739613343413
 30
0.0
 40
2.5
 41
0.0
 71
     5
 72
     1
  1
\A1;13{\H0.666x;%%p0.1}
 11
0.0000000000000001
 21
1.0
 31
0.0
 73
     1
 44
1.0
1001
ACAD
1000
MTEXTBEGIN
1070
    73
1070
     1
1070
    44
1040
1.0
1070
    74
1070
     0
1000
MTEXTEND
  0
POINT
  5
13663
330
D69D
100
AcDbEntity
  8
Defpoints
  6
Continuous
 62
     0
370
    50
100
AcDbPoint
 10
152.4562556682366
 20
141.8177056661044
 30
0.0
  0
POINT
  5
13664
330
D69D
100
AcDbEntity
  8
Defpoints
  6
Continuous
 62
     0
370
    50
100
AcDbPoint
 10
152.4562556682366
 20
128.7302170025785
 30
0.0
  0
POINT
  5
13665
330
D69D
100
AcDbEntity
  8
Defpoints
  6
Continuous
 62
     0
370
    50
100
AcDbPoint
 10
140.4999999999998
 20
128.7302170025785
 30
0.0
  0
ENDBLK
  5
D6AA
330
D69D
100
AcDbEntity
  8
0
 62
     7
370
    50
100
AcDbBlockEnd
  0
BLOCK
  5
10C9C
330
10C90
100
AcDbEntity
  8
0
 62
     7
370
    50
100
AcDbBlockBegin
  2
*D13
 70
     1
 10
0.0
 20
0.0
 30
0.0
  3
*D13
  1

  0
LINE
  5
13652
330
10C90
100
AcDbEntity
  8
0
  6
Continuous
 62
     1
370
    25
100
AcDbLine
 10
152.5000219580042
 20
180.7739613343414
 30
0.0
 11
134.4683211251335
 21
180.7739613343414
 31
0.0
  0
LINE
  5
13653
330
10C90
100
AcDbEntity
  8
0
  6
Continuous
 62
     1
370
    25
100
AcDbLine
 10
152.705089038629
 20
179.2739613343414
 30
0.0
 11
134.4683211251335
 21
179.2739613343414
 31
0.0
  0
LINE
  5
13654
330
10C90
100
AcDbEntity
  8
0
  6
Continuous
 62
     1
370
    25
100
AcDbLine
 10
135.9683211251335
 20
175.5539613343414
 30
0.0
 11
135.9683211251335
 21
171.8339613343414
 31
0.0
  0
LINE
  5
13655
330
10C90
100
AcDbEntity
  8
0
  6
Continuous
 62
     1
370
    25
100
AcDbLine
 10
135.9683211251335
 20
184.4939613343413
 30
0.0
 11
135.9683211251335
 21
192.9382254030533
 31
0.0
  0
LINE
  5
13656
330
10C90
100
AcDbEntity
  8
0
  6
Continuous
 62
     1
370
    25
100
AcDbLine
 10
135.9683211251335
 20
179.2739613343414
 30
0.0
 11
135.9683211251335
 21
180.7739613343414
 31
0.0
  0
INSERT
  5
13657
330
10C90
100
AcDbEntity
  8
0
  6
Continuous
 62
     1
370
    25
100
AcDbBlockReference
  2
_OPEN15
 10
135.9683211251335
 20
179.2739613343414
 30
0.0
 41
3.72
 42
3.72
 43
3.72
 50
90.0
  0
INSERT
  5
13658
330
10C90
100
AcDbEntity
  8
0
  6
Continuous
 62
     1
370
    25
100
AcDbBlockReference
  2
_OPEN15
 10
135.9683211251335
 20
180.7739613343414
 30
0.0
 41
3.72
 42
3.72
 43
3.72
 50
270.0
  0
MTEXT
  5
13659
330
10C90
100
AcDbEntity
  8
0
  6
Continuous
 62
     5
370
    35
100
AcDbMText
 10
134.2183211251334
 20
190.5760933686974
 30
0.0
 40
2.5
 41
0.0
 71
     5
 72
     1
  1
\A1;1.5
 11
0.0000000000000001
 21
1.0
 31
0.0
 73
     1
 44
1.0
1001
ACAD
1000
MTEXTBEGIN
1070
    73
1070
     1
1070
    44
1040
1.0
1070
    74
1070
     0
1000
MTEXTEND
  0
POINT
  5
1365A
330
10C90
100
AcDbEntity
  8
Defpoints
  6
Continuous
 62
     0
370
    50
100
AcDbPoint
 10
152.5000219580042
 20
180.7739613343414
 30
0.0
  0
POINT
  5
1365B
330
10C90
100
AcDbEntity
  8
Defpoints
  6
Continuous
 62
     0
370
    50
100
AcDbPoint
 10
152.705089038629
 20
179.2739613343414
 30
0.0
  0
POINT
  5
1365C
330
10C90
100
AcDbEntity
  8
Defpoints
  6
Continuous
 62
     0
370
    50
100
AcDbPoint
 10
135.9683211251335
 20
179.2739613343414
 30
0.0
  0
ENDBLK
  5
10C9D
330
10C90
100
AcDbEntity
  8
0
 62
     7
370
    50
100
AcDbBlockEnd
  0
BLOCK
  5
11FC7
330
11FBB
100
AcDbEntity
  8
0
 62
     7
370
    50
100
AcDbBlockBegin
  2
*D14
 70
     1
 10
0.0
 20
0.0
 30
0.0
  3
*D14
  1

  0
LINE
  5
13647
330
11FBB
100
AcDbEntity
  8
0
  6
Continuous
 62
     1
370
    25
100
AcDbLine
 10
170.0000000000001
 20
182.2739613343401
 30
0.0
 11
139.4683211251336
 21
182.2739613343401
 31
0.0
  0
LINE
  5
13648
330
11FBB
100
AcDbEntity
  8
0
  6
Continuous
 62
     1
370
    25
100
AcDbLine
 10
152.5000219580042
 20
180.7739613343414
 30
0.0
 11
139.4683211251336
 21
180.7739613343414
 31
0.0
  0
LINE
  5
13649
330
11FBB
100
AcDbEntity
  8
0
  6
Continuous
 62
     1
370
    25
100
AcDbLine
 10
140.9683211251336
 20
177.0539613343414
 30
0.0
 11
140.9683211251336
 21
173.3339613343414
 31
0.0
  0
LINE
  5
1364A
330
11FBB
100
AcDbEntity
  8
0
  6
Continuous
 62
     1
370
    25
100
AcDbLine
 10
140.9683211251336
 20
185.9939613343401
 30
0.0
 11
140.9683211251336
 21
194.4382254030522
 31
0.0
  0
LINE
  5
1364B
330
11FBB
100
AcDbEntity
  8
0
  6
Continuous
 62
     1
370
    25
100
AcDbLine
 10
140.9683211251336
 20
180.7739613343414
 30
0.0
 11
140.9683211251336
 21
182.2739613343401
 31
0.0
  0
INSERT
  5
1364C
330
11FBB
100
AcDbEntity
  8
0
  6
Continuous
 62
     1
370
    25
100
AcDbBlockReference
  2
_OPEN15
 10
140.9683211251336
 20
180.7739613343414
 30
0.0
 41
3.72
 42
3.72
 43
3.72
 50
90.0
  0
INSERT
  5
1364D
330
11FBB
100
AcDbEntity
  8
0
  6
Continuous
 62
     1
370
    25
100
AcDbBlockReference
  2
_OPEN15
 10
140.9683211251336
 20
182.2739613343401
 30
0.0
 41
3.72
 42
3.72
 43
3.72
 50
270.0
  0
MTEXT
  5
1364E
330
11FBB
100
AcDbEntity
  8
0
  6
Continuous
 62
     5
370
    35
100
AcDbMText
 10
139.2183211251335
 20
192.0760933686962
 30
0.0
 40
2.5
 41
0.0
 71
     5
 72
     1
  1
\A1;1.5
 11
0.0000000000000001
 21
1.0
 31
0.0
 73
     1
 44
1.0
1001
ACAD
1000
MTEXTBEGIN
1070
    73
1070
     1
1070
    44
1040
1.0
1070
    74
1070
     0
1000
MTEXTEND
  0
POINT
  5
1364F
330
11FBB
100
AcDbEntity
  8
Defpoints
  6
Continuous
 62
     0
370
    50
100
AcDbPoint
 10
170.0000000000001
 20
182.2739613343401
 30
0.0
  0
POINT
  5
13650
330
11FBB
100
AcDbEntity
  8
Defpoints
  6
Continuous
 62
     0
370
    50
100
AcDbPoint
 10
152.5000219580042
 20
180.7739613343414
 30
0.0
  0
POINT
  5
13651
330
11FBB
100
AcDbEntity
  8
Defpoints
  6
Continuous
 62
     0
370
    50
100
AcDbPoint
 10
140.9683211251336
 20
180.7739613343414
 30
0.0
  0
ENDBLK
  5
11FC8
330
11FBB
100
AcDbEntity
  8
0
 62
     7
370
    50
100
AcDbBlockEnd
  0
BLOCK
  5
13849
330
1383D
100
AcDbEntity
  8
0
 62
     7
370
    50
100
AcDbBlockBegin
  2
*D15
 70
     1
 10
0.0
 20
0.0
 30
0.0
  3
*D15
  1

  0
LINE
  5
14BCF
330
1383D
100
AcDbEntity
  8
0
  6
Continuous
 62
     1
370
    25
100
AcDbLine
 10
184.7355314869416
 20
174.2739613343414
 30
0.0
 11
200.531722790875
 21
174.2739613343413
 31
0.0
  0
LINE
  5
14BD0
330
1383D
100
AcDbEntity
  8
0
  6
Continuous
 62
     1
370
    25
100
AcDbLine
 10
192.0317227908749
 20
175.7739613343414
 30
0.0
 11
200.531722790875
 21
175.7739613343414
 31
0.0
  0
LINE
  5
14BD1
330
1383D
100
AcDbEntity
  8
0
  6
Continuous
 62
     1
370
    25
100
AcDbLine
 10
199.031722790875
 20
179.4939613343414
 30
0.0
 11
199.031722790875
 21
183.2139613343414
 31
0.0
  0
LINE
  5
14BD2
330
1383D
100
AcDbEntity
  8
0
  6
Continuous
 62
     1
370
    25
100
AcDbLine
 10
199.031722790875
 20
170.5539613343413
 30
0.0
 11
199.031722790875
 21
162.1096972656294
 31
0.0
  0
LINE
  5
14BD3
330
1383D
100
AcDbEntity
  8
0
  6
Continuous
 62
     1
370
    25
100
AcDbLine
 10
199.031722790875
 20
175.7739613343414
 30
0.0
 11
199.031722790875
 21
174.2739613343413
 31
0.0
  0
INSERT
  5
14BD4
330
1383D
100
AcDbEntity
  8
0
  6
Continuous
 62
     1
370
    25
100
AcDbBlockReference
  2
_OPEN15
 10
199.031722790875
 20
175.7739613343414
 30
0.0
 41
3.72
 42
3.72
 43
3.72
 50
270.0
  0
INSERT
  5
14BD5
330
1383D
100
AcDbEntity
  8
0
  6
Continuous
 62
     1
370
    25
100
AcDbBlockReference
  2
_OPEN15
 10
199.031722790875
 20
174.2739613343413
 30
0.0
 41
3.72
 42
3.72
 43
3.72
 50
90.0
  0
MTEXT
  5
14BD6
330
1383D
100
AcDbEntity
  8
0
  6
Continuous
 62
     5
370
    35
100
AcDbMText
 10
197.281722790875
 20
164.4718292999854
 30
0.0
 40
2.5
 41
0.0
 71
     5
 72
     1
  1
\A1;1.5
 11
0.0000000000000001
 21
1.0
 31
0.0
 73
     1
 44
1.0
1001
ACAD
1000
MTEXTBEGIN
1070
    73
1070
     1
1070
    44
1040
1.0
1070
    74
1070
     0
1000
MTEXTEND
  0
POINT
  5
14BD7
330
1383D
100
AcDbEntity
  8
Defpoints
  6
Continuous
 62
     0
370
    50
100
AcDbPoint
 10
184.7355314869416
 20
174.2739613343414
 30
0.0
  0
POINT
  5
14BD8
330
1383D
100
AcDbEntity
  8
Defpoints
  6
Continuous
 62
     0
370
    50
100
AcDbPoint
 10
192.0317227908749
 20
175.7739613343414
 30
0.0
  0
POINT
  5
14BD9
330
1383D
100
AcDbEntity
  8
Defpoints
  6
Continuous
 62
     0
370
    50
100
AcDbPoint
 10
199.031722790875
 20
175.7739613343414
 30
0.0
  0
ENDBLK
  5
1384A
330
1383D
100
AcDbEntity
  8
0
 62
     7
370
    50
100
AcDbBlockEnd
  0
ENDSEC
  0
SECTION
  2
ENTITIES
  0
LINE
  5
42A7
102
{ACAD_REACTORS
330
4815
102
}
330
1F
100
AcDbEntity
  8
0
  6
ACAD_ISO04W100
 62
     1
370
    50
100
AcDbLine
 10
170.0
 20
200.2739613343401
 30
0.0
 11
170.0
 21
222.2739613343401
 31
0.0
1001
PHOENIX7010
1002
{
1070
    41
1040
1.0
1070
    62
1070
     1
1002
}
  0
LINE
  5
42A8
102
{ACAD_REACTORS
330
4815
102
}
330
1F
100
AcDbEntity
  8
0
  6
Continuous
 62
     7
370
    50
100
AcDbLine
 10
190.7738826009656
 20
220.2739613343401
 30
0.0
 11
149.2261173990346
 21
220.2739613343401
 31
0.0
1001
PHOENIX7010
1002
{
1070
    41
1040
1.0
1070
    62
1070
     7
1002
}
  0
LINE
  5
42A9
102
{ACAD_REACTORS
330
4815
102
}
330
1F
100
AcDbEntity
  8
0
  6
ACAD_ISO04W100
 62
     1
370
    50
100
AcDbLine
 10
193.5
 20
211.2739613343401
 30
0.0
 11
146.5
 21
211.2739613343401
 31
0.0
1001
PHOENIX7010
1002
{
1070
    41
1040
1.0
1070
    62
1070
     1
1002
}
  0
LINE
  5
42AA
102
{ACAD_REACTORS
330
4815
102
}
330
1F
100
AcDbEntity
  8
0
  6
Continuous
 62
     7
370
    50
100
AcDbLine
 10
190.7738826009656
 20
202.2739613343401
 30
0.0
 11
149.2261173990346
 21
202.2739613343401
 31
0.0
1001
PHOENIX7010
1002
{
1070
    41
1040
1.0
1070
    62
1070
     7
1002
}
  0
ARC
  5
42AB
102
{ACAD_REACTORS
330
4815
102
}
330
1F
100
AcDbEntity
  8
0
  6
Continuous
 62
     7
370
    50
100
AcDbCircle
 10
149.2261173990346
 20
203.0739613343401
 30
0.0
 40
0.8
100
AcDbArc
 50
193.01147532592
 51
270.0
1001
PHOENIX7010
1002
{
1070
    41
1040
1.0
1070
    62
1070
     7
1002
}
  0
ARC
  5
42AC
102
{ACAD_REACTORS
330
4815
102
}
330
1F
100
AcDbEntity
  8
0
  6
Continuous
 62
     7
370
    50
100
AcDbCircle
 10
149.2261173990346
 20
219.4739613343402
 30
0.0
 40
0.8
100
AcDbArc
 50
90.0
 51
166.9885246740941
1001
PHOENIX7010
1002
{
1070
    41
1040
1.0
1070
    62
1070
     7
1002
}
  0
LINE
  5
42AD
102
{ACAD_REACTORS
330
4815
102
}
330
1F
100
AcDbEntity
  8
0
  6
Continuous
 62
     7
370
    50
100
AcDbLine
 10
148.0658190295691
 20
175.7739613343414
 30
0.0
 11
148.223937466106
 21
180.3018809317035
 31
0.0
1001
PHOENIX7010
1002
{
1070
    41
1040
1.0
1070
    62
1070
     7
1002
}
  0
LINE
  5
42AE
102
{ACAD_REACTORS
330
4815
102
}
330
1F
100
AcDbEntity
  8
0
  6
Continuous
 62
     7
370
    50
100
AcDbLine
 10
151.3000219580042
 20
181.2739613343414
 30
0.0
 11
151.3000219580042
 21
179.4739613343414
 31
0.0
1001
PHOENIX7010
1002
{
1070
    41
1040
1.0
1070
    62
1070
     7
1002
}
  0
LINE
  5
42AF
102
{ACAD_REACTORS
330
4815
102
}
330
1F
100
AcDbEntity
  8
0
  6
Continuous
 62
     7
370
    50
100
AcDbLine
 10
150.5000219580042
 20
181.0739613343413
 30
0.0
 11
150.5000219580042
 21
179.2739613343414
 31
0.0
1001
PHOENIX7010
1002
{
1070
    41
1040
1.0
1070
    62
1070
     7
1002
}
  0
ARC
  5
42B0
102
{ACAD_REACTORS
330
4815
102
}
330
1F
100
AcDbEntity
  8
0
  6
Continuous
 62
     7
370
    50
100
AcDbCircle
 10
151.1000219580043
 20
179.4739613343414
 30
0.0
 40
0.2
100
AcDbArc
 50
270.0
 51
0.0
1001
PHOENIX7010
1002
{
1070
    41
1040
1.0
1070
    62
1070
     7
1002
}
  0
LINE
  5
42B1
102
{ACAD_REACTORS
330
4815
102
}
330
1F
100
AcDbEntity
  8
0
  6
Continuous
 62
     7
370
    50
100
AcDbLine
 10
187.5000219580042
 20
180.7739613343414
 30
0.0
 11
152.5000219580042
 21
180.7739613343414
 31
0.0
1001
PHOENIX7010
1002
{
1070
    41
1040
1.0
1070
    62
1070
     7
1002
}
  0
LINE
  5
42B2
102
{ACAD_REACTORS
330
4815
102
}
330
1F
100
AcDbEntity
  8
0
  6
Continuous
 62
     7
370
    50
100
AcDbLine
 10
187.2949548773797
 20
179.2739613343414
 30
0.0
 11
152.705089038629
 21
179.2739613343414
 31
0.0
1001
PHOENIX7010
1002
{
1070
    41
1040
1.0
1070
    62
1070
     7
1002
}
  0
LINE
  5
42B3
102
{ACAD_REACTORS
330
4815
330
113E1
102
}
330
1F
100
AcDbEntity
  8
0
  6
Continuous
 62
     7
370
    50
100
AcDbLine
 10
152.5000219580042
 20
180.7739613343414
 30
0.0
 11
152.4562776262414
 21
181.2739613343414
 31
0.0
1001
PHOENIX7010
1002
{
1070
    41
1040
1.0
1070
    62
1070
     7
1002
}
  0
LINE
  5
42B4
102
{ACAD_REACTORS
330
4815
102
}
330
1F
100
AcDbEntity
  8
0
  6
Continuous
 62
     7
370
    50
100
AcDbLine
 10
188.7000219580043
 20
181.2739613343414
 30
0.0
 11
188.7000219580043
 21
179.4739613343414
 31
0.0
1001
PHOENIX7010
1002
{
1070
    41
1040
1.0
1070
    62
1070
     7
1002
}
  0
ARC
  5
42B5
102
{ACAD_REACTORS
330
4815
102
}
330
1F
100
AcDbEntity
  8
0
  6
Continuous
 62
     7
370
    50
100
AcDbCircle
 10
188.9000219580043
 20
179.4739613343414
 30
0.0
 40
0.2
100
AcDbArc
 50
180.0
 51
270.0
1001
PHOENIX7010
1002
{
1070
    41
1040
1.0
1070
    62
1070
     7
1002
}
  0
LINE
  5
42B6
102
{ACAD_REACTORS
330
4815
330
A496
102
}
330
1F
100
AcDbEntity
  8
0
  6
Continuous
 62
     7
370
    50
100
AcDbLine
 10
187.5000219580042
 20
180.7739613343414
 30
0.0
 11
187.5437662897672
 21
181.2739613343414
 31
0.0
1001
PHOENIX7010
1002
{
1070
    41
1040
1.0
1070
    62
1070
     7
1002
}
  0
LINE
  5
42B7
102
{ACAD_REACTORS
330
4815
102
}
330
1F
100
AcDbEntity
  8
0
  6
Continuous
 62
     7
370
    50
100
AcDbLine
 10
188.9000219580043
 20
179.2739613343414
 30
0.0
 11
189.9500219580042
 21
179.2739613343414
 31
0.0
1001
PHOENIX7010
1002
{
1070
    41
1040
1.0
1070
    62
1070
     7
1002
}
  0
LINE
  5
42B8
102
{ACAD_REACTORS
330
4815
330
CD7B
102
}
330
1F
100
AcDbEntity
  8
0
  6
Continuous
 62
     7
370
    50
100
AcDbLine
 10
152.1000219580043
 20
175.7739613343414
 30
0.0
 11
152.2053936251192
 21
178.7914110826926
 31
0.0
1001
PHOENIX7010
1002
{
1070
    41
1040
1.0
1070
    62
1070
     7
1002
}
  0
ARC
  5
42B9
102
{ACAD_REACTORS
330
4815
330
C538
102
}
330
1F
100
AcDbEntity
  8
0
  6
Continuous
 62
     7
370
    50
100
AcDbCircle
 10
152.705089038629
 20
178.7739613343414
 30
0.0
 40
0.5
100
AcDbArc
 50
90.0
 51
177.9999999999962
1001
PHOENIX7010
1002
{
1070
    41
1040
1.0
1070
    62
1070
     7
1002
}
  0
ARC
  5
42BA
102
{ACAD_REACTORS
330
4815
330
A97D
102
}
330
1F
100
AcDbEntity
  8
0
  6
Continuous
 62
     7
370
    50
100
AcDbCircle
 10
187.2949548773797
 20
178.7739613343414
 30
0.0
 40
0.5
100
AcDbArc
 50
2.000000000003752
 51
90.0
1001
PHOENIX7010
1002
{
1070
    41
1040
1.0
1070
    62
1070
     7
1002
}
  0
LINE
  5
42BB
102
{ACAD_REACTORS
330
4815
330
CD7C
102
}
330
1F
100
AcDbEntity
  8
0
  6
Continuous
 62
     7
370
    50
100
AcDbLine
 10
187.9000219580043
 20
175.7739613343414
 30
0.0
 11
187.7946502908892
 21
178.7914110826926
 31
0.0
1001
PHOENIX7010
1002
{
1070
    41
1040
1.0
1070
    62
1070
     7
1002
}
  0
LINE
  5
42BC
102
{ACAD_REACTORS
330
4815
102
}
330
1F
100
AcDbEntity
  8
0
  6
ACAD_ISO04W100
 62
     1
 48
0.3809523809523809
370
    50
100
AcDbLine
 10
170.0000219580042
 20
184.2739613343414
 30
0.0
 11
170.0000219580042
 21
172.2739613343414
 31
0.0
1001
PHOENIX7010
1002
{
1070
    41
1040
1.0
1070
    62
1070
     1
1002
}
  0
LINE
  5
42BD
102
{ACAD_REACTORS
330
4815
102
}
330
1F
100
AcDbEntity
  8
0
  6
Continuous
 62
     5
370
    50
100
AcDbLine
 10
148.0657970715649
 20
206.0818971021354
 30
0.0
 11
150.766863464397
 21
206.0818971021354
 31
0.0
1001
PHOENIX7010
1002
{
1070
    41
1040
1.0
1070
    62
1070
     7
1002
}
  0
LINE
  5
42BE
102
{ACAD_REACTORS
330
4815
102
}
330
1F
100
AcDbEntity
  8
0
  6
Continuous
 62
     7
370
    50
100
AcDbLine
 10
185.0000219580043
 20
175.7739613343414
 30
0.0
 11
184.7355314869416
 21
174.2739613343414
 31
0.0
1001
PHOENIX7010
1002
{
1070
    41
1040
1.0
1070
    62
1070
     7
1002
}
  0
LINE
  5
42BF
102
{ACAD_REACTORS
330
4815
102
}
330
1F
100
AcDbEntity
  8
0
  6
Continuous
 62
     7
370
    50
100
AcDbLine
 10
155.0000219580043
 20
175.7739613343414
 30
0.0
 11
155.2645124290671
 21
174.2739613343414
 31
0.0
1001
PHOENIX7010
1002
{
1070
    41
1040
1.0
1070
    62
1070
     7
1002
}
  0
LINE
  5
42C0
102
{ACAD_REACTORS
330
4815
102
}
330
1F
100
AcDbEntity
  8
0
  6
Continuous
 62
     7
370
    50
100
AcDbLine
 10
185.0
 20
219.12396133434
 30
0.0
 11
185.0
 21
218.2215801801024
 31
0.0
1001
PHOENIX7010
1002
{
1070
    41
1040
1.0
1070
    62
1070
     7
1002
}
  0
LINE
  5
42C1
102
{ACAD_REACTORS
330
4815
102
}
330
1F
100
AcDbEntity
  8
0
  6
Continuous
 62
     7
370
    50
100
AcDbLine
 10
184.7355095289374
 20
218.9927283390511
 30
0.0
 11
184.7355095289374
 21
218.2739613343401
 31
0.0
1001
PHOENIX7010
1002
{
1070
    41
1040
1.0
1070
    62
1070
     7
1002
}
  0
LINE
  5
42C2
102
{ACAD_REACTORS
330
4815
102
}
330
1F
100
AcDbEntity
  8
0
  6
Continuous
 62
     7
370
    50
100
AcDbLine
 10
185.0
 20
219.12396133434
 30
0.0
 11
155.0
 21
219.12396133434
 31
0.0
1001
PHOENIX7010
1002
{
1070
    41
1040
1.0
1070
    62
1070
     7
1002
}
  0
LINE
  5
42C3
102
{ACAD_REACTORS
330
4815
102
}
330
1F
100
AcDbEntity
  8
0
  6
Continuous
 62
     7
370
    50
100
AcDbLine
 10
152.1000000000001
 20
204.8263424885777
 30
0.0
 11
152.1000000000001
 21
217.7215801801024
 31
0.0
1001
PHOENIX7010
1002
{
1070
    41
1040
1.0
1070
    62
1070
     7
1002
}
  0
LINE
  5
42C4
102
{ACAD_REACTORS
330
4815
330
145DF
102
}
330
1F
100
AcDbEntity
  8
0
  6
Continuous
 62
     7
370
    50
100
AcDbLine
 10
184.7355314869416
 20
174.2739613343414
 30
0.0
 11
155.2645124290671
 21
174.2739613343414
 31
0.0
1001
PHOENIX7010
1002
{
1070
    41
1040
1.0
1070
    62
1070
     7
1002
}
  0
LINE
  5
42C5
102
{ACAD_REACTORS
330
4815
102
}
330
1F
100
AcDbEntity
  8
0
  6
Continuous
 62
     7
370
    50
100
AcDbLine
 10
184.7355095289374
 20
218.2739613343401
 30
0.0
 11
155.2644904710625
 21
218.2739613343401
 31
0.0
1001
PHOENIX7010
1002
{
1070
    41
1040
1.0
1070
    62
1070
     7
1002
}
  0
LINE
  5
42C6
102
{ACAD_REACTORS
330
4815
102
}
330
1F
100
AcDbEntity
  8
0
  6
Continuous
 62
     7
370
    50
100
AcDbLine
 10
187.3999999999998
 20
218.2215801801024
 30
0.0
 11
185.0
 21
218.2215801801024
 31
0.0
1001
PHOENIX7010
1002
{
1070
    41
1040
1.0
1070
    62
1070
     7
1002
}
  0
LINE
  5
42C7
102
{ACAD_REACTORS
330
4815
102
}
330
1F
100
AcDbEntity
  8
0
  6
Continuous
 62
     7
370
    50
100
AcDbLine
 10
184.7355095289374
 20
218.9927283390511
 30
0.0
 11
155.2644904710625
 21
218.9927283390511
 31
0.0
1001
PHOENIX7010
1002
{
1070
    41
1040
1.0
1070
    62
1070
     7
1002
}
  0
LINE
  5
42C8
102
{ACAD_REACTORS
330
4815
102
}
330
1F
100
AcDbEntity
  8
0
  6
Continuous
 62
     7
370
    50
100
AcDbLine
 10
185.0
 20
219.12396133434
 30
0.0
 11
184.7355095289374
 21
218.9927283390511
 31
0.0
1001
PHOENIX7010
1002
{
1070
    41
1040
1.0
1070
    62
1070
     7
1002
}
  0
LINE
  5
42C9
102
{ACAD_REACTORS
330
4815
102
}
330
1F
100
AcDbEntity
  8
0
  6
Continuous
 62
     7
370
    50
100
AcDbLine
 10
185.0
 20
218.2215801801024
 30
0.0
 11
184.7355095289374
 21
218.2739613343401
 31
0.0
1001
PHOENIX7010
1002
{
1070
    41
1040
1.0
1070
    62
1070
     7
1002
}
  0
ARC
  5
42CA
102
{ACAD_REACTORS
330
4815
102
}
330
1F
100
AcDbEntity
  8
0
  6
Continuous
 62
     7
370
    50
100
AcDbCircle
 10
152.6000000000001
 20
217.7215801801024
 30
0.0
 40
0.5
100
AcDbArc
 50
90.0
 51
180.0
1001
PHOENIX7010
1002
{
1070
    41
1040
1.0
1070
    62
1070
     7
1002
}
  0
LINE
  5
42CB
102
{ACAD_REACTORS
330
4815
102
}
330
1F
100
AcDbEntity
  8
0
  6
Continuous
 62
     7
370
    50
100
AcDbLine
 10
152.6000000000001
 20
218.2215801801024
 30
0.0
 11
155.0
 21
218.2215801801024
 31
0.0
1001
PHOENIX7010
1002
{
1070
    41
1040
1.0
1070
    62
1070
     7
1002
}
  0
LINE
  5
42CC
102
{ACAD_REACTORS
330
4815
102
}
330
1F
100
AcDbEntity
  8
0
  6
Continuous
 62
     7
370
    50
100
AcDbLine
 10
155.0
 20
218.2215801801024
 30
0.0
 11
155.2644904710625
 21
218.2739613343401
 31
0.0
1001
PHOENIX7010
1002
{
1070
    41
1040
1.0
1070
    62
1070
     7
1002
}
  0
LINE
  5
42CD
102
{ACAD_REACTORS
330
4815
102
}
330
1F
100
AcDbEntity
  8
0
  6
Continuous
 62
     7
370
    50
100
AcDbLine
 10
155.0
 20
219.12396133434
 30
0.0
 11
155.2644904710625
 21
218.9927283390511
 31
0.0
1001
PHOENIX7010
1002
{
1070
    41
1040
1.0
1070
    62
1070
     7
1002
}
  0
LINE
  5
42CE
102
{ACAD_REACTORS
330
4815
102
}
330
1F
100
AcDbEntity
  8
0
  6
Continuous
 62
     7
370
    50
100
AcDbLine
 10
155.0
 20
219.12396133434
 30
0.0
 11
155.0
 21
218.2215801801024
 31
0.0
1001
PHOENIX7010
1002
{
1070
    41
1040
1.0
1070
    62
1070
     7
1002
}
  0
LINE
  5
42CF
102
{ACAD_REACTORS
330
4815
102
}
330
1F
100
AcDbEntity
  8
0
  6
Continuous
 62
     7
370
    50
100
AcDbLine
 10
155.2644904710625
 20
218.9927283390511
 30
0.0
 11
155.2644904710625
 21
218.2739613343401
 31
0.0
1001
PHOENIX7010
1002
{
1070
    41
1040
1.0
1070
    62
1070
     7
1002
}
  0
LINE
  5
42D0
102
{ACAD_REACTORS
330
4815
102
}
330
1F
100
AcDbEntity
  8
0
  6
Continuous
 62
     7
370
    50
100
AcDbLine
 10
184.7355095289374
 20
204.2739613343401
 30
0.0
 11
155.2644904710625
 21
204.2739613343401
 31
0.0
1001
PHOENIX7010
1002
{
1070
    41
1040
1.0
1070
    62
1070
     7
1002
}
  0
LINE
  5
42D1
102
{ACAD_REACTORS
330
4815
102
}
330
1F
100
AcDbEntity
  8
0
  6
Continuous
 62
     7
370
    50
100
AcDbLine
 10
184.7355095289374
 20
203.555194329629
 30
0.0
 11
155.2644904710625
 21
203.555194329629
 31
0.0
1001
PHOENIX7010
1002
{
1070
    41
1040
1.0
1070
    62
1070
     7
1002
}
  0
LINE
  5
42D2
102
{ACAD_REACTORS
330
4815
102
}
330
1F
100
AcDbEntity
  8
0
  6
Continuous
 62
     7
370
    50
100
AcDbLine
 10
185.0
 20
203.42396133434
 30
0.0
 11
155.0
 21
203.42396133434
 31
0.0
1001
PHOENIX7010
1002
{
1070
    41
1040
1.0
1070
    62
1070
     7
1002
}
  0
LINE
  5
42D3
102
{ACAD_REACTORS
330
4815
102
}
330
1F
100
AcDbEntity
  8
0
  6
Continuous
 62
     7
370
    50
100
AcDbLine
 10
187.3999999999998
 20
204.3263424885777
 30
0.0
 11
185.0
 21
204.3263424885778
 31
0.0
1001
PHOENIX7010
1002
{
1070
    41
1040
1.0
1070
    62
1070
     7
1002
}
  0
LINE
  5
42D4
102
{ACAD_REACTORS
330
4815
102
}
330
1F
100
AcDbEntity
  8
0
  6
Continuous
 62
     7
370
    50
100
AcDbLine
 10
185.0
 20
204.3263424885778
 30
0.0
 11
184.7355095289374
 21
204.2739613343401
 31
0.0
1001
PHOENIX7010
1002
{
1070
    41
1040
1.0
1070
    62
1070
     7
1002
}
  0
LINE
  5
42D5
102
{ACAD_REACTORS
330
4815
102
}
330
1F
100
AcDbEntity
  8
0
  6
Continuous
 62
     7
370
    50
100
AcDbLine
 10
185.0
 20
203.42396133434
 30
0.0
 11
184.7355095289374
 21
203.555194329629
 31
0.0
1001
PHOENIX7010
1002
{
1070
    41
1040
1.0
1070
    62
1070
     7
1002
}
  0
LINE
  5
42D6
102
{ACAD_REACTORS
330
4815
102
}
330
1F
100
AcDbEntity
  8
0
  6
Continuous
 62
     7
370
    50
100
AcDbLine
 10
185.0
 20
203.42396133434
 30
0.0
 11
185.0
 21
204.3263424885778
 31
0.0
1001
PHOENIX7010
1002
{
1070
    41
1040
1.0
1070
    62
1070
     7
1002
}
  0
LINE
  5
42D7
102
{ACAD_REACTORS
330
4815
102
}
330
1F
100
AcDbEntity
  8
0
  6
Continuous
 62
     7
370
    50
100
AcDbLine
 10
184.7355095289374
 20
203.555194329629
 30
0.0
 11
184.7355095289374
 21
204.2739613343401
 31
0.0
1001
PHOENIX7010
1002
{
1070
    41
1040
1.0
1070
    62
1070
     7
1002
}
  0
LINE
  5
42D8
102
{ACAD_REACTORS
330
4815
102
}
330
1F
100
AcDbEntity
  8
0
  6
Continuous
 62
     7
370
    50
100
AcDbLine
 10
155.2644904710625
 20
203.555194329629
 30
0.0
 11
155.2644904710625
 21
204.2739613343401
 31
0.0
1001
PHOENIX7010
1002
{
1070
    41
1040
1.0
1070
    62
1070
     7
1002
}
  0
LINE
  5
42D9
102
{ACAD_REACTORS
330
4815
102
}
330
1F
100
AcDbEntity
  8
0
  6
Continuous
 62
     7
370
    50
100
AcDbLine
 10
155.0
 20
203.42396133434
 30
0.0
 11
155.0
 21
204.3263424885778
 31
0.0
1001
PHOENIX7010
1002
{
1070
    41
1040
1.0
1070
    62
1070
     7
1002
}
  0
LINE
  5
42DA
102
{ACAD_REACTORS
330
4815
102
}
330
1F
100
AcDbEntity
  8
0
  6
Continuous
 62
     7
370
    50
100
AcDbLine
 10
155.0
 20
203.42396133434
 30
0.0
 11
155.2644904710625
 21
203.555194329629
 31
0.0
1001
PHOENIX7010
1002
{
1070
    41
1040
1.0
1070
    62
1070
     7
1002
}
  0
LINE
  5
42DB
102
{ACAD_REACTORS
330
4815
102
}
330
1F
100
AcDbEntity
  8
0
  6
Continuous
 62
     7
370
    50
100
AcDbLine
 10
155.0
 20
204.3263424885778
 30
0.0
 11
155.2644904710625
 21
204.2739613343401
 31
0.0
1001
PHOENIX7010
1002
{
1070
    41
1040
1.0
1070
    62
1070
     7
1002
}
  0
LINE
  5
42DC
102
{ACAD_REACTORS
330
4815
102
}
330
1F
100
AcDbEntity
  8
0
  6
Continuous
 62
     7
370
    50
100
AcDbLine
 10
152.6000000000001
 20
204.3263424885777
 30
0.0
 11
155.0
 21
204.3263424885778
 31
0.0
1001
PHOENIX7010
1002
{
1070
    41
1040
1.0
1070
    62
1070
     7
1002
}
  0
ARC
  5
42DD
102
{ACAD_REACTORS
330
4815
102
}
330
1F
100
AcDbEntity
  8
0
  6
Continuous
 62
     7
370
    50
100
AcDbCircle
 10
152.6000000000001
 20
204.8263424885777
 30
0.0
 40
0.5
100
AcDbArc
 50
180.0
 51
270.0
1001
PHOENIX7010
1002
{
1070
    41
1040
1.0
1070
    62
1070
     7
1002
}
  0
LINE
  5
42DE
102
{ACAD_REACTORS
330
4815
102
}
330
1F
100
AcDbEntity
  8
0
  6
Continuous
 62
     7
370
    50
100
AcDbLine
 10
192.0317227908749
 20
175.7739613343414
 30
0.0
 11
185.0000219580043
 21
175.7739613343414
 31
0.0
1001
PHOENIX7010
1002
{
1070
    41
1040
1.0
1070
    62
1070
     7
1002
}
  0
LINE
  5
42DF
102
{ACAD_REACTORS
330
4815
102
}
330
1F
100
AcDbEntity
  8
0
  6
Continuous
 62
     7
370
    50
100
AcDbLine
 10
155.0000219580043
 20
175.7739613343414
 30
0.0
 11
147.9683211251335
 21
175.7739613343414
 31
0.0
1001
PHOENIX7010
1002
{
1070
    41
1040
1.0
1070
    62
1070
     7
1002
}
  0
LINE
  5
42E0
102
{ACAD_REACTORS
330
4815
102
}
330
1F
100
AcDbEntity
  8
0
  6
Continuous
 62
     7
370
    50
100
AcDbLine
 10
150.2597754607382
 20
214.77396133434
 30
0.0
 11
150.766863464397
 21
214.77396133434
 31
0.0
1001
PHOENIX7010
1002
{
1070
    41
1040
1.0
1070
    62
1070
     7
1002
}
  0
LINE
  5
42E1
102
{ACAD_REACTORS
330
4815
102
}
330
1F
100
AcDbEntity
  8
0
  6
Continuous
 62
     7
370
    50
100
AcDbLine
 10
150.2597754607382
 20
207.77396133434
 30
0.0
 11
150.766863464397
 21
207.77396133434
 31
0.0
1001
PHOENIX7010
1002
{
1070
    41
1040
1.0
1070
    62
1070
     7
1002
}
  0
LINE
  5
42E2
102
{ACAD_REACTORS
330
4815
102
}
330
1F
100
AcDbEntity
  8
0
  6
ACAD_ISO04W100
 62
     1
370
    50
100
AcDbLine
 10
169.9999999999996
 20
146.2739613343414
 30
0.0
 11
169.9999999999996
 21
124.2739613343414
 31
0.0
1001
PHOENIX7010
1002
{
1070
    41
1040
1.0
1070
    62
1070
     1
1002
}
  0
LINE
  5
42E3
102
{ACAD_REACTORS
330
4815
102
}
330
1F
100
AcDbEntity
  8
0
  6
Continuous
 62
     7
370
    50
100
AcDbLine
 10
190.7738826009653
 20
144.2739613343414
 30
0.0
 11
149.2261173990342
 21
144.2739613343414
 31
0.0
1001
PHOENIX7010
1002
{
1070
    41
1040
1.0
1070
    62
1070
     7
1002
}
  0
LINE
  5
42E4
102
{ACAD_REACTORS
330
4815
102
}
330
1F
100
AcDbEntity
  8
0
  6
Continuous
 62
     7
370
    50
100
AcDbLine
 10
190.7738826009653
 20
126.2739613343414
 30
0.0
 11
149.2261173990342
 21
126.2739613343414
 31
0.0
1001
PHOENIX7010
1002
{
1070
    41
1040
1.0
1070
    62
1070
     7
1002
}
  0
ARC
  5
42E5
102
{ACAD_REACTORS
330
4815
102
}
330
1F
100
AcDbEntity
  8
0
  6
Continuous
 62
     7
370
    50
100
AcDbCircle
 10
149.2261173990342
 20
143.4739613343414
 30
0.0
 40
0.8
100
AcDbArc
 50
90.0
 51
166.9885246740798
1001
PHOENIX7010
1002
{
1070
    41
1040
1.0
1070
    62
1070
     7
1002
}
  0
LINE
  5
42E6
102
{ACAD_REACTORS
330
4815
102
}
330
1F
100
AcDbEntity
  8
0
  6
Continuous
 62
     7
370
    50
100
AcDbLine
 10
150.2597754607378
 20
131.7739613343415
 30
0.0
 11
150.4999999999996
 21
131.7739613343415
 31
0.0
1001
PHOENIX7010
1002
{
1070
    41
1040
1.0
1070
    62
1070
     7
1002
}
  0
LINE
  5
42E7
102
{ACAD_REACTORS
330
4815
102
}
330
1F
100
AcDbEntity
  8
0
  6
Continuous
 62
     1
370
    50
100
AcDbLine
 10
147.5959983935166
 20
132.9422028658385
 30
0.0
 11
147.5000000000001
 21
134.7739613343414
 31
0.0
1001
PHOENIX7010
1002
{
1070
    41
1040
1.0
1070
    62
1070
     7
1002
}
  0
ARC
  5
42E8
102
{ACAD_REACTORS
330
4815
102
}
330
1F
100
AcDbEntity
  8
0
  6
Continuous
 62
     7
370
    50
100
AcDbCircle
 10
149.2261173990342
 20
127.0739613343413
 30
0.0
 40
0.8
100
AcDbArc
 50
193.0114753259059
 51
270.0
1001
PHOENIX7010
1002
{
1070
    41
1040
1.0
1070
    62
1070
     7
1002
}
  0
LINE
  5
42E9
102
{ACAD_REACTORS
330
4815
102
}
330
1F
100
AcDbEntity
  8
0
  6
Continuous
 62
     7
370
    50
100
AcDbLine
 10
151.2999999999996
 20
140.7815550325387
 30
0.0
 11
151.2999999999997
 21
129.7663676361441
 31
0.0
1001
PHOENIX7010
1002
{
1070
    41
1040
1.0
1070
    62
1070
     7
1002
}
  0
LINE
  5
42EA
102
{ACAD_REACTORS
330
4815
102
}
330
1F
100
AcDbEntity
  8
0
  6
Continuous
 62
     7
370
    50
100
AcDbLine
 10
151.2999999999996
 20
133.2739613343413
 30
0.0
 11
150.4999999999996
 21
133.2739613343413
 31
0.0
1001
PHOENIX7010
1002
{
1070
    41
1040
1.0
1070
    62
1070
     7
1002
}
  0
ARC
  5
42EB
102
{ACAD_REACTORS
330
4815
102
}
330
1F
100
AcDbEntity
  8
0
  6
Continuous
 62
     7
370
    50
100
AcDbCircle
 10
150.7999999999997
 20
129.7663676361441
 30
0.0
 40
0.5
100
AcDbArc
 50
270.0
 51
0.0
1001
PHOENIX7010
1002
{
1070
    41
1040
1.0
1070
    62
1070
     7
1002
}
  0
LINE
  5
42EC
102
{ACAD_REACTORS
330
4815
102
}
330
1F
100
AcDbEntity
  8
0
  6
Continuous
 62
     7
370
    50
100
AcDbLine
 10
152.4999999999996
 20
141.7739613343414
 30
0.0
 11
152.4999999999996
 21
128.7739613343414
 31
0.0
1001
PHOENIX7010
1002
{
1070
    41
1040
1.0
1070
    62
1070
     7
1002
}
  0
ARC
  5
42ED
102
{ACAD_REACTORS
330
4815
102
}
330
1F
100
AcDbEntity
  8
0
  6
Continuous
 62
     7
370
    50
100
AcDbCircle
 10
169.9999999999996
 20
-2189.59304162802
 30
0.0
 40
2331.50463968803
100
AcDbArc
 50
89.48579516996206
 51
90.51420483003793
1001
PHOENIX7010
1002
{
1070
    41
1040
1.0
1070
    62
1070
     7
1002
}
  0
LINE
  5
42EE
102
{ACAD_REACTORS
330
4815
330
D675
102
}
330
1F
100
AcDbEntity
  8
0
  6
Continuous
 62
     7
370
    50
100
AcDbLine
 10
152.4562556682366
 20
141.8177056661044
 30
0.0
 11
152.4999999999996
 21
141.7739613343414
 31
0.0
1001
PHOENIX7010
1002
{
1070
    41
1040
1.0
1070
    62
1070
     7
1002
}
  0
LINE
  5
42EF
102
{ACAD_REACTORS
330
4815
102
}
330
1F
100
AcDbEntity
  8
0
  6
Continuous
 62
     7
370
    50
100
AcDbLine
 10
152.4562556682366
 20
141.8177056661044
 30
0.0
 11
149.0760355508946
 21
141.8177056661044
 31
0.0
1001
PHOENIX7010
1002
{
1070
    41
1040
1.0
1070
    62
1070
     7
1002
}
  0
ARC
  5
42F0
102
{ACAD_REACTORS
330
4815
102
}
330
1F
100
AcDbEntity
  8
0
  6
Continuous
 62
     7
370
    50
100
AcDbCircle
 10
169.9999999999997
 20
2460.140964296702
 30
0.0
 40
2331.50463968803
100
AcDbArc
 50
269.4857951699621
 51
270.5142048300378
1001
PHOENIX7010
1002
{
1070
    41
1040
1.0
1070
    62
1070
     7
1002
}
  0
LINE
  5
42F1
102
{ACAD_REACTORS
330
4815
102
}
330
1F
100
AcDbEntity
  8
0
  6
Continuous
 62
     7
370
    50
100
AcDbLine
 10
152.4562556682366
 20
128.7302170025785
 30
0.0
 11
149.0760355508946
 21
128.7302170025785
 31
0.0
1001
PHOENIX7010
1002
{
1070
    41
1040
1.0
1070
    62
1070
     7
1002
}
  0
LINE
  5
42F2
102
{ACAD_REACTORS
330
4815
102
}
330
1F
100
AcDbEntity
  8
0
  6
Continuous
 62
     7
370
    50
100
AcDbLine
 10
152.4562556682366
 20
128.7302170025785
 30
0.0
 11
152.4999999999996
 21
128.7739613343414
 31
0.0
1001
PHOENIX7010
1002
{
1070
    41
1040
1.0
1070
    62
1070
     7
1002
}
  0
LINE
  5
42F3
102
{ACAD_REACTORS
330
4815
330
E180
330
E181
102
}
330
1F
100
AcDbEntity
  8
0
  6
Continuous
 62
     7
370
    50
100
AcDbLine
 10
152.4562556682366
 20
141.8177056661044
 30
0.0
 11
152.4562556682366
 21
128.7302170025785
 31
0.0
1001
PHOENIX7010
1002
{
1070
    41
1040
1.0
1070
    62
1070
     7
1002
}
  0
LINE
  5
42F4
102
{ACAD_REACTORS
330
4815
102
}
330
1F
100
AcDbEntity
  8
0
  6
Continuous
 62
     7
370
    50
100
AcDbLine
 10
189.8066492651248
 20
177.7739613343413
 30
0.0
 11
188.9000219580043
 21
177.7739613343413
 31
0.0
1001
PHOENIX7010
1002
{
1070
    41
1040
1.0
1070
    62
1070
     7
1002
}
  0
LINE
  5
42F5
102
{ACAD_REACTORS
330
4815
102
}
330
1F
100
AcDbEntity
  8
0
  6
Continuous
 62
     7
370
    50
100
AcDbLine
 10
189.8073667356101
 20
209.7739613343401
 30
0.0
 11
188.9000000000001
 21
209.7739613343401
 31
0.0
1001
PHOENIX7010
1002
{
1070
    41
1040
1.0
1070
    62
1070
     7
1002
}
  0
LINE
  5
42F6
102
{ACAD_REACTORS
330
4815
102
}
330
1F
100
AcDbEntity
  8
0
  6
Continuous
 62
     7
370
    50
100
AcDbLine
 10
189.8073667356101
 20
212.7739613343401
 30
0.0
 11
188.9000000000001
 21
212.7739613343401
 31
0.0
1001
PHOENIX7010
1002
{
1070
    41
1040
1.0
1070
    62
1070
     7
1002
}
  0
LINE
  5
42F7
102
{ACAD_REACTORS
330
4815
102
}
330
1F
100
AcDbEntity
  8
0
  6
Continuous
 62
     5
370
    50
100
AcDbLine
 10
150.5
 20
206.2669771804417
 30
0.0
 11
150.5
 21
207.77396133434
 31
0.0
1001
PHOENIX7010
1002
{
1070
    41
1040
1.0
1070
    62
1070
     7
1002
}
  0
LINE
  5
42F8
102
{ACAD_REACTORS
330
4815
102
}
330
1F
100
AcDbEntity
  8
0
  6
Continuous
 62
     7
370
    50
100
AcDbLine
 10
151.3000219580042
 20
181.0739613343413
 30
0.0
 11
149.0234501277213
 21
181.0739613343413
 31
0.0
1001
PHOENIX7010
1002
{
1070
    41
1040
1.0
1070
    62
1070
     7
1002
}
  0
LINE
  5
42F9
102
{ACAD_REACTORS
330
4815
102
}
330
1F
100
AcDbEntity
  8
0
  6
Continuous
 62
     5
370
    50
100
AcDbLine
 10
150.5
 20
216.2809454882386
 30
0.0
 11
150.5
 21
214.7739613343401
 31
0.0
1001
PHOENIX7010
1002
{
1070
    41
1040
1.0
1070
    62
1070
     7
1002
}
  0
LINE
  5
42FA
102
{ACAD_REACTORS
330
4815
102
}
330
1F
100
AcDbEntity
  8
0
  6
Continuous
 62
     7
370
    50
100
AcDbLine
 10
187.8999999999998
 20
204.8263424885777
 30
0.0
 11
187.8999999999998
 21
217.7215801801024
 31
0.0
1001
PHOENIX7010
1002
{
1070
    41
1040
1.0
1070
    62
1070
     7
1002
}
  0
LINE
  5
42FB
102
{ACAD_REACTORS
330
4815
102
}
330
1F
100
AcDbEntity
  8
0
  6
Continuous
 62
     5
370
    50
100
AcDbLine
 10
189.5
 20
206.2669771804417
 30
0.0
 11
189.5
 21
207.77396133434
 31
0.0
1001
PHOENIX7010
1002
{
1070
    41
1040
1.0
1070
    62
1070
     7
1002
}
  0
ARC
  5
42FC
102
{ACAD_REACTORS
330
4815
102
}
330
1F
100
AcDbEntity
  8
0
  6
Continuous
 62
     7
370
    50
100
AcDbCircle
 10
187.3999999999998
 20
204.8263424885777
 30
0.0
 40
0.5
100
AcDbArc
 50
270.0
 51
0.0
1001
PHOENIX7010
1002
{
1070
    41
1040
1.0
1070
    62
1070
     7
1002
}
  0
ARC
  5
42FD
102
{ACAD_REACTORS
330
4815
102
}
330
1F
100
AcDbEntity
  8
0
  6
Continuous
 62
     7
370
    50
100
AcDbCircle
 10
190.7738826009654
 20
203.0739613343401
 30
0.0
 40
0.8
100
AcDbArc
 50
270.0
 51
346.98852467408
1001
PHOENIX7010
1002
{
1070
    41
1040
1.0
1070
    62
1070
     7
1002
}
  0
LINE
  5
42FE
102
{ACAD_REACTORS
330
4815
102
}
330
1F
100
AcDbEntity
  8
0
  6
Continuous
 62
     5
370
    50
100
AcDbLine
 10
189.5
 20
216.2809454882386
 30
0.0
 11
189.5
 21
214.7739613343401
 31
0.0
1001
PHOENIX7010
1002
{
1070
    41
1040
1.0
1070
    62
1070
     7
1002
}
  0
ARC
  5
42FF
102
{ACAD_REACTORS
330
4815
102
}
330
1F
100
AcDbEntity
  8
0
  6
Continuous
 62
     7
370
    50
100
AcDbCircle
 10
187.3999999999998
 20
217.7215801801024
 30
0.0
 40
0.5
100
AcDbArc
 50
0.0
 51
90.0
1001
PHOENIX7010
1002
{
1070
    41
1040
1.0
1070
    62
1070
     7
1002
}
  0
ARC
  5
4300
102
{ACAD_REACTORS
330
4815
102
}
330
1F
100
AcDbEntity
  8
0
  6
Continuous
 62
     7
370
    50
100
AcDbCircle
 10
190.7738826009654
 20
219.4739613343402
 30
0.0
 40
0.8
100
AcDbArc
 50
13.01147532590585
 51
90.0
1001
PHOENIX7010
1002
{
1070
    41
1040
1.0
1070
    62
1070
     7
1002
}
  0
LINE
  5
4301
102
{ACAD_REACTORS
330
4815
102
}
330
1F
100
AcDbEntity
  8
0
  6
Continuous
 62
     7
370
    50
100
AcDbLine
 10
188.7000219580043
 20
181.0739613343413
 30
0.0
 11
190.9765937882871
 21
181.0739613343413
 31
0.0
1001
PHOENIX7010
1002
{
1070
    41
1040
1.0
1070
    62
1070
     7
1002
}
  0
LINE
  5
4302
102
{ACAD_REACTORS
330
4815
102
}
330
1F
100
AcDbEntity
  8
0
  6
Continuous
 62
     7
370
    50
100
AcDbLine
 10
189.5000219580042
 20
181.0739613343413
 30
0.0
 11
189.5000219580042
 21
179.2739613343414
 31
0.0
1001
PHOENIX7010
1002
{
1070
    41
1040
1.0
1070
    62
1070
     7
1002
}
  0
LINE
  5
4303
102
{ACAD_REACTORS
330
4815
330
A495
102
}
330
1F
100
AcDbEntity
  8
0
  6
Continuous
 62
     7
370
    50
100
AcDbLine
 10
190.8739697838631
 20
181.2739613343414
 30
0.0
 11
187.5437662897672
 21
181.2739613343414
 31
0.0
1001
PHOENIX7010
1002
{
1070
    41
1040
1.0
1070
    62
1070
     7
1002
}
  0
LINE
  5
4304
102
{ACAD_REACTORS
330
4815
102
}
330
1F
100
AcDbEntity
  8
0
  6
Continuous
 62
     7
370
    50
100
AcDbLine
 10
152.4562776262414
 20
181.2739613343414
 30
0.0
 11
149.1260741321453
 21
181.2739613343414
 31
0.0
1001
PHOENIX7010
1002
{
1070
    41
1040
1.0
1070
    62
1070
     7
1002
}
  0
LINE
  5
4305
102
{ACAD_REACTORS
330
4815
102
}
330
1F
100
AcDbEntity
  8
0
  6
Continuous
 62
     7
370
    50
100
AcDbLine
 10
150.4999999999996
 20
130.2669771804429
 30
0.0
 11
150.4999999999996
 21
133.2739613343413
 31
0.0
1001
PHOENIX7010
1002
{
1070
    41
1040
1.0
1070
    62
1070
     7
1002
}
  0
LINE
  5
4306
102
{ACAD_REACTORS
330
4815
102
}
330
1F
100
AcDbEntity
  8
0
  6
Continuous
 62
     1
370
    50
100
AcDbLine
 10
147.5000000000001
 20
134.7739613343414
 30
0.0
 11
147.4999999999996
 21
135.7739613343414
 31
0.0
1001
PHOENIX7010
1002
{
1070
    41
1040
1.0
1070
    62
1070
     1
1002
}
  0
LINE
  5
4307
102
{ACAD_REACTORS
330
4815
102
}
330
1F
100
AcDbEntity
  8
0
  6
Continuous
 62
     7
370
    50
100
AcDbLine
 10
151.2999999999996
 20
137.2739613343413
 30
0.0
 11
150.4999999999996
 21
137.2739613343413
 31
0.0
1001
PHOENIX7010
1002
{
1070
    41
1040
1.0
1070
    62
1070
     7
1002
}
  0
ARC
  5
4308
102
{ACAD_REACTORS
330
4815
102
}
330
1F
100
AcDbEntity
  8
0
  6
Continuous
 62
     7
370
    50
100
AcDbCircle
 10
150.7999999999997
 20
140.7815550325387
 30
0.0
 40
0.5
100
AcDbArc
 50
0.0
 51
90.0
1001
PHOENIX7010
1002
{
1070
    41
1040
1.0
1070
    62
1070
     7
1002
}
  0
LINE
  5
4309
102
{ACAD_REACTORS
330
4815
102
}
330
1F
100
AcDbEntity
  8
0
  6
Continuous
 62
     7
370
    50
100
AcDbLine
 10
149.922472084201
 20
140.2809454882398
 30
0.0
 11
150.4999999999996
 21
140.2809454882398
 31
0.0
1001
PHOENIX7010
1002
{
1070
    41
1040
1.0
1070
    62
1070
     7
1002
}
  0
LINE
  5
430A
102
{ACAD_REACTORS
330
4815
102
}
330
1F
100
AcDbEntity
  8
0
  6
Continuous
 62
     7
370
    50
100
AcDbLine
 10
148.3374699457669
 20
141.2815550325387
 30
0.0
 11
150.7999999999997
 21
141.2815550325387
 31
0.0
1001
PHOENIX7010
1002
{
1070
    41
1040
1.0
1070
    62
1070
     7
1002
}
  0
LINE
  5
430B
102
{ACAD_REACTORS
330
4815
102
}
330
1F
100
AcDbEntity
  8
0
  6
Continuous
 62
     7
370
    50
100
AcDbLine
 10
150.4999999999996
 20
140.2809454882398
 30
0.0
 11
150.4999999999996
 21
137.2739613343413
 31
0.0
1001
PHOENIX7010
1002
{
1070
    41
1040
1.0
1070
    62
1070
     7
1002
}
  0
LINE
  5
430C
102
{ACAD_REACTORS
330
4815
102
}
330
1F
100
AcDbEntity
  8
0
  6
Continuous
 62
     7
370
    50
100
AcDbLine
 10
150.2597754607378
 20
138.7739613343415
 30
0.0
 11
150.4999999999996
 21
138.7739613343415
 31
0.0
1001
PHOENIX7010
1002
{
1070
    41
1040
1.0
1070
    62
1070
     7
1002
}
  0
LINE
  5
430D
102
{ACAD_REACTORS
330
4815
102
}
330
1F
100
AcDbEntity
  8
0
  6
Continuous
 62
     1
370
    50
100
AcDbLine
 10
147.5959983935166
 20
137.6057198028444
 30
0.0
 11
147.5000000000001
 21
135.7739613343414
 31
0.0
1001
PHOENIX7010
1002
{
1070
    41
1040
1.0
1070
    62
1070
     7
1002
}
  0
LINE
  5
430E
102
{ACAD_REACTORS
330
4815
102
}
330
1F
100
AcDbEntity
  8
0
  6
Continuous
 62
     1
370
    50
100
AcDbLine
 10
192.4040016064827
 20
137.6057198028444
 30
0.0
 11
192.4999999999992
 21
135.7739613343414
 31
0.0
1001
PHOENIX7010
1002
{
1070
    41
1040
1.0
1070
    62
1070
     7
1002
}
  0
LINE
  5
430F
102
{ACAD_REACTORS
330
4815
102
}
330
1F
100
AcDbEntity
  8
0
  6
Continuous
 62
     7
370
    50
100
AcDbLine
 10
187.5437443317627
 20
141.8177056661044
 30
0.0
 11
187.5437443317627
 21
128.7302170025785
 31
0.0
1001
PHOENIX7010
1002
{
1070
    41
1040
1.0
1070
    62
1070
     7
1002
}
  0
LINE
  5
4310
102
{ACAD_REACTORS
330
4815
102
}
330
1F
100
AcDbEntity
  8
0
  6
Continuous
 62
     7
370
    50
100
AcDbLine
 10
187.4999999999996
 20
141.7739613343414
 30
0.0
 11
187.4999999999996
 21
128.7739613343414
 31
0.0
1001
PHOENIX7010
1002
{
1070
    41
1040
1.0
1070
    62
1070
     7
1002
}
  0
LINE
  5
4311
102
{ACAD_REACTORS
330
4815
102
}
330
1F
100
AcDbEntity
  8
0
  6
Continuous
 62
     7
370
    50
100
AcDbLine
 10
188.6999999999997
 20
140.7815550325387
 30
0.0
 11
188.6999999999996
 21
129.7663676361441
 31
0.0
1001
PHOENIX7010
1002
{
1070
    41
1040
1.0
1070
    62
1070
     7
1002
}
  0
LINE
  5
4312
102
{ACAD_REACTORS
330
4815
102
}
330
1F
100
AcDbEntity
  8
0
  6
Continuous
 62
     1
370
    50
100
AcDbLine
 10
192.4999999999992
 20
134.7739613343414
 30
0.0
 11
192.4999999999996
 21
135.7739613343414
 31
0.0
1001
PHOENIX7010
1002
{
1070
    41
1040
1.0
1070
    62
1070
     1
1002
}
  0
LINE
  5
4313
102
{ACAD_REACTORS
330
4815
102
}
330
1F
100
AcDbEntity
  8
0
  6
Continuous
 62
     7
370
    50
100
AcDbLine
 10
188.6999999999997
 20
133.2739613343413
 30
0.0
 11
189.4999999999996
 21
133.2739613343413
 31
0.0
1001
PHOENIX7010
1002
{
1070
    41
1040
1.0
1070
    62
1070
     7
1002
}
  0
ARC
  5
4314
102
{ACAD_REACTORS
330
4815
102
}
330
1F
100
AcDbEntity
  8
0
  6
Continuous
 62
     7
370
    50
100
AcDbCircle
 10
189.1999999999996
 20
129.7663676361441
 30
0.0
 40
0.5
100
AcDbArc
 50
180.0
 51
270.0
1001
PHOENIX7010
1002
{
1070
    41
1040
1.0
1070
    62
1070
     7
1002
}
  0
LINE
  5
4315
102
{ACAD_REACTORS
330
4815
102
}
330
1F
100
AcDbEntity
  8
0
  6
Continuous
 62
     7
370
    50
100
AcDbLine
 10
189.4999999999996
 20
130.2669771804429
 30
0.0
 11
189.4999999999996
 21
133.2739613343413
 31
0.0
1001
PHOENIX7010
1002
{
1070
    41
1040
1.0
1070
    62
1070
     7
1002
}
  0
LINE
  5
4316
102
{ACAD_REACTORS
330
4815
102
}
330
1F
100
AcDbEntity
  8
0
  6
Continuous
 62
     1
370
    50
100
AcDbLine
 10
192.4040016064827
 20
132.9422028658385
 30
0.0
 11
192.4999999999992
 21
134.7739613343414
 31
0.0
1001
PHOENIX7010
1002
{
1070
    41
1040
1.0
1070
    62
1070
     7
1002
}
  0
LINE
  5
4317
102
{ACAD_REACTORS
330
4815
102
}
330
1F
100
AcDbEntity
  8
0
  6
Continuous
 62
     7
370
    50
100
AcDbLine
 10
187.5437443317627
 20
128.7302170025785
 30
0.0
 11
187.4999999999996
 21
128.7739613343414
 31
0.0
1001
PHOENIX7010
1002
{
1070
    41
1040
1.0
1070
    62
1070
     7
1002
}
  0
LINE
  5
4318
102
{ACAD_REACTORS
330
4815
102
}
330
1F
100
AcDbEntity
  8
0
  6
Continuous
 62
     7
370
    50
100
AcDbLine
 10
187.5437443317627
 20
128.7302170025785
 30
0.0
 11
190.9239644491047
 21
128.7302170025785
 31
0.0
1001
PHOENIX7010
1002
{
1070
    41
1040
1.0
1070
    62
1070
     7
1002
}
  0
ARC
  5
4319
102
{ACAD_REACTORS
330
4815
102
}
330
1F
100
AcDbEntity
  8
0
  6
Continuous
 62
     7
370
    50
100
AcDbCircle
 10
190.773882600965
 20
127.0739613343413
 30
0.0
 40
0.8
100
AcDbArc
 50
270.0
 51
346.9885246740941
1001
PHOENIX7010
1002
{
1070
    41
1040
1.0
1070
    62
1070
     7
1002
}
  0
LINE
  5
431A
102
{ACAD_REACTORS
330
4815
102
}
330
1F
100
AcDbEntity
  8
0
  6
Continuous
 62
     7
370
    50
100
AcDbLine
 10
189.4999999999996
 20
140.2809454882398
 30
0.0
 11
189.4999999999996
 21
137.2739613343413
 31
0.0
1001
PHOENIX7010
1002
{
1070
    41
1040
1.0
1070
    62
1070
     7
1002
}
  0
ARC
  5
431B
102
{ACAD_REACTORS
330
4815
102
}
330
1F
100
AcDbEntity
  8
0
  6
Continuous
 62
     7
370
    50
100
AcDbCircle
 10
189.1999999999996
 20
140.7815550325387
 30
0.0
 40
0.5
100
AcDbArc
 50
90.0
 51
180.0
1001
PHOENIX7010
1002
{
1070
    41
1040
1.0
1070
    62
1070
     7
1002
}
  0
LINE
  5
431C
102
{ACAD_REACTORS
330
4815
102
}
330
1F
100
AcDbEntity
  8
0
  6
Continuous
 62
     7
370
    50
100
AcDbLine
 10
188.6999999999997
 20
137.2739613343413
 30
0.0
 11
189.4999999999996
 21
137.2739613343413
 31
0.0
1001
PHOENIX7010
1002
{
1070
    41
1040
1.0
1070
    62
1070
     7
1002
}
  0
ARC
  5
431D
102
{ACAD_REACTORS
330
4815
102
}
330
1F
100
AcDbEntity
  8
0
  6
Continuous
 62
     7
370
    50
100
AcDbCircle
 10
190.773882600965
 20
143.4739613343414
 30
0.0
 40
0.8
100
AcDbArc
 50
13.01147532591991
 51
90.0
1001
PHOENIX7010
1002
{
1070
    41
1040
1.0
1070
    62
1070
     7
1002
}
  0
LINE
  5
431E
102
{ACAD_REACTORS
330
4815
102
}
330
1F
100
AcDbEntity
  8
0
  6
Continuous
 62
     7
370
    50
100
AcDbLine
 10
187.5437443317627
 20
141.8177056661044
 30
0.0
 11
190.9239644491047
 21
141.8177056661044
 31
0.0
1001
PHOENIX7010
1002
{
1070
    41
1040
1.0
1070
    62
1070
     7
1002
}
  0
LINE
  5
431F
102
{ACAD_REACTORS
330
4815
330
D676
102
}
330
1F
100
AcDbEntity
  8
0
  6
Continuous
 62
     7
370
    50
100
AcDbLine
 10
187.5437443317627
 20
141.8177056661044
 30
0.0
 11
187.4999999999996
 21
141.7739613343414
 31
0.0
1001
PHOENIX7010
1002
{
1070
    41
1040
1.0
1070
    62
1070
     7
1002
}
  0
CIRCLE
  5
4322
102
{ACAD_REACTORS
330
4815
102
}
330
1F
100
AcDbEntity
  8
0
  6
Continuous
 62
     7
370
    50
100
AcDbCircle
 10
189.7999999999999
 20
218.2739613343401
 30
0.0
 40
1.0
1001
PHOENIX7010
1002
{
1070
    41
1040
1.0
1070
    62
1070
     7
1002
}
  0
LINE
  5
4323
102
{ACAD_REACTORS
330
4815
102
}
330
1F
100
AcDbEntity
  8
0
  6
ACAD_ISO04W100
 62
     1
370
    50
100
AcDbLine
 10
189.7999999999998
 20
216.2739613343401
 30
0.0
 11
189.7999999999998
 21
220.2739613343401
 31
0.0
1001
PHOENIX7010
1002
{
1070
    41
1040
1.0
1070
    62
1070
     1
1002
}
  0
LINE
  5
4324
102
{ACAD_REACTORS
330
4815
102
}
330
1F
100
AcDbEntity
  8
0
  6
ACAD_ISO04W100
 62
     1
370
    50
100
AcDbLine
 10
191.7999999999999
 20
218.2739613343401
 30
0.0
 11
187.7999999999999
 21
218.2739613343401
 31
0.0
1001
PHOENIX7010
1002
{
1070
    41
1040
1.0
1070
    62
1070
     1
1002
}
  0
LINE
  5
4325
102
{ACAD_REACTORS
330
4815
102
}
330
1F
100
AcDbEntity
  8
0
  6
ACAD_ISO04W100
 62
     1
370
    50
100
AcDbLine
 10
189.7999999999998
 20
206.2739613343401
 30
0.0
 11
189.7999999999998
 21
202.2739613343401
 31
0.0
1001
PHOENIX7010
1002
{
1070
    41
1040
1.0
1070
    62
1070
     1
1002
}
  0
CIRCLE
  5
4326
102
{ACAD_REACTORS
330
4815
102
}
330
1F
100
AcDbEntity
  8
0
  6
Continuous
 62
     7
370
    50
100
AcDbCircle
 10
189.7999999999999
 20
204.2739613343401
 30
0.0
 40
1.0
1001
PHOENIX7010
1002
{
1070
    41
1040
1.0
1070
    62
1070
     7
1002
}
  0
LINE
  5
4327
102
{ACAD_REACTORS
330
4815
102
}
330
1F
100
AcDbEntity
  8
0
  6
ACAD_ISO04W100
 62
     1
370
    50
100
AcDbLine
 10
191.7999999999999
 20
204.2739613343401
 30
0.0
 11
187.7999999999999
 21
204.2739613343401
 31
0.0
1001
PHOENIX7010
1002
{
1070
    41
1040
1.0
1070
    62
1070
     1
1002
}
  0
CIRCLE
  5
4328
102
{ACAD_REACTORS
330
4815
102
}
330
1F
100
AcDbEntity
  8
0
  6
Continuous
 62
     7
370
    50
100
AcDbCircle
 10
150.2
 20
218.2739613343401
 30
0.0
 40
1.0
1001
PHOENIX7010
1002
{
1070
    41
1040
1.0
1070
    62
1070
     7
1002
}
  0
LINE
  5
4329
102
{ACAD_REACTORS
330
4815
102
}
330
1F
100
AcDbEntity
  8
0
  6
ACAD_ISO04W100
 62
     1
370
    50
100
AcDbLine
 10
150.2000000000001
 20
216.2739613343401
 30
0.0
 11
150.2000000000001
 21
220.2739613343401
 31
0.0
1001
PHOENIX7010
1002
{
1070
    41
1040
1.0
1070
    62
1070
     1
1002
}
  0
LINE
  5
432A
102
{ACAD_REACTORS
330
4815
102
}
330
1F
100
AcDbEntity
  8
0
  6
ACAD_ISO04W100
 62
     1
370
    50
100
AcDbLine
 10
148.2
 20
218.2739613343401
 30
0.0
 11
152.2
 21
218.2739613343401
 31
0.0
1001
PHOENIX7010
1002
{
1070
    41
1040
1.0
1070
    62
1070
     1
1002
}
  0
CIRCLE
  5
432B
102
{ACAD_REACTORS
330
4815
102
}
330
1F
100
AcDbEntity
  8
0
  6
Continuous
 62
     7
370
    50
100
AcDbCircle
 10
150.2
 20
204.2739613343401
 30
0.0
 40
1.0
1001
PHOENIX7010
1002
{
1070
    41
1040
1.0
1070
    62
1070
     7
1002
}
  0
LINE
  5
432C
102
{ACAD_REACTORS
330
4815
102
}
330
1F
100
AcDbEntity
  8
0
  6
ACAD_ISO04W100
 62
     1
370
    50
100
AcDbLine
 10
150.2000000000001
 20
206.2739613343401
 30
0.0
 11
150.2000000000001
 21
202.2739613343401
 31
0.0
1001
PHOENIX7010
1002
{
1070
    41
1040
1.0
1070
    62
1070
     1
1002
}
  0
LINE
  5
432D
102
{ACAD_REACTORS
330
4815
102
}
330
1F
100
AcDbEntity
  8
0
  6
ACAD_ISO04W100
 62
     1
370
    50
100
AcDbLine
 10
148.2
 20
204.2739613343401
 30
0.0
 11
152.2
 21
204.2739613343401
 31
0.0
1001
PHOENIX7010
1002
{
1070
    41
1040
1.0
1070
    62
1070
     1
1002
}
  0
LINE
  5
432E
102
{ACAD_REACTORS
330
4815
102
}
330
1F
100
AcDbEntity
  8
0
  6
Continuous
 62
     7
370
    50
100
AcDbLine
 10
189.9500219580042
 20
179.2739613343414
 30
0.0
 11
189.9500219580042
 21
178.2739613343414
 31
0.0
1001
PHOENIX7010
1002
{
1070
    41
1040
1.0
1070
    62
1070
     7
1002
}
  0
LINE
  5
432F
102
{ACAD_REACTORS
330
4815
102
}
330
1F
100
AcDbEntity
  8
0
  6
Continuous
 62
     7
370
    50
100
AcDbLine
 10
188.9000219580043
 20
177.7739613343413
 30
0.0
 11
188.9000219580043
 21
175.7739613343414
 31
0.0
1001
PHOENIX7010
1002
{
1070
    41
1040
1.0
1070
    62
1070
     7
1002
}
  0
LINE
  5
4330
102
{ACAD_REACTORS
330
4815
102
}
330
1F
100
AcDbEntity
  8
0
  6
Continuous
 62
     7
370
    50
100
AcDbLine
 10
151.1000219580041
 20
179.2739613343414
 30
0.0
 11
150.0500219580042
 21
179.2739613343414
 31
0.0
1001
PHOENIX7010
1002
{
1070
    41
1040
1.0
1070
    62
1070
     7
1002
}
  0
LINE
  5
4331
102
{ACAD_REACTORS
330
4815
102
}
330
1F
100
AcDbEntity
  8
0
  6
Continuous
 62
     7
370
    50
100
AcDbLine
 10
150.0500219580042
 20
179.2739613343414
 30
0.0
 11
150.0500219580042
 21
178.2739613343414
 31
0.0
1001
PHOENIX7010
1002
{
1070
    41
1040
1.0
1070
    62
1070
     7
1002
}
  0
LINE
  5
4332
102
{ACAD_REACTORS
330
4815
102
}
330
1F
100
AcDbEntity
  8
0
  6
Continuous
 62
     7
370
    50
100
AcDbLine
 10
150.165145925928
 20
209.0768461826608
 30
0.0
 11
150.0499999999999
 21
211.2739613343401
 31
0.0
1001
PHOENIX7010
1002
{
1070
    41
1040
1.0
1070
    62
1070
     7
1002
}
  0
ARC
  5
4333
102
{ACAD_REACTORS
330
4815
102
}
330
1F
100
AcDbEntity
  8
0
  6
Continuous
 62
     7
370
    50
100
AcDbCircle
 10
182.5480321099273
 20
210.7739613343401
 30
0.0
 40
32.427326708255
100
AcDbArc
 50
182.9999999999924
 51
185.308284737931
1001
PHOENIX7010
1002
{
1070
    41
1040
1.0
1070
    62
1070
     7
1002
}
  0
LINE
  5
4334
102
{ACAD_REACTORS
330
4815
102
}
330
1F
100
AcDbEntity
  8
0
  6
Continuous
 62
     7
370
    50
100
AcDbLine
 10
150.165145925928
 20
213.4710764860193
 30
0.0
 11
150.0499999999999
 21
211.2739613343401
 31
0.0
1001
PHOENIX7010
1002
{
1070
    41
1040
1.0
1070
    62
1070
     7
1002
}
  0
ARC
  5
4335
102
{ACAD_REACTORS
330
4815
102
}
330
1F
100
AcDbEntity
  8
0
  6
Continuous
 62
     7
370
    50
100
AcDbCircle
 10
182.5480321099273
 20
211.7739613343401
 30
0.0
 40
32.427326708255
100
AcDbArc
 50
174.691715262069
 51
177.0000000000076
1001
PHOENIX7010
1002
{
1070
    41
1040
1.0
1070
    62
1070
     7
1002
}
  0
ARC
  5
4336
102
{ACAD_REACTORS
330
4815
102
}
330
1F
100
AcDbEntity
  8
0
  6
Continuous
 62
     7
370
    50
100
AcDbCircle
 10
157.4519678900726
 20
211.7739613343401
 30
0.0
 40
32.427326708255
100
AcDbArc
 50
2.999999999992413
 51
5.308284737931004
1001
PHOENIX7010
1002
{
1070
    41
1040
1.0
1070
    62
1070
     7
1002
}
  0
LINE
  5
4337
102
{ACAD_REACTORS
330
4815
102
}
330
1F
100
AcDbEntity
  8
0
  6
Continuous
 62
     7
370
    50
100
AcDbLine
 10
189.8348540740719
 20
213.4710764860193
 30
0.0
 11
189.95
 21
211.2739613343401
 31
0.0
1001
PHOENIX7010
1002
{
1070
    41
1040
1.0
1070
    62
1070
     7
1002
}
  0
LINE
  5
4338
102
{ACAD_REACTORS
330
4815
102
}
330
1F
100
AcDbEntity
  8
0
  6
Continuous
 62
     7
370
    50
100
AcDbLine
 10
189.8348540740719
 20
209.0768461826608
 30
0.0
 11
189.95
 21
211.2739613343401
 31
0.0
1001
PHOENIX7010
1002
{
1070
    41
1040
1.0
1070
    62
1070
     7
1002
}
  0
ARC
  5
4339
102
{ACAD_REACTORS
330
4815
102
}
330
1F
100
AcDbEntity
  8
0
  6
Continuous
 62
     7
370
    50
100
AcDbCircle
 10
157.4519678900726
 20
210.7739613343401
 30
0.0
 40
32.427326708255
100
AcDbArc
 50
354.691715262069
 51
357.0000000000076
1001
PHOENIX7010
1002
{
1070
    41
1040
1.0
1070
    62
1070
     7
1002
}
  0
LINE
  5
433A
102
{ACAD_REACTORS
330
4815
102
}
330
1F
100
AcDbEntity
  8
0
  6
Continuous
 62
     7
370
    50
100
AcDbLine
 10
189.8073667356101
 20
209.7739613343401
 30
0.0
 11
189.8073667356101
 21
212.7739613343401
 31
0.0
1001
PHOENIX7010
1002
{
1070
    41
1040
1.0
1070
    62
1070
     7
1002
}
  0
LINE
  5
433B
102
{ACAD_REACTORS
330
4815
102
}
330
1F
100
AcDbEntity
  8
0
  6
Continuous
 62
     7
370
    50
100
AcDbLine
 10
188.9000000000001
 20
209.7739613343401
 30
0.0
 11
188.9000000000001
 21
212.7739613343401
 31
0.0
1001
PHOENIX7010
1002
{
1070
    41
1040
1.0
1070
    62
1070
     7
1002
}
  0
ARC
  5
433C
102
{ACAD_REACTORS
330
4815
102
}
330
1F
100
AcDbEntity
  8
0
  6
Continuous
 62
     7
370
    50
100
AcDbCircle
 10
182.548032109927
 20
135.7739613343414
 30
0.0
 40
32.427326708255
100
AcDbArc
 50
174.6917152620689
 51
177.0000000000076
1001
PHOENIX7010
1002
{
1070
    41
1040
1.0
1070
    62
1070
     7
1002
}
  0
LINE
  5
433D
102
{ACAD_REACTORS
330
4815
102
}
330
1F
100
AcDbEntity
  8
0
  6
Continuous
 62
     7
370
    50
100
AcDbLine
 10
150.1651459259277
 20
137.4710764860207
 30
0.0
 11
150.0499999999996
 21
135.2739613343413
 31
0.0
1001
PHOENIX7010
1002
{
1070
    41
1040
1.0
1070
    62
1070
     7
1002
}
  0
LINE
  5
433E
102
{ACAD_REACTORS
330
4815
102
}
330
1F
100
AcDbEntity
  8
0
  6
Continuous
 62
     7
370
    50
100
AcDbLine
 10
150.1651459259277
 20
133.0768461826622
 30
0.0
 11
150.0499999999996
 21
135.2739613343413
 31
0.0
1001
PHOENIX7010
1002
{
1070
    41
1040
1.0
1070
    62
1070
     7
1002
}
  0
ARC
  5
433F
102
{ACAD_REACTORS
330
4815
102
}
330
1F
100
AcDbEntity
  8
0
  6
Continuous
 62
     7
370
    50
100
AcDbCircle
 10
182.548032109927
 20
134.7739613343414
 30
0.0
 40
32.427326708255
100
AcDbArc
 50
182.9999999999923
 51
185.308284737931
1001
PHOENIX7010
1002
{
1070
    41
1040
1.0
1070
    62
1070
     7
1002
}
  0
LINE
  5
4340
102
{ACAD_REACTORS
330
4815
102
}
330
1F
100
AcDbEntity
  8
0
  6
Continuous
 62
     7
370
    50
100
AcDbLine
 10
189.7402245392614
 20
138.7739613343415
 30
0.0
 11
189.4999999999996
 21
138.7739613343415
 31
0.0
1001
PHOENIX7010
1002
{
1070
    41
1040
1.0
1070
    62
1070
     7
1002
}
  0
ARC
  5
4341
102
{ACAD_REACTORS
330
4815
102
}
330
1F
100
AcDbEntity
  8
0
  6
Continuous
 62
     7
370
    50
100
AcDbCircle
 10
157.4519678900723
 20
135.7739613343414
 30
0.0
 40
32.427326708255
100
AcDbArc
 50
2.99999999999235
 51
5.308284737931041
1001
PHOENIX7010
1002
{
1070
    41
1040
1.0
1070
    62
1070
     7
1002
}
  0
LINE
  5
4342
102
{ACAD_REACTORS
330
4815
102
}
330
1F
100
AcDbEntity
  8
0
  6
Continuous
 62
     7
370
    50
100
AcDbLine
 10
189.8348540740716
 20
137.4710764860207
 30
0.0
 11
189.9499999999997
 21
135.2739613343413
 31
0.0
1001
PHOENIX7010
1002
{
1070
    41
1040
1.0
1070
    62
1070
     7
1002
}
  0
LINE
  5
4343
102
{ACAD_REACTORS
330
4815
102
}
330
1F
100
AcDbEntity
  8
0
  6
Continuous
 62
     7
370
    50
100
AcDbLine
 10
189.8348540740716
 20
133.0768461826622
 30
0.0
 11
189.9499999999997
 21
135.2739613343413
 31
0.0
1001
PHOENIX7010
1002
{
1070
    41
1040
1.0
1070
    62
1070
     7
1002
}
  0
ARC
  5
4344
102
{ACAD_REACTORS
330
4815
102
}
330
1F
100
AcDbEntity
  8
0
  6
Continuous
 62
     7
370
    50
100
AcDbCircle
 10
157.4519678900723
 20
134.7739613343414
 30
0.0
 40
32.427326708255
100
AcDbArc
 50
354.6917152620689
 51
357.0000000000077
1001
PHOENIX7010
1002
{
1070
    41
1040
1.0
1070
    62
1070
     7
1002
}
  0
LINE
  5
4345
102
{ACAD_REACTORS
330
4815
102
}
330
1F
100
AcDbEntity
  8
0
  6
Continuous
 62
     7
370
    50
100
AcDbLine
 10
189.7402245392614
 20
131.7739613343415
 30
0.0
 11
189.4999999999996
 21
131.7739613343415
 31
0.0
1001
PHOENIX7010
1002
{
1070
    41
1040
1.0
1070
    62
1070
     7
1002
}
  0
LINE
  5
4346
102
{ACAD_REACTORS
330
4815
102
}
330
1F
100
AcDbEntity
  8
0
  6
Continuous
 62
     7
370
    50
100
AcDbLine
 10
189.9500219580042
 20
178.2739613343414
 30
0.0
 11
189.2331584936072
 21
175.7739613343414
 31
0.0
1001
PHOENIX7010
1002
{
1070
    41
1040
1.0
1070
    62
1070
     7
1002
}
  0
LINE
  5
4347
102
{ACAD_REACTORS
330
4815
102
}
330
1F
100
AcDbEntity
  8
0
  6
ACAD_ISO02W100
 62
     5
370
    50
100
AcDbLine
 10
189.5000219580042
 20
179.2739613343414
 30
0.0
 11
189.2331584936072
 21
175.7739613343414
 31
0.0
1001
PHOENIX7010
1002
{
1070
    41
1040
1.0
1070
    62
1070
     5
1002
}
  0
LINE
  5
4348
102
{ACAD_REACTORS
330
4815
102
}
330
1F
100
AcDbEntity
  8
0
  6
Continuous
 62
     7
370
    50
100
AcDbLine
 10
150.0500219580042
 20
178.2739613343414
 30
0.0
 11
150.7668854224012
 21
175.7739613343414
 31
0.0
1001
PHOENIX7010
1002
{
1070
    41
1040
1.0
1070
    62
1070
     7
1002
}
  0
LINE
  5
4349
102
{ACAD_REACTORS
330
4815
102
}
330
1F
100
AcDbEntity
  8
0
  6
ACAD_ISO02W100
 62
     5
370
    50
100
AcDbLine
 10
150.5000219580042
 20
179.2739613343414
 30
0.0
 11
150.7668854224012
 21
175.7739613343414
 31
0.0
1001
PHOENIX7010
1002
{
1070
    41
1040
1.0
1070
    62
1070
     5
1002
}
  0
LINE
  5
434A
102
{ACAD_REACTORS
330
4815
102
}
330
1F
100
AcDbEntity
  8
0
  6
Continuous
 62
     5
370
    50
100
AcDbLine
 10
150.5
 20
216.2809454882386
 30
0.0
 11
150.766863464397
 21
216.4660255665448
 31
0.0
1001
PHOENIX7010
1002
{
1070
    41
1040
1.0
1070
    62
1070
     5
1002
}
  0
LINE
  5
434B
102
{ACAD_REACTORS
330
4815
102
}
330
1F
100
AcDbEntity
  8
0
  6
Continuous
 62
     7
370
    50
100
AcDbLine
 10
150.766863464397
 20
206.0818971021354
 30
0.0
 11
150.766863464397
 21
216.4660255665448
 31
0.0
1001
PHOENIX7010
1002
{
1070
    41
1040
1.0
1070
    62
1070
     7
1002
}
  0
LINE
  5
434C
102
{ACAD_REACTORS
330
4815
102
}
330
1F
100
AcDbEntity
  8
0
  6
Continuous
 62
     5
370
    50
100
AcDbLine
 10
150.5
 20
206.2669771804417
 30
0.0
 11
150.766863464397
 21
206.0818971021354
 31
0.0
1001
PHOENIX7010
1002
{
1070
    41
1040
1.0
1070
    62
1070
     5
1002
}
  0
LINE
  5
434D
102
{ACAD_REACTORS
330
4815
102
}
330
1F
100
AcDbEntity
  8
0
  6
Continuous
 62
     5
370
    50
100
AcDbLine
 10
189.5
 20
216.2809454882386
 30
0.0
 11
189.2331365356029
 21
216.4660255665448
 31
0.0
1001
PHOENIX7010
1002
{
1070
    41
1040
1.0
1070
    62
1070
     5
1002
}
  0
LINE
  5
434E
102
{ACAD_REACTORS
330
4815
102
}
330
1F
100
AcDbEntity
  8
0
  6
Continuous
 62
     7
370
    50
100
AcDbLine
 10
189.7402245392618
 20
214.77396133434
 30
0.0
 11
189.2331365356029
 21
214.77396133434
 31
0.0
1001
PHOENIX7010
1002
{
1070
    41
1040
1.0
1070
    62
1070
     7
1002
}
  0
LINE
  5
434F
102
{ACAD_REACTORS
330
4815
102
}
330
1F
100
AcDbEntity
  8
0
  6
Continuous
 62
     7
370
    50
100
AcDbLine
 10
189.7402245392618
 20
207.77396133434
 30
0.0
 11
189.2331365356029
 21
207.77396133434
 31
0.0
1001
PHOENIX7010
1002
{
1070
    41
1040
1.0
1070
    62
1070
     7
1002
}
  0
LINE
  5
4350
102
{ACAD_REACTORS
330
4815
102
}
330
1F
100
AcDbEntity
  8
0
  6
Continuous
 62
     5
370
    50
100
AcDbLine
 10
189.5
 20
206.2669771804417
 30
0.0
 11
189.2331365356029
 21
206.0818971021354
 31
0.0
1001
PHOENIX7010
1002
{
1070
    41
1040
1.0
1070
    62
1070
     5
1002
}
  0
LINE
  5
4351
102
{ACAD_REACTORS
330
4815
102
}
330
1F
100
AcDbEntity
  8
0
  6
Continuous
 62
     7
370
    50
100
AcDbLine
 10
189.2331365356029
 20
212.7739613343401
 30
0.0
 11
189.2331365356029
 21
216.4660255665448
 31
0.0
1001
PHOENIX7010
1002
{
1070
    41
1040
1.0
1070
    62
1070
     7
1002
}
  0
LINE
  5
4352
102
{ACAD_REACTORS
330
4815
102
}
330
1F
100
AcDbEntity
  8
0
  6
Continuous
 62
     7
370
    50
100
AcDbLine
 10
189.2331365356029
 20
206.0818971021354
 30
0.0
 11
189.2331365356029
 21
209.7739613343401
 31
0.0
1001
PHOENIX7010
1002
{
1070
    41
1040
1.0
1070
    62
1070
     7
1002
}
  0
ARC
  5
4353
102
{ACAD_REACTORS
330
4815
102
}
330
1F
100
AcDbEntity
  8
0
  6
Continuous
 62
     5
370
    50
100
AcDbCircle
 10
182.5480321099273
 20
210.7739613343401
 30
0.0
 40
34.8
100
AcDbArc
 50
187.7487568844195
 51
188.9394518311022
1001
PHOENIX7010
1002
{
1070
    41
1040
1.0
1070
    62
1070
     5
1002
}
  0
LINE
  5
4354
102
{ACAD_REACTORS
330
4815
102
}
330
1F
100
AcDbEntity
  8
0
  6
Continuous
 62
     5
370
    50
100
AcDbLine
 10
147.9682991671293
 20
205.3663676361439
 30
0.0
 11
148.170744107596
 21
205.3663676361439
 31
0.0
1001
PHOENIX7010
1002
{
1070
    41
1040
1.0
1070
    62
1070
     5
1002
}
  0
ARC
  5
4355
102
{ACAD_REACTORS
330
4815
102
}
330
1F
100
AcDbEntity
  8
0
  6
Continuous
 62
     7
370
    50
100
AcDbCircle
 10
182.5480321099273
 20
210.7739613343401
 30
0.0
 40
35.0
100
AcDbArc
 50
188.8879543030126
 51
193.0114753259058
1001
PHOENIX7010
1002
{
1070
    41
1040
1.0
1070
    62
1070
     7
1002
}
  0
LINE
  5
4356
102
{ACAD_REACTORS
330
4815
102
}
330
1F
100
AcDbEntity
  8
0
  6
Continuous
 62
     7
370
    50
100
AcDbLine
 10
147.9683211251335
 20
175.7739613343414
 30
0.0
 11
148.1266833051263
 21
180.3088608310439
 31
0.0
1001
PHOENIX7010
1002
{
1070
    41
1040
1.0
1070
    62
1070
     7
1002
}
  0
ARC
  5
4357
102
{ACAD_REACTORS
330
4815
102
}
330
1F
100
AcDbEntity
  8
0
  6
Continuous
 62
     7
370
    50
100
AcDbCircle
 10
149.0234501277213
 20
180.2739613343414
 30
0.0
 40
0.8
100
AcDbArc
 50
90.0
 51
177.9999999999962
1001
PHOENIX7010
1002
{
1070
    41
1040
1.0
1070
    62
1070
     7
1002
}
  0
ARC
  5
4358
102
{ACAD_REACTORS
330
4815
102
}
330
1F
100
AcDbEntity
  8
0
  6
Continuous
 62
     7
370
    50
100
AcDbCircle
 10
149.1260741321453
 20
180.2739613343414
 30
0.0
 40
1.0
100
AcDbArc
 50
90.0
 51
177.9999999999962
1001
PHOENIX7010
1002
{
1070
    41
1040
1.0
1070
    62
1070
     7
1002
}
  0
ARC
  5
4359
102
{ACAD_REACTORS
330
4815
102
}
330
1F
100
AcDbEntity
  8
0
  6
Continuous
 62
     7
370
    50
100
AcDbCircle
 10
190.8739697838631
 20
180.2739613343414
 30
0.0
 40
1.0
100
AcDbArc
 50
2.000000000003752
 51
90.0
1001
PHOENIX7010
1002
{
1070
    41
1040
1.0
1070
    62
1070
     7
1002
}
  0
ARC
  5
435A
102
{ACAD_REACTORS
330
4815
102
}
330
1F
100
AcDbEntity
  8
0
  6
Continuous
 62
     7
370
    50
100
AcDbCircle
 10
190.9765937882871
 20
180.2739613343414
 30
0.0
 40
0.8
100
AcDbArc
 50
2.000000000003752
 51
90.0
1001
PHOENIX7010
1002
{
1070
    41
1040
1.0
1070
    62
1070
     7
1002
}
  0
LINE
  5
435B
102
{ACAD_REACTORS
330
4815
330
145E0
102
}
330
1F
100
AcDbEntity
  8
0
  6
Continuous
 62
     7
370
    50
100
AcDbLine
 10
192.0317227908749
 20
175.7739613343414
 30
0.0
 11
191.8733606108821
 21
180.3088608310439
 31
0.0
1001
PHOENIX7010
1002
{
1070
    41
1040
1.0
1070
    62
1070
     7
1002
}
  0
LINE
  5
435C
102
{ACAD_REACTORS
330
4815
102
}
330
1F
100
AcDbEntity
  8
0
  6
Continuous
 62
     7
370
    50
100
AcDbLine
 10
191.9342248864393
 20
175.7739613343414
 30
0.0
 11
191.7761064499025
 21
180.3018809317035
 31
0.0
1001
PHOENIX7010
1002
{
1070
    41
1040
1.0
1070
    62
1070
     7
1002
}
  0
ARC
  5
435D
102
{ACAD_REACTORS
330
4815
330
12738
102
}
330
1F
100
AcDbEntity
  8
0
  6
Continuous
 62
     7
370
    50
100
AcDbCircle
 10
170.0000219580042
 20
-37.08688758402548
 30
0.0
 40
219.3608489183667
100
AcDbArc
 50
84.51450704125489
 51
95.48550442935139
1001
PHOENIX7010
1002
{
1070
    41
1040
1.0
1070
    62
1070
     7
1002
}
  0
LINE
  5
435E
102
{ACAD_REACTORS
330
4815
102
}
330
1F
100
AcDbEntity
  8
0
  6
Continuous
 62
     5
370
    50
100
AcDbLine
 10
148.2239155081017
 20
206.2530088726449
 30
0.0
 11
148.0657970715649
 21
206.0818971021354
 31
0.0
1001
PHOENIX7010
1002
{
1070
    41
1040
1.0
1070
    62
1070
     5
1002
}
  0
LINE
  5
435F
102
{ACAD_REACTORS
330
4815
102
}
330
1F
100
AcDbEntity
  8
0
  6
Continuous
 62
     5
370
    50
100
AcDbLine
 10
150.5
 20
206.2669771804417
 30
0.0
 11
149.0234281697171
 21
206.2669771804417
 31
0.0
1001
PHOENIX7010
1002
{
1070
    41
1040
1.0
1070
    62
1070
     5
1002
}
  0
ELLIPSE
  5
4360
102
{ACAD_REACTORS
330
4815
102
}
330
1F
100
AcDbEntity
  8
0
  6
Continuous
 62
     5
370
    50
100
AcDbEllipse
 10
149.0234281697171
 20
206.2530088726449
 30
0.0
 11
-0.7995126616152674
 21
-0.0000000000000102
 31
0.0
210
0.0
220
0.0
230
-1.0
 40
0.0174710276238372
 41
0.0000000000007336
 42
1.570796326794896
1001
PHOENIX7010
1002
{
1070
    41
1040
1.0
1070
    62
1070
     5
1002
}
  0
ARC
  5
4361
102
{ACAD_REACTORS
330
4815
102
}
330
1F
100
AcDbEntity
  8
0
  6
Continuous
 62
     7
370
    50
100
AcDbCircle
 10
182.5480321099273
 20
211.7739613343401
 30
0.0
 40
35.0
100
AcDbArc
 50
166.9885246740941
 51
171.1120456969874
1001
PHOENIX7010
1002
{
1070
    41
1040
1.0
1070
    62
1070
     7
1002
}
  0
LINE
  5
4362
102
{ACAD_REACTORS
330
4815
102
}
330
1F
100
AcDbEntity
  8
0
  6
Continuous
 62
     5
370
    50
100
AcDbLine
 10
150.5
 20
216.2809454882386
 30
0.0
 11
149.0234281697171
 21
216.2809454882386
 31
0.0
1001
PHOENIX7010
1002
{
1070
    41
1040
1.0
1070
    62
1070
     5
1002
}
  0
LINE
  5
4363
102
{ACAD_REACTORS
330
4815
102
}
330
1F
100
AcDbEntity
  8
0
  6
Continuous
 62
     5
370
    50
100
AcDbLine
 10
148.0657970715649
 20
216.4660255665448
 30
0.0
 11
150.766863464397
 21
216.4660255665448
 31
0.0
1001
PHOENIX7010
1002
{
1070
    41
1040
1.0
1070
    62
1070
     7
1002
}
  0
ELLIPSE
  5
4364
102
{ACAD_REACTORS
330
4815
102
}
330
1F
100
AcDbEntity
  8
0
  6
Continuous
 62
     5
370
    50
100
AcDbEllipse
 10
149.0234281697171
 20
216.2949137960352
 30
0.0
 11
-0.7995126616152674
 21
0.0000000000000105
 31
0.0
210
0.0
220
0.0
230
1.0
 40
0.0174710276238372
 41
0.0000000000007336
 42
1.570796326794896
1001
PHOENIX7010
1002
{
1070
    41
1040
1.0
1070
    62
1070
     5
1002
}
  0
LINE
  5
4365
102
{ACAD_REACTORS
330
4815
102
}
330
1F
100
AcDbEntity
  8
0
  6
Continuous
 62
     5
370
    50
100
AcDbLine
 10
148.2239155081017
 20
216.2949137960352
 30
0.0
 11
148.0657970715649
 21
216.4660255665448
 31
0.0
1001
PHOENIX7010
1002
{
1070
    41
1040
1.0
1070
    62
1070
     5
1002
}
  0
LINE
  5
4366
102
{ACAD_REACTORS
330
4815
102
}
330
1F
100
AcDbEntity
  8
0
  6
Continuous
 62
     5
370
    50
100
AcDbLine
 10
147.9682991671293
 20
217.1815550325363
 30
0.0
 11
148.170744107596
 21
217.1815550325363
 31
0.0
1001
PHOENIX7010
1002
{
1070
    41
1040
1.0
1070
    62
1070
     5
1002
}
  0
ARC
  5
4367
102
{ACAD_REACTORS
330
4815
102
}
330
1F
100
AcDbEntity
  8
0
  6
Continuous
 62
     5
370
    50
100
AcDbCircle
 10
182.5480321099273
 20
211.7739613343401
 30
0.0
 40
34.8
100
AcDbArc
 50
171.0605481688977
 51
172.2512431155805
1001
PHOENIX7010
1002
{
1070
    41
1040
1.0
1070
    62
1070
     5
1002
}
  0
LINE
  5
4368
102
{ACAD_REACTORS
330
4815
102
}
330
1F
100
AcDbEntity
  8
0
  6
Continuous
 62
     5
370
    50
100
AcDbLine
 10
191.7760844918982
 20
216.2949137960352
 30
0.0
 11
191.9342029284351
 21
216.4660255665448
 31
0.0
1001
PHOENIX7010
1002
{
1070
    41
1040
1.0
1070
    62
1070
     5
1002
}
  0
ARC
  5
4369
102
{ACAD_REACTORS
330
4815
102
}
330
1F
100
AcDbEntity
  8
0
  6
Continuous
 62
     5
370
    50
100
AcDbCircle
 10
157.4519678900726
 20
211.7739613343401
 30
0.0
 40
34.8
100
AcDbArc
 50
7.74875688441947
 51
8.939451831102237
1001
PHOENIX7010
1002
{
1070
    41
1040
1.0
1070
    62
1070
     5
1002
}
  0
LINE
  5
436A
102
{ACAD_REACTORS
330
4815
102
}
330
1F
100
AcDbEntity
  8
0
  6
Continuous
 62
     5
370
    50
100
AcDbLine
 10
192.0317008328707
 20
217.1815550325363
 30
0.0
 11
191.8292558924039
 21
217.1815550325363
 31
0.0
1001
PHOENIX7010
1002
{
1070
    41
1040
1.0
1070
    62
1070
     5
1002
}
  0
ELLIPSE
  5
436B
102
{ACAD_REACTORS
330
4815
102
}
330
1F
100
AcDbEntity
  8
0
  6
Continuous
 62
     5
370
    50
100
AcDbEllipse
 10
190.9765718302828
 20
206.2530088726449
 30
0.0
 11
-0.7995126616152674
 21
0.0000000000000105
 31
0.0
210
0.0
220
0.0
230
1.0
 40
0.0174710276238372
 41
3.141592653590545
 42
4.712388980384689
1001
PHOENIX7010
1002
{
1070
    41
1040
1.0
1070
    62
1070
     5
1002
}
  0
LINE
  5
436C
102
{ACAD_REACTORS
330
4815
102
}
330
1F
100
AcDbEntity
  8
0
  6
Continuous
 62
     5
370
    50
100
AcDbLine
 10
191.7760844918982
 20
206.2530088726449
 30
0.0
 11
191.9342029284351
 21
206.0818971021354
 31
0.0
1001
PHOENIX7010
1002
{
1070
    41
1040
1.0
1070
    62
1070
     5
1002
}
  0
LINE
  5
436D
102
{ACAD_REACTORS
330
4815
102
}
330
1F
100
AcDbEntity
  8
0
  6
Continuous
 62
     5
370
    50
100
AcDbLine
 10
192.0317008328707
 20
205.3663676361439
 30
0.0
 11
191.8292558924039
 21
205.3663676361439
 31
0.0
1001
PHOENIX7010
1002
{
1070
    41
1040
1.0
1070
    62
1070
     5
1002
}
  0
ARC
  5
436E
102
{ACAD_REACTORS
330
4815
102
}
330
1F
100
AcDbEntity
  8
0
  6
Continuous
 62
     5
370
    50
100
AcDbCircle
 10
157.4519678900726
 20
210.7739613343401
 30
0.0
 40
34.8
100
AcDbArc
 50
351.0605481688978
 51
352.2512431155805
1001
PHOENIX7010
1002
{
1070
    41
1040
1.0
1070
    62
1070
     5
1002
}
  0
ELLIPSE
  5
436F
102
{ACAD_REACTORS
330
4815
102
}
330
1F
100
AcDbEntity
  8
0
  6
Continuous
 62
     5
370
    50
100
AcDbEllipse
 10
190.9765718302828
 20
216.2949137960352
 30
0.0
 11
-0.7995126616152674
 21
-0.0000000000000102
 31
0.0
210
0.0
220
0.0
230
-1.0
 40
0.0174710276238372
 41
3.141592653590545
 42
4.712388980384689
1001
PHOENIX7010
1002
{
1070
    41
1040
1.0
1070
    62
1070
     5
1002
}
  0
ARC
  5
4370
102
{ACAD_REACTORS
330
4815
102
}
330
1F
100
AcDbEntity
  8
0
  6
Continuous
 62
     7
370
    50
100
AcDbCircle
 10
157.4519678900726
 20
211.7739613343401
 30
0.0
 40
35.0
100
AcDbArc
 50
8.88795430299973
 51
13.01147532590585
1001
PHOENIX7010
1002
{
1070
    41
1040
1.0
1070
    62
1070
     7
1002
}
  0
LINE
  5
4371
102
{ACAD_REACTORS
330
4815
102
}
330
1F
100
AcDbEntity
  8
0
  6
Continuous
 62
     5
370
    50
100
AcDbLine
 10
191.9342029284351
 20
216.4660255665448
 30
0.0
 11
189.2331365356029
 21
216.4660255665448
 31
0.0
1001
PHOENIX7010
1002
{
1070
    41
1040
1.0
1070
    62
1070
     7
1002
}
  0
LINE
  5
4372
102
{ACAD_REACTORS
330
4815
102
}
330
1F
100
AcDbEntity
  8
0
  6
Continuous
 62
     5
370
    50
100
AcDbLine
 10
189.5
 20
216.2809454882386
 30
0.0
 11
190.9765718302828
 21
216.2809454882386
 31
0.0
1001
PHOENIX7010
1002
{
1070
    41
1040
1.0
1070
    62
1070
     5
1002
}
  0
LINE
  5
4373
102
{ACAD_REACTORS
330
4815
102
}
330
1F
100
AcDbEntity
  8
0
  6
Continuous
 62
     5
370
    50
100
AcDbLine
 10
189.5
 20
206.2669771804417
 30
0.0
 11
190.9765718302828
 21
206.2669771804417
 31
0.0
1001
PHOENIX7010
1002
{
1070
    41
1040
1.0
1070
    62
1070
     5
1002
}
  0
LINE
  5
4374
102
{ACAD_REACTORS
330
4815
102
}
330
1F
100
AcDbEntity
  8
0
  6
Continuous
 62
     5
370
    50
100
AcDbLine
 10
191.9342029284351
 20
206.0818971021354
 30
0.0
 11
189.2331365356029
 21
206.0818971021354
 31
0.0
1001
PHOENIX7010
1002
{
1070
    41
1040
1.0
1070
    62
1070
     7
1002
}
  0
ARC
  5
4375
102
{ACAD_REACTORS
330
4815
102
}
330
1F
100
AcDbEntity
  8
0
  6
Continuous
 62
     7
370
    50
100
AcDbCircle
 10
157.4519678900726
 20
210.7739613343401
 30
0.0
 40
35.0
100
AcDbArc
 50
346.9885246740942
 51
351.1120456969873
1001
PHOENIX7010
1002
{
1070
    41
1040
1.0
1070
    62
1070
     7
1002
}
  0
LINE
  5
4376
102
{ACAD_REACTORS
330
4815
102
}
330
1F
100
AcDbEntity
  8
0
  6
Continuous
 62
     5
370
    50
100
AcDbLine
 10
147.9682991671289
 20
141.1815550325376
 30
0.0
 11
148.1707441075957
 21
141.1815550325376
 31
0.0
1001
PHOENIX7010
1002
{
1070
    41
1040
1.0
1070
    62
1070
     5
1002
}
  0
ARC
  5
4377
102
{ACAD_REACTORS
330
4815
102
}
330
1F
100
AcDbEntity
  8
0
  6
Continuous
 62
     5
370
    50
100
AcDbCircle
 10
182.548032109927
 20
135.7739613343414
 30
0.0
 40
34.8
100
AcDbArc
 50
171.0605481689105
 51
172.2512431155676
1001
PHOENIX7010
1002
{
1070
    41
1040
1.0
1070
    62
1070
     5
1002
}
  0
LINE
  5
4378
102
{ACAD_REACTORS
330
4815
102
}
330
1F
100
AcDbEntity
  8
0
  6
Continuous
 62
     5
370
    50
100
AcDbLine
 10
148.2239155081014
 20
140.2949137960365
 30
0.0
 11
148.0657970715646
 21
140.4660255665461
 31
0.0
1001
PHOENIX7010
1002
{
1070
    41
1040
1.0
1070
    62
1070
     5
1002
}
  0
ELLIPSE
  5
4379
102
{ACAD_REACTORS
330
4815
102
}
330
1F
100
AcDbEntity
  8
0
  6
Continuous
 62
     5
370
    50
100
AcDbEllipse
 10
149.0234281697168
 20
140.2949137960365
 30
0.0
 11
-0.7995126616152674
 21
0.0000000000000105
 31
0.0
210
0.0
220
0.0
230
1.0
 40
0.0174710276238372
 41
0.0000000000007336
 42
1.570796326794896
1001
PHOENIX7010
1002
{
1070
    41
1040
1.0
1070
    62
1070
     5
1002
}
  0
LINE
  5
437A
102
{ACAD_REACTORS
330
4815
102
}
330
1F
100
AcDbEntity
  8
0
  6
Continuous
 62
     7
370
    50
100
AcDbLine
 10
150.4999999999996
 20
140.2809454882398
 30
0.0
 11
149.0234281697168
 21
140.2809454882398
 31
0.0
1001
PHOENIX7010
1002
{
1070
    41
1040
1.0
1070
    62
1070
     5
1002
}
  0
ARC
  5
437B
102
{ACAD_REACTORS
330
4815
102
}
330
1F
100
AcDbEntity
  8
0
  6
Continuous
 62
     5
370
    50
100
AcDbCircle
 10
148.3374699457669
 20
140.7815550325391
 30
0.0
 40
0.5
100
AcDbArc
 50
90.0
 51
109.4230926964092
1001
PHOENIX7010
1002
{
1070
    41
1040
1.0
1070
    62
1070
     7
1002
}
  0
LINE
  5
437C
102
{ACAD_REACTORS
330
4815
102
}
330
1F
100
AcDbEntity
  8
0
  6
Continuous
 62
     5
370
    50
100
AcDbLine
 10
148.1711993133987
 20
141.2530993855027
 30
0.0
 11
147.9682991671394
 21
141.1815550325398
 31
0.0
1001
PHOENIX7010
1002
{
1070
    41
1040
1.0
1070
    62
1070
     1
1002
}
  0
LINE
  5
437D
102
{ACAD_REACTORS
330
4815
102
}
330
1F
100
AcDbEntity
  8
0
  6
Continuous
 62
     5
370
    50
100
AcDbLine
 10
148.4154421243707
 20
141.2815550325391
 30
0.0
 11
148.1717577308292
 21
141.1815550325363
 31
0.0
1001
PHOENIX7010
1002
{
1070
    41
1040
1.0
1070
    62
1070
     1
1002
}
  0
ARC
  5
437E
102
{ACAD_REACTORS
330
4815
102
}
330
1F
100
AcDbEntity
  8
0
  6
Continuous
 62
     5
370
    50
100
AcDbCircle
 10
182.3767682263534
 20
134.7739613343475
 30
0.0
 40
34.57919094406276
100
AcDbArc
 50
169.1525974929921
 51
170.8173725465798
1001
PHOENIX7010
1002
{
1070
    41
1040
1.0
1070
    62
1070
     1
1002
}
  0
ARC
  5
437F
102
{ACAD_REACTORS
330
4815
102
}
330
1F
100
AcDbEntity
  8
0
  6
Continuous
 62
     7
370
    50
100
AcDbCircle
 10
182.548032109927
 20
135.7739613343414
 30
0.0
 40
35.0
100
AcDbArc
 50
166.988524674094
 51
171.1120456969875
1001
PHOENIX7010
1002
{
1070
    41
1040
1.0
1070
    62
1070
     7
1002
}
  0
ARC
  5
4380
102
{ACAD_REACTORS
330
4815
102
}
330
1F
100
AcDbEntity
  8
0
  6
Continuous
 62
     1
370
    50
100
AcDbCircle
 10
182.548032109927
 20
135.7739613343414
 30
0.0
 40
35.0
100
AcDbArc
 50
171.1120456969875
 51
177.0000000000205
1001
PHOENIX7010
1002
{
1070
    41
1040
1.0
1070
    62
1070
     7
1002
}
  0
LINE
  5
4381
102
{ACAD_REACTORS
330
4815
102
}
330
1F
100
AcDbEntity
  8
0
  6
Continuous
 62
     7
370
    50
100
AcDbLine
 10
148.3374699457669
 20
129.266367636144
 30
0.0
 11
150.7999999999997
 21
129.266367636144
 31
0.0
1001
PHOENIX7010
1002
{
1070
    41
1040
1.0
1070
    62
1070
     7
1002
}
  0
LINE
  5
4382
102
{ACAD_REACTORS
330
4815
102
}
330
1F
100
AcDbEntity
  8
0
  6
Continuous
 62
     7
370
    50
100
AcDbLine
 10
150.4999999999996
 20
130.2669771804429
 30
0.0
 11
149.0234281697168
 21
130.2669771804429
 31
0.0
1001
PHOENIX7010
1002
{
1070
    41
1040
1.0
1070
    62
1070
     5
1002
}
  0
ARC
  5
4383
102
{ACAD_REACTORS
330
4815
102
}
330
1F
100
AcDbEntity
  8
0
  6
Continuous
 62
     1
370
    50
100
AcDbCircle
 10
182.548032109927
 20
134.7739613343414
 30
0.0
 40
35.0
100
AcDbArc
 50
182.9999999999793
 51
188.8879543030125
1001
PHOENIX7010
1002
{
1070
    41
1040
1.0
1070
    62
1070
     7
1002
}
  0
ARC
  5
4384
102
{ACAD_REACTORS
330
4815
102
}
330
1F
100
AcDbEntity
  8
0
  6
Continuous
 62
     7
370
    50
100
AcDbCircle
 10
182.548032109927
 20
134.7739613343414
 30
0.0
 40
35.0
100
AcDbArc
 50
188.8879543030125
 51
193.0114753259059
1001
PHOENIX7010
1002
{
1070
    41
1040
1.0
1070
    62
1070
     7
1002
}
  0
ARC
  5
4385
102
{ACAD_REACTORS
330
4815
102
}
330
1F
100
AcDbEntity
  8
0
  6
Continuous
 62
     5
370
    50
100
AcDbCircle
 10
148.3374699457669
 20
129.7663676361437
 30
0.0
 40
0.5
100
AcDbArc
 50
250.5769073035907
 51
270.0
1001
PHOENIX7010
1002
{
1070
    41
1040
1.0
1070
    62
1070
     7
1002
}
  0
LINE
  5
4386
102
{ACAD_REACTORS
330
4815
102
}
330
1F
100
AcDbEntity
  8
0
  6
Continuous
 62
     5
370
    50
100
AcDbLine
 10
148.1711993133987
 20
129.2948232831801
 30
0.0
 11
147.9682991671394
 21
129.3663676361431
 31
0.0
1001
PHOENIX7010
1002
{
1070
    41
1040
1.0
1070
    62
1070
     1
1002
}
  0
LINE
  5
4387
102
{ACAD_REACTORS
330
4815
102
}
330
1F
100
AcDbEntity
  8
0
  6
Continuous
 62
     5
370
    50
100
AcDbLine
 10
148.4154421243707
 20
129.2663676361436
 30
0.0
 11
148.1717577308292
 21
129.3663676361465
 31
0.0
1001
PHOENIX7010
1002
{
1070
    41
1040
1.0
1070
    62
1070
     1
1002
}
  0
ARC
  5
4388
102
{ACAD_REACTORS
330
4815
102
}
330
1F
100
AcDbEntity
  8
0
  6
Continuous
 62
     5
370
    50
100
AcDbCircle
 10
182.3767682263534
 20
135.7739613343355
 30
0.0
 40
34.57919094406276
100
AcDbArc
 50
189.1826274534201
 51
190.8474025070205
1001
PHOENIX7010
1002
{
1070
    41
1040
1.0
1070
    62
1070
     1
1002
}
  0
ELLIPSE
  5
4389
102
{ACAD_REACTORS
330
4815
102
}
330
1F
100
AcDbEntity
  8
0
  6
Continuous
 62
     5
370
    50
100
AcDbEllipse
 10
149.0234281697168
 20
130.2530088726463
 30
0.0
 11
-0.7995126616152674
 21
-0.0000000000000102
 31
0.0
210
0.0
220
0.0
230
-1.0
 40
0.0174710276238372
 41
0.0000000000007336
 42
1.570796326794896
1001
PHOENIX7010
1002
{
1070
    41
1040
1.0
1070
    62
1070
     5
1002
}
  0
LINE
  5
438A
102
{ACAD_REACTORS
330
4815
102
}
330
1F
100
AcDbEntity
  8
0
  6
Continuous
 62
     5
370
    50
100
AcDbLine
 10
148.2239155081014
 20
130.2530088726463
 30
0.0
 11
148.0657970715646
 21
130.0818971021367
 31
0.0
1001
PHOENIX7010
1002
{
1070
    41
1040
1.0
1070
    62
1070
     5
1002
}
  0
ARC
  5
438B
102
{ACAD_REACTORS
330
4815
102
}
330
1F
100
AcDbEntity
  8
0
  6
Continuous
 62
     5
370
    50
100
AcDbCircle
 10
182.548032109927
 20
134.7739613343414
 30
0.0
 40
34.8
100
AcDbArc
 50
187.7487568844323
 51
188.9394518310892
1001
PHOENIX7010
1002
{
1070
    41
1040
1.0
1070
    62
1070
     5
1002
}
  0
LINE
  5
438C
102
{ACAD_REACTORS
330
4815
102
}
330
1F
100
AcDbEntity
  8
0
  6
Continuous
 62
     5
370
    50
100
AcDbLine
 10
147.9682991671289
 20
129.3663676361452
 30
0.0
 11
148.1707441075957
 21
129.3663676361452
 31
0.0
1001
PHOENIX7010
1002
{
1070
    41
1040
1.0
1070
    62
1070
     5
1002
}
  0
ARC
  5
438D
102
{ACAD_REACTORS
330
4815
102
}
330
1F
100
AcDbEntity
  8
0
  6
Continuous
 62
     7
370
    50
100
AcDbCircle
 10
157.4519678900723
 20
135.7739613343414
 30
0.0
 40
35.0
100
AcDbArc
 50
8.887954302999755
 51
13.01147532590592
1001
PHOENIX7010
1002
{
1070
    41
1040
1.0
1070
    62
1070
     7
1002
}
  0
ARC
  5
438E
102
{ACAD_REACTORS
330
4815
102
}
330
1F
100
AcDbEntity
  8
0
  6
Continuous
 62
     1
370
    50
100
AcDbCircle
 10
157.4519678900723
 20
135.7739613343414
 30
0.0
 40
35.0
100
AcDbArc
 50
2.999999999979305
 51
8.887954302999755
1001
PHOENIX7010
1002
{
1070
    41
1040
1.0
1070
    62
1070
     7
1002
}
  0
ARC
  5
438F
102
{ACAD_REACTORS
330
4815
102
}
330
1F
100
AcDbEntity
  8
0
  6
Continuous
 62
     1
370
    50
100
AcDbCircle
 10
157.4519678900723
 20
134.7739613343414
 30
0.0
 40
35.0
100
AcDbArc
 50
351.1120456970003
 51
357.0000000000205
1001
PHOENIX7010
1002
{
1070
    41
1040
1.0
1070
    62
1070
     7
1002
}
  0
ARC
  5
4390
102
{ACAD_REACTORS
330
4815
102
}
330
1F
100
AcDbEntity
  8
0
  6
Continuous
 62
     7
370
    50
100
AcDbCircle
 10
157.4519678900723
 20
134.7739613343414
 30
0.0
 40
35.0
100
AcDbArc
 50
346.9885246740941
 51
351.1120456970003
1001
PHOENIX7010
1002
{
1070
    41
1040
1.0
1070
    62
1070
     7
1002
}
  0
LINE
  5
4391
102
{ACAD_REACTORS
330
4815
102
}
330
1F
100
AcDbEntity
  8
0
  6
Continuous
 62
     7
370
    50
100
AcDbLine
 10
191.6625300542324
 20
141.2815550325387
 30
0.0
 11
189.1999999999996
 21
141.2815550325387
 31
0.0
1001
PHOENIX7010
1002
{
1070
    41
1040
1.0
1070
    62
1070
     7
1002
}
  0
LINE
  5
4392
102
{ACAD_REACTORS
330
4815
102
}
330
1F
100
AcDbEntity
  8
0
  6
Continuous
 62
     7
370
    50
100
AcDbLine
 10
189.4999999999996
 20
140.2809454882398
 30
0.0
 11
190.9765718302825
 21
140.2809454882398
 31
0.0
1001
PHOENIX7010
1002
{
1070
    41
1040
1.0
1070
    62
1070
     5
1002
}
  0
LINE
  5
4393
102
{ACAD_REACTORS
330
4815
102
}
330
1F
100
AcDbEntity
  8
0
  6
Continuous
 62
     7
370
    50
100
AcDbLine
 10
189.4999999999996
 20
130.2669771804429
 30
0.0
 11
190.9765718302825
 21
130.2669771804429
 31
0.0
1001
PHOENIX7010
1002
{
1070
    41
1040
1.0
1070
    62
1070
     5
1002
}
  0
LINE
  5
4394
102
{ACAD_REACTORS
330
4815
102
}
330
1F
100
AcDbEntity
  8
0
  6
Continuous
 62
     7
370
    50
100
AcDbLine
 10
191.6625300542324
 20
129.266367636144
 30
0.0
 11
189.1999999999996
 21
129.266367636144
 31
0.0
1001
PHOENIX7010
1002
{
1070
    41
1040
1.0
1070
    62
1070
     7
1002
}
  0
ARC
  5
4395
102
{ACAD_REACTORS
330
4815
102
}
330
1F
100
AcDbEntity
  8
0
  6
Continuous
 62
     5
370
    50
100
AcDbCircle
 10
191.6625300542324
 20
140.7815550325391
 30
0.0
 40
0.5
100
AcDbArc
 50
70.5769073035907
 51
90.0
1001
PHOENIX7010
1002
{
1070
    41
1040
1.0
1070
    62
1070
     7
1002
}
  0
LINE
  5
4396
102
{ACAD_REACTORS
330
4815
102
}
330
1F
100
AcDbEntity
  8
0
  6
Continuous
 62
     5
370
    50
100
AcDbLine
 10
191.8288006866006
 20
141.2530993855027
 30
0.0
 11
192.0317008328599
 21
141.1815550325398
 31
0.0
1001
PHOENIX7010
1002
{
1070
    41
1040
1.0
1070
    62
1070
     1
1002
}
  0
LINE
  5
4397
102
{ACAD_REACTORS
330
4815
102
}
330
1F
100
AcDbEntity
  8
0
  6
Continuous
 62
     5
370
    50
100
AcDbLine
 10
191.5845578756285
 20
141.2815550325391
 30
0.0
 11
191.8282422691701
 21
141.1815550325363
 31
0.0
1001
PHOENIX7010
1002
{
1070
    41
1040
1.0
1070
    62
1070
     1
1002
}
  0
ARC
  5
4398
102
{ACAD_REACTORS
330
4815
102
}
330
1F
100
AcDbEntity
  8
0
  6
Continuous
 62
     5
370
    50
100
AcDbCircle
 10
157.6232317736459
 20
134.7739613343475
 30
0.0
 40
34.57919094406276
100
AcDbArc
 50
9.182627453420112
 51
10.84740250700789
1001
PHOENIX7010
1002
{
1070
    41
1040
1.0
1070
    62
1070
     1
1002
}
  0
ELLIPSE
  5
4399
102
{ACAD_REACTORS
330
4815
102
}
330
1F
100
AcDbEntity
  8
0
  6
Continuous
 62
     5
370
    50
100
AcDbEllipse
 10
190.9765718302825
 20
140.2949137960365
 30
0.0
 11
-0.7995126616152674
 21
-0.0000000000000102
 31
0.0
210
0.0
220
0.0
230
-1.0
 40
0.0174710276238372
 41
3.141592653590545
 42
4.712388980384689
1001
PHOENIX7010
1002
{
1070
    41
1040
1.0
1070
    62
1070
     5
1002
}
  0
LINE
  5
439A
102
{ACAD_REACTORS
330
4815
102
}
330
1F
100
AcDbEntity
  8
0
  6
Continuous
 62
     5
370
    50
100
AcDbLine
 10
191.7760844918979
 20
140.2949137960365
 30
0.0
 11
191.9342029284347
 21
140.4660255665461
 31
0.0
1001
PHOENIX7010
1002
{
1070
    41
1040
1.0
1070
    62
1070
     5
1002
}
  0
ARC
  5
439B
102
{ACAD_REACTORS
330
4815
102
}
330
1F
100
AcDbEntity
  8
0
  6
Continuous
 62
     5
370
    50
100
AcDbCircle
 10
157.4519678900723
 20
135.7739613343414
 30
0.0
 40
34.8
100
AcDbArc
 50
7.748756884419416
 51
8.939451831102241
1001
PHOENIX7010
1002
{
1070
    41
1040
1.0
1070
    62
1070
     5
1002
}
  0
LINE
  5
439C
102
{ACAD_REACTORS
330
4815
102
}
330
1F
100
AcDbEntity
  8
0
  6
Continuous
 62
     5
370
    50
100
AcDbLine
 10
192.0317008328703
 20
141.1815550325376
 30
0.0
 11
191.8292558924036
 21
141.1815550325376
 31
0.0
1001
PHOENIX7010
1002
{
1070
    41
1040
1.0
1070
    62
1070
     5
1002
}
  0
LINE
  5
439D
102
{ACAD_REACTORS
330
4815
102
}
330
1F
100
AcDbEntity
  8
0
  6
Continuous
 62
     5
370
    50
100
AcDbLine
 10
192.0317008328703
 20
129.3663676361452
 30
0.0
 11
191.8292558924036
 21
129.3663676361452
 31
0.0
1001
PHOENIX7010
1002
{
1070
    41
1040
1.0
1070
    62
1070
     5
1002
}
  0
ARC
  5
439E
102
{ACAD_REACTORS
330
4815
102
}
330
1F
100
AcDbEntity
  8
0
  6
Continuous
 62
     5
370
    50
100
AcDbCircle
 10
157.4519678900723
 20
134.7739613343414
 30
0.0
 40
34.8
100
AcDbArc
 50
351.0605481688978
 51
352.2512431155805
1001
PHOENIX7010
1002
{
1070
    41
1040
1.0
1070
    62
1070
     5
1002
}
  0
LINE
  5
439F
102
{ACAD_REACTORS
330
4815
102
}
330
1F
100
AcDbEntity
  8
0
  6
Continuous
 62
     5
370
    50
100
AcDbLine
 10
191.7760844918979
 20
130.2530088726463
 30
0.0
 11
191.9342029284347
 21
130.0818971021367
 31
0.0
1001
PHOENIX7010
1002
{
1070
    41
1040
1.0
1070
    62
1070
     5
1002
}
  0
ELLIPSE
  5
43A0
102
{ACAD_REACTORS
330
4815
102
}
330
1F
100
AcDbEntity
  8
0
  6
Continuous
 62
     5
370
    50
100
AcDbEllipse
 10
190.9765718302825
 20
130.2530088726463
 30
0.0
 11
-0.7995126616152674
 21
0.0000000000000105
 31
0.0
210
0.0
220
0.0
230
1.0
 40
0.0174710276238372
 41
3.141592653590545
 42
4.712388980384689
1001
PHOENIX7010
1002
{
1070
    41
1040
1.0
1070
    62
1070
     5
1002
}
  0
ARC
  5
43A1
102
{ACAD_REACTORS
330
4815
102
}
330
1F
100
AcDbEntity
  8
0
  6
Continuous
 62
     5
370
    50
100
AcDbCircle
 10
191.6625300542324
 20
129.7663676361437
 30
0.0
 40
0.5
100
AcDbArc
 50
270.0
 51
289.4230926964092
1001
PHOENIX7010
1002
{
1070
    41
1040
1.0
1070
    62
1070
     7
1002
}
  0
LINE
  5
43A2
102
{ACAD_REACTORS
330
4815
102
}
330
1F
100
AcDbEntity
  8
0
  6
Continuous
 62
     5
370
    50
100
AcDbLine
 10
191.8288006866006
 20
129.2948232831801
 30
0.0
 11
192.0317008328599
 21
129.3663676361431
 31
0.0
1001
PHOENIX7010
1002
{
1070
    41
1040
1.0
1070
    62
1070
     1
1002
}
  0
LINE
  5
43A3
102
{ACAD_REACTORS
330
4815
102
}
330
1F
100
AcDbEntity
  8
0
  6
Continuous
 62
     5
370
    50
100
AcDbLine
 10
191.5845578756285
 20
129.2663676361436
 30
0.0
 11
191.8282422691701
 21
129.3663676361465
 31
0.0
1001
PHOENIX7010
1002
{
1070
    41
1040
1.0
1070
    62
1070
     1
1002
}
  0
ARC
  5
43A4
102
{ACAD_REACTORS
330
4815
102
}
330
1F
100
AcDbEntity
  8
0
  6
Continuous
 62
     5
370
    50
100
AcDbCircle
 10
157.6232317736459
 20
135.7739613343355
 30
0.0
 40
34.57919094406276
100
AcDbArc
 50
349.1525974929921
 51
350.8173725465799
1001
PHOENIX7010
1002
{
1070
    41
1040
1.0
1070
    62
1070
     1
1002
}
  0
LINE
  5
43A6
102
{ACAD_REACTORS
330
4815
102
}
330
1F
100
AcDbEntity
  8
0
  6
ACAD_ISO04W100
 62
     1
370
    50
100
AcDbLine
 10
193.8133860867718
 20
135.2739613343413
 30
0.0
 11
146.4999999999996
 21
135.2739613343413
 31
0.0
1001
PHOENIX7010
1002
{
1070
    41
1040
1.0
1070
    62
1070
     1
1002
}
  0
LINE
  5
43A7
102
{ACAD_REACTORS
330
4815
102
}
330
1F
100
AcDbEntity
  8
0
  6
ACAD_ISO04W100
 62
     1
370
    50
100
AcDbLine
 10
169.9999999999996
 20
127.5739613343414
 30
0.0
 11
169.9999999999996
 21
142.9739613343414
 31
0.0
1001
PHOENIX7010
1002
{
1070
    41
1040
1.0
1002
}
  0
LINE
  5
43A8
102
{ACAD_REACTORS
330
4815
102
}
330
1F
100
AcDbEntity
  8
0
  6
ACAD_ISO04W100
 62
     1
370
    50
100
AcDbLine
 10
170.0
 20
203.5739613343401
 30
0.0
 11
170.0
 21
218.9739613343401
 31
0.0
1001
PHOENIX7010
1002
{
1070
    41
1040
1.0
1002
}
  0
HATCH
  5
43A9
102
{ACAD_REACTORS
330
4815
102
}
330
1F
100
AcDbEntity
  8
0
  6
Continuous
 62
     1
370
    25
100
AcDbHatch
 10
0.0
 20
0.0
 30
0.0
210
0.0
220
0.0
230
1.0
  2
_U
 70
     0
 71
     0
 91
        4
 92
        1
 93
       12
 72
     1
 10
150.5000219580042
 20
179.2739613343412
 11
150.7668854224012
 21
175.7739613343414
 72
     1
 10
150.7668854224012
 20
175.7739613343414
 11
152.1000219580043
 21
175.7739613343414
 72
     1
 10
152.1000219580043
 20
175.7739613343414
 11
152.2053936251193
 21
178.7914110826926
 72
     2
 10
152.7050890386288
 20
178.7739613343414
 40
0.5000000000000096
 50
182.0000000000035
 51
270.0000000000163
 73
     0
 72
     1
 10
152.705089038629
 20
179.2739613343414
 11
170.0000219580042
 21
179.2739613343414
 72
     1
 10
170.0000219580042
 20
179.2739613343414
 11
170.0000219580042
 21
180.7739613343414
 72
     1
 10
170.0000219580042
 20
180.7739613343414
 11
152.5000219580042
 21
180.7739613343412
 72
     1
 10
152.5000219580042
 20
180.7739613343412
 11
152.4562776262414
 21
181.2739613343412
 72
     1
 10
152.4562776262414
 20
181.2739613343412
 11
151.3000219580042
 21
181.2739613343414
 72
     1
 10
151.3000219580042
 20
181.2739613343414
 11
151.3000219580042
 21
179.4739613343414
 72
     2
 10
151.1000219580041
 20
179.4739613343414
 40
0.200000000000017
 50
0.0000000000000127
 51
90.00000000000815
 73
     0
 72
     1
 10
151.1000219580041
 20
179.2739613343414
 11
150.5000219580042
 21
179.2739613343412
 97
        0
 92
        1
 93
        4
 72
     1
 10
150.0500219580042
 20
179.2739613343414
 11
150.0500219580042
 21
178.2739613343412
 72
     1
 10
150.0500219580042
 20
178.2739613343412
 11
150.7668854224013
 21
175.7739613343411
 72
     1
 10
150.7668854224013
 20
175.7739613343411
 11
150.5000219580042
 21
179.2739613343414
 72
     1
 10
150.5000219580042
 20
179.2739613343414
 11
150.0500219580042
 21
179.2739613343414
 97
        0
 92
        1
 93
       14
 72
     1
 10
170.0000219580042
 20
180.7739613343414
 11
170.0000219580042
 21
179.2739613343414
 72
     1
 10
170.0000219580042
 20
179.2739613343414
 11
187.2949548773797
 21
179.2739613343414
 72
     2
 10
187.2949548773796
 20
178.7739613343414
 40
0.5
 50
-89.99999999999023
 51
-2.000000000003577
 73
     0
 72
     1
 10
187.7946502908891
 20
178.7914110826926
 11
187.9000219580043
 21
175.7739613343414
 72
     1
 10
187.9000219580043
 20
175.7739613343414
 11
188.9000219580043
 21
175.7739613343414
 72
     1
 10
188.9000219580043
 20
175.7739613343414
 11
188.9000219580043
 21
177.7739613343412
 72
     1
 10
188.9000219580043
 20
177.7739613343412
 11
189.385651901834
 21
177.7739613343412
 72
     1
 10
189.385651901834
 20
177.7739613343412
 11
189.5000219580042
 21
179.2739613343414
 72
     1
 10
189.5000219580042
 20
179.2739613343414
 11
188.9000219580043
 21
179.2739613343414
 72
     2
 10
188.9000219580043
 20
179.4739613343414
 40
0.2000000000000455
 50
89.99999999998372
 51
180.0
 73
     0
 72
     1
 10
188.7000219580043
 20
179.4739613343414
 11
188.7000219580043
 21
181.2739613343414
 72
     1
 10
188.7000219580043
 20
181.2739613343414
 11
187.5437662897672
 21
181.2739613343414
 72
     1
 10
187.5437662897672
 20
181.2739613343414
 11
187.5000219580042
 21
180.7739613343412
 72
     1
 10
187.5000219580042
 20
180.7739613343412
 11
170.0000219580042
 21
180.7739613343414
 97
        0
 92
        1
 93
        5
 72
     1
 10
189.5000219580042
 20
179.2739613343414
 11
189.385651901834
 21
177.7739613343413
 72
     1
 10
189.385651901834
 20
177.7739613343413
 11
189.8066492651248
 21
177.7739613343413
 72
     1
 10
189.8066492651248
 20
177.7739613343413
 11
189.9500219580042
 21
178.2739613343414
 72
     1
 10
189.9500219580042
 20
178.2739613343414
 11
189.9500219580042
 21
179.2739613343414
 72
     1
 10
189.9500219580042
 20
179.2739613343414
 11
189.5000219580042
 21
179.2739613343414
 97
        0
 75
     0
 76
     0
 52
135.0
 41
1.0
 77
     0
 78
     1
 53
134.9999999999999
 43
345.0839509324437
 44
-34.00903032480176
 45
-0.7071067811865478
 46
-0.7071067811865474
 79
     0
 98
        1
 10
345.0839509324437
 20
-34.00903032480176
1001
PHOENIX7010
1002
{
1070
    41
1040
1.0
1002
}
  0
LINE
  5
45CD
102
{ACAD_REACTORS
330
4815
102
}
330
1F
100
AcDbEntity
  8
0
  6
Continuous
 62
     7
370
    50
100
AcDbLine
 10
223.5
 20
220.2739613343402
 30
0.0
 11
217.772080402638
 21
220.0739379744135
 31
0.0
1001
PHOENIX7010
1002
{
1070
    41
1040
1.0
1070
    62
1070
     7
1002
}
  0
LINE
  5
45CE
102
{ACAD_REACTORS
330
4815
102
}
330
1F
100
AcDbEntity
  8
0
  6
Continuous
 62
     7
370
    50
100
AcDbLine
 10
223.5
 20
202.2739613343402
 30
0.0
 11
217.772080402638
 21
202.473984694267
 31
0.0
1001
PHOENIX7010
1002
{
1070
    41
1040
1.0
1070
    62
1070
     7
1002
}
  0
LINE
  5
45CF
102
{ACAD_REACTORS
330
4815
102
}
330
1F
100
AcDbEntity
  8
0
  6
Continuous
 62
     7
370
    50
100
AcDbLine
 10
218.5
 20
204.7739613343402
 30
0.0
 11
218.5
 21
217.7739613343403
 31
0.0
1001
PHOENIX7010
1002
{
1070
    41
1040
1.0
1070
    62
1070
     7
1002
}
  0
LINE
  5
45D0
102
{ACAD_REACTORS
330
4815
102
}
330
1F
100
AcDbEntity
  8
0
  6
Continuous
 62
     7
370
    50
100
AcDbLine
 10
218.5
 20
204.7739613343402
 30
0.0
 11
217.4564221286262
 21
204.6826601010884
 31
0.0
1001
PHOENIX7010
1002
{
1070
    41
1040
1.0
1070
    62
1070
     7
1002
}
  0
ARC
  5
45D1
102
{ACAD_REACTORS
330
4815
102
}
330
1F
100
AcDbEntity
  8
0
  6
Continuous
 62
     7
370
    50
100
AcDbCircle
 10
217.5
 20
204.1845627520426
 30
0.0
 40
0.5
100
AcDbArc
 50
95.0
 51
180.0
1001
PHOENIX7010
1002
{
1070
    41
1040
1.0
1070
    62
1070
     7
1002
}
  0
LINE
  5
45D2
102
{ACAD_REACTORS
330
4815
102
}
330
1F
100
AcDbEntity
  8
0
  6
Continuous
 62
     7
370
    50
100
AcDbLine
 10
217.0
 20
203.2734973558822
 30
0.0
 11
217.0
 21
204.1845627520426
 31
0.0
1001
PHOENIX7010
1002
{
1070
    41
1040
1.0
1070
    62
1070
     7
1002
}
  0
ARC
  5
45D3
102
{ACAD_REACTORS
330
4815
102
}
330
1F
100
AcDbEntity
  8
0
  6
Continuous
 62
     7
370
    50
100
AcDbCircle
 10
217.8000000000002
 20
203.2734973558822
 30
0.0
 40
0.8
100
AcDbArc
 50
180.0
 51
267.9999999999964
1001
PHOENIX7010
1002
{
1070
    41
1040
1.0
1070
    62
1070
     7
1002
}
  0
ARC
  5
45D4
102
{ACAD_REACTORS
330
4815
102
}
330
1F
100
AcDbEntity
  8
0
  6
Continuous
 62
     7
370
    50
100
AcDbCircle
 10
217.5
 20
218.3633599166378
 30
0.0
 40
0.5
100
AcDbArc
 50
180.0
 51
265.0
1001
PHOENIX7010
1002
{
1070
    41
1040
1.0
1070
    62
1070
     7
1002
}
  0
LINE
  5
45D5
102
{ACAD_REACTORS
330
4815
102
}
330
1F
100
AcDbEntity
  8
0
  6
Continuous
 62
     7
370
    50
100
AcDbLine
 10
217.0
 20
218.3633599166378
 30
0.0
 11
217.0
 21
219.2744253127983
 31
0.0
1001
PHOENIX7010
1002
{
1070
    41
1040
1.0
1070
    62
1070
     7
1002
}
  0
ARC
  5
45D6
102
{ACAD_REACTORS
330
4815
102
}
330
1F
100
AcDbEntity
  8
0
  6
Continuous
 62
     7
370
    50
100
AcDbCircle
 10
217.8000000000002
 20
219.2744253127983
 30
0.0
 40
0.8
100
AcDbArc
 50
92.00000000000365
 51
180.0
1001
PHOENIX7010
1002
{
1070
    41
1040
1.0
1070
    62
1070
     7
1002
}
  0
LINE
  5
45D7
102
{ACAD_REACTORS
330
4815
330
988E
102
}
330
1F
100
AcDbEntity
  8
0
  6
Continuous
 62
     7
370
    50
100
AcDbLine
 10
225.0000000000002
 20
218.2739613343402
 30
0.0
 11
220.4825502516487
 21
218.1162085129873
 31
0.0
1001
PHOENIX7010
1002
{
1070
    41
1040
1.0
1070
    62
1070
     7
1002
}
  0
LINE
  5
45D8
102
{ACAD_REACTORS
330
4815
102
}
330
1F
100
AcDbEntity
  8
0
  6
Continuous
 62
     7
370
    50
100
AcDbLine
 10
225.0
 20
218.9927283390514
 30
0.0
 11
225.0
 21
218.2739613343402
 31
0.0
1001
PHOENIX7010
1002
{
1070
    41
1040
1.0
1070
    62
1070
     7
1002
}
  0
LINE
  5
45D9
102
{ACAD_REACTORS
330
4815
102
}
330
1F
100
AcDbEntity
  8
0
  6
Continuous
 62
     7
370
    50
100
AcDbLine
 10
223.5
 20
219.1239613343403
 30
0.0
 11
225.0
 21
218.9927283390514
 31
0.0
1001
PHOENIX7010
1002
{
1070
    41
1040
1.0
1070
    62
1070
     7
1002
}
  0
LINE
  5
45DA
102
{ACAD_REACTORS
330
4815
330
988F
102
}
330
1F
100
AcDbEntity
  8
0
  6
Continuous
 62
     7
370
    50
100
AcDbLine
 10
225.0000000000002
 20
204.2739613343402
 30
0.0
 11
220.4825502516487
 21
204.4317141556931
 31
0.0
1001
PHOENIX7010
1002
{
1070
    41
1040
1.0
1070
    62
1070
     7
1002
}
  0
LINE
  5
45DB
102
{ACAD_REACTORS
330
4815
102
}
330
1F
100
AcDbEntity
  8
0
  6
Continuous
 62
     7
370
    50
100
AcDbLine
 10
225.0
 20
203.5551943296291
 30
0.0
 11
225.0
 21
204.2739613343402
 31
0.0
1001
PHOENIX7010
1002
{
1070
    41
1040
1.0
1070
    62
1070
     7
1002
}
  0
LINE
  5
45DC
102
{ACAD_REACTORS
330
4815
102
}
330
1F
100
AcDbEntity
  8
0
  6
Continuous
 62
     7
370
    50
100
AcDbLine
 10
223.5
 20
203.4239613343402
 30
0.0
 11
225.0
 21
203.5551943296291
 31
0.0
1001
PHOENIX7010
1002
{
1070
    41
1040
1.0
1070
    62
1070
     7
1002
}
  0
ARC
  5
45DD
102
{ACAD_REACTORS
330
4815
102
}
330
1F
100
AcDbEntity
  8
0
  6
Continuous
 62
     7
370
    50
100
AcDbCircle
 10
220.5
 20
204.9314095692026
 30
0.0
 40
0.5
100
AcDbArc
 50
180.0
 51
267.9999999999964
1001
PHOENIX7010
1002
{
1070
    41
1040
1.0
1070
    62
1070
     7
1002
}
  0
ARC
  5
45DE
102
{ACAD_REACTORS
330
4815
102
}
330
1F
100
AcDbEntity
  8
0
  6
Continuous
 62
     7
370
    50
100
AcDbCircle
 10
220.5
 20
217.6165130994777
 30
0.0
 40
0.5
100
AcDbArc
 50
92.00000000000365
 51
180.0
1001
PHOENIX7010
1002
{
1070
    41
1040
1.0
1070
    62
1070
     7
1002
}
  0
LINE
  5
45DF
102
{ACAD_REACTORS
330
4815
102
}
330
1F
100
AcDbEntity
  8
0
  6
ACAD_ISO04W100
 62
     1
 48
0.1532258064516129
370
    50
100
AcDbLine
 10
216.0
 20
211.2739613343403
 30
0.0
 11
225.5
 21
211.2739613343403
 31
0.0
1001
PHOENIX7010
1002
{
1070
    41
1040
1.0
1070
    62
1070
     1
1002
}
  0
LINE
  5
45E0
102
{ACAD_REACTORS
330
4815
102
}
330
1F
100
AcDbEntity
  8
0
  6
Continuous
 62
     7
370
    50
100
AcDbLine
 10
223.5
 20
219.1239613343403
 30
0.0
 11
223.5
 21
220.2739613343402
 31
0.0
1001
PHOENIX7010
1002
{
1070
    41
1040
1.0
1070
    62
1070
     7
1002
}
  0
LINE
  5
45E1
102
{ACAD_REACTORS
330
4815
102
}
330
1F
100
AcDbEntity
  8
0
  6
Continuous
 62
     7
370
    50
100
AcDbLine
 10
223.5
 20
202.2739613343402
 30
0.0
 11
223.5
 21
203.4239613343402
 31
0.0
1001
PHOENIX7010
1002
{
1070
    41
1040
1.0
1070
    62
1070
     7
1002
}
  0
LINE
  5
45E2
102
{ACAD_REACTORS
330
4815
102
}
330
1F
100
AcDbEntity
  8
0
  6
Continuous
 62
     7
370
    50
100
AcDbLine
 10
223.5
 20
204.3263424885779
 30
0.0
 11
223.5
 21
218.2215801801026
 31
0.0
1001
PHOENIX7010
1002
{
1070
    41
1040
1.0
1070
    62
1070
     7
1002
}
  0
LINE
  5
45E3
102
{ACAD_REACTORS
330
4815
102
}
330
1F
100
AcDbEntity
  8
0
  6
Continuous
 62
     7
370
    50
100
AcDbLine
 10
220.0
 20
204.9314095692026
 30
0.0
 11
220.0
 21
217.6165130994777
 31
0.0
1001
PHOENIX7010
1002
{
1070
    41
1040
1.0
1070
    62
1070
     7
1002
}
  0
LINE
  5
45E4
102
{ACAD_REACTORS
330
4815
102
}
330
1F
100
AcDbEntity
  8
0
  6
Continuous
 62
     7
370
    50
100
AcDbLine
 10
218.0
 20
204.7302170025773
 30
0.0
 11
218.0
 21
217.8177056661032
 31
0.0
1001
PHOENIX7010
1002
{
1070
    41
1040
1.0
1070
    62
1070
     7
1002
}
  0
INSERT
  5
45E5
102
{ACAD_REACTORS
330
4815
102
}
330
1F
100
AcDbEntity
  8
0
  6
Continuous
 62
     1
370
    50
100
AcDbBlockReference
  2
*X5
 10
-699.3103099751267
 20
-9.544674415919757
 30
0.0
 43
-1.0
210
0.0
220
0.0
230
-1.0
1001
ACAD
1000
HATCH
1002
{
1070
    19
1000
_U
1040
1.0
1040
0.7853981633974483
1002
}
1001
PHOENIX7010
1002
{
1070
    41
1040
1.0
1002
}
  0
LINE
  5
45E6
102
{ACAD_REACTORS
330
4815
102
}
330
1F
100
AcDbEntity
  8
0
  6
Continuous
 62
     7
370
    50
100
AcDbLine
 10
218.5
 20
217.7739613343403
 30
0.0
 11
217.4564221286262
 21
217.8652625675919
 31
0.0
1001
PHOENIX7010
1002
{
1070
    41
1040
1.0
1070
    62
1070
     7
1002
}
  0
DIMENSION
  5
88B6
102
{ACAD_REACTORS
330
9890
102
}
330
1F
100
AcDbEntity
  8
0
  6
Continuous
 62
     7
370
    35
100
AcDbDimension
  2
*D6
 10
230.5000000000001
 20
204.4317141556931
 30
0.0
 11
230.5
 21
211.2739613343403
 31
0.0
 70
   160
  1
13.6
 71
     5
 42
13.68449435729428
  3
phoenix
100
AcDbAlignedDimension
 13
220.4825502516487
 23
218.1162085129873
 33
0.0
 14
220.4825502516487
 24
204.4317141556931
 34
0.0
 50
90.0
100
AcDbRotatedDimension
1001
ACAD
1000
DSTYLE
1002
{
1070
   173
1070
     1
1002
}
  0
DIMENSION
  5
98B5
102
{ACAD_REACTORS
330
A497
102
}
330
1F
100
AcDbEntity
  8
0
  6
Continuous
 62
     7
370
    35
100
AcDbDimension
  2
*D7
 10
204.031722790875
 20
180.7739613343413
 30
0.0
 11
204.031722790875
 21
191.3772744710595
 31
0.0
 70
   160
 71
     5
 42
0.5
  3
phoenix
100
AcDbAlignedDimension
 13
187.5437662897672
 23
181.2739613343414
 33
0.0
 14
187.5000219580042
 24
180.7739613343414
 34
0.0
 50
90.0
100
AcDbRotatedDimension
1001
ACAD
1000
DSTYLE
1002
{
1070
   173
1070
     1
1002
}
  0
DIMENSION
  5
A4C4
102
{ACAD_REACTORS
330
A97E
102
}
330
1F
100
AcDbEntity
  8
0
  6
Continuous
 62
     7
370
    35
100
AcDbDimension
  2
*D8
 10
187.2949548773803
 20
178.7739613343423
 30
0.0
 11
182.7886046381587
 21
167.605516216776
 31
0.0
 70
   164
 71
     5
 42
0.4999999999989484
  3
phoenix$4
100
AcDbRadialDimension
 15
187.4820442062353
 25
179.2376396528213
 35
0.0
 40
0.0
1001
ACAD
1000
DSTYLE
1002
{
1070
   279
1070
     1
1070
   173
1070
     1
1070
   147
1040
0.5
1070
   271
1070
     6
1070
   272
1070
     6
1070
   179
1070
     4
1070
    79
1070
     2
1070
   140
1040
2.5
1002
}
  0
DIMENSION
  5
BC44
102
{ACAD_REACTORS
330
C539
102
}
330
1F
100
AcDbEntity
  8
0
  6
Continuous
 62
     7
370
    35
100
AcDbDimension
  2
*D9
 10
130.9683211251335
 20
175.7739613343414
 30
0.0
 11
130.9683211251335
 21
165.6718292999854
 31
0.0
 70
   160
 71
     5
 42
3.5
  3
phoenix
100
AcDbAlignedDimension
 13
152.705089038629
 23
179.2739613343414
 33
0.0
 14
148.0658190295691
 24
175.7739613343414
 34
0.0
 50
90.0
100
AcDbRotatedDimension
1001
ACAD
1000
DSTYLE
1002
{
1070
   173
1070
     1
1002
}
  0
DIMENSION
  5
C55B
102
{ACAD_REACTORS
330
CD7D
102
}
330
1F
100
AcDbEntity
  8
0
  6
Continuous
 62
     7
370
    35
100
AcDbDimension
  2
*D10
 10
187.7946502908892
 20
162.2739613343413
 30
0.0
 11
170.0000219580042
 21
162.2739613343413
 31
0.0
 70
   160
  1
35.5
 71
     5
 42
35.58925666576994
  3
phoenix
100
AcDbAlignedDimension
 13
152.2053936251192
 23
178.7914110826926
 33
0.0
 14
187.7946502908892
 24
178.7914110826926
 34
0.0
100
AcDbRotatedDimension
1001
ACAD
1000
DSTYLE
1002
{
1070
   173
1070
     1
1002
}
  0
DIMENSION
  5
CDD5
102
{ACAD_REACTORS
330
D677
102
}
330
1F
100
AcDbEntity
  8
0
  6
Continuous
 62
     7
370
    35
100
AcDbDimension
  2
*D11
 10
187.4999999999996
 20
151.2739613343415
 30
0.0
 11
169.9999999999999
 21
151.2739613343415
 31
0.0
 70
   160
  1
<>
 71
     5
 42
35.0
  3
phoenix
100
AcDbAlignedDimension
 13
152.4999999999996
 23
141.7739613343414
 33
0.0
 14
187.4999999999996
 24
141.7739613343414
 34
0.0
100
AcDbRotatedDimension
1001
ACAD
1000
DSTYLE
1002
{
1070
   173
1070
     1
1070
    47
1040
0.2
1070
    48
1040
0.1
1070
    71
1070
     1
1002
}
  0
DIMENSION
  5
D69C
102
{ACAD_REACTORS
330
E182
102
}
330
1F
100
AcDbEntity
  8
0
  6
Continuous
 62
     7
370
    35
100
AcDbDimension
  2
*D12
 10
140.4999999999998
 20
128.7302170025785
 30
0.0
 11
140.4999999999998
 21
135.2739613343413
 31
0.0
 70
   160
  1
13{\H0.666x;%%p0.1}
 71
     5
 42
13.08748866352585
  3
phoenix
100
AcDbAlignedDimension
 13
152.4562556682366
 23
141.8177056661044
 33
0.0
 14
152.4562556682366
 24
128.7302170025785
 34
0.0
 50
90.0
100
AcDbRotatedDimension
1001
ACAD
1000
DSTYLE
1002
{
1070
   173
1070
     1
1070
    47
1040
0.1
1070
    48
1040
0.1
1002
}
  0
DIMENSION
  5
10C8F
102
{ACAD_REACTORS
330
113E2
102
}
330
1F
100
AcDbEntity
  8
0
  6
Continuous
 62
     7
370
    35
100
AcDbDimension
  2
*D13
 10
135.9683211251335
 20
179.2739613343414
 30
0.0
 11
135.9683211251335
 21
190.5760933686974
 31
0.0
 70
   160
 71
     5
 42
1.5
  3
phoenix
100
AcDbAlignedDimension
 13
152.5000219580042
 23
180.7739613343414
 33
0.0
 14
152.705089038629
 24
179.2739613343414
 34
0.0
 50
90.0
100
AcDbRotatedDimension
1001
ACAD
1000
DSTYLE
1002
{
1070
   173
1070
     1
1002
}
  0
DIMENSION
  5
11FBA
102
{ACAD_REACTORS
330
12739
102
}
330
1F
100
AcDbEntity
  8
0
  6
Continuous
 62
     7
370
    35
100
AcDbDimension
  2
*D14
 10
140.9683211251336
 20
180.7739613343414
 30
0.0
 11
140.9683211251335
 21
192.0760933686962
 31
0.0
 70
   160
 71
     5
 42
1.499999999998777
  3
phoenix
100
AcDbAlignedDimension
 13
170.0000000000001
 23
182.2739613343401
 33
0.0
 14
152.5000219580042
 24
180.7739613343414
 34
0.0
 50
90.0
100
AcDbRotatedDimension
1001
ACAD
1000
DSTYLE
1002
{
1070
   173
1070
     1
1002
}
  0
DIMENSION
  5
1383C
102
{ACAD_REACTORS
330
145E1
102
}
330
1F
100
AcDbEntity
  8
0
  6
Continuous
 62
     7
370
    35
100
AcDbDimension
  2
*D15
 10
199.031722790875
 20
175.7739613343414
 30
0.0
 11
199.031722790875
 21
164.4718292999854
 31
0.0
 70
   160
 71
     5
 42
1.500000000000028
  3
phoenix
100
AcDbAlignedDimension
 13
184.7355314869416
 23
174.2739613343414
 33
0.0
 14
192.0317227908749
 24
175.7739613343414
 34
0.0
 50
90.0
100
AcDbRotatedDimension
1001
ACAD
1000
DSTYLE
1002
{
1070
   173
1070
     1
1002
}
  0
LWPOLYLINE
  5
15B6B
330
1F
100
AcDbEntity
  8
0
  6
Continuous
 62
     7
 60
     1
370
    50
100
AcDbPolyline
 90
        5
 70
     1
 43
0.0
 10
556.3764987198513
 20
122.4002439203361
 10
549.6764987198512
 20
114.600243920336
 10
561.6764987198512
 20
114.600243920336
 10
561.6764987198512
 20
122.400243920336
 10
556.3764987198513
 20
115.5002439203361
1001
PHOENIX7010
1002
{
1070
    41
1040
1.0
1002
}
  0
LWPOLYLINE
  5
15B6C
330
1F
100
AcDbEntity
  8
0
  6
Continuous
 62
     7
 60
     1
370
    50
100
AcDbPolyline
 90
        3
 70
     1
 43
0.0
 10
548.8264987198512
 20
114.600243920336
 10
548.8264987198512
 20
118.750243920336
 10
552.9764987198511
 20
118.750243920336
 42
2.414213562373094
1001
PHOENIX7010
1002
{
1070
    41
1040
1.0
1002
}
  0
HATCH
  5
15CE8
102
{ACAD_REACTORS
330
15D3C
102
}
330
1F
100
AcDbEntity
  8
0
  6
Continuous
 62
     1
370
    25
100
AcDbHatch
 10
0.0
 20
0.0
 30
0.0
210
0.0
220
0.0
230
1.0
  2
_U
 70
     0
 71
     1
 91
        1
 92
        0
 93
        5
 72
     1
 10
407.4334749940256
 20
35.16453811398026
 11
400.7334749940255
 21
27.36453811398019
 72
     1
 10
400.7334749940254
 20
27.36453811398019
 11
412.7334749940255
 21
27.36453811398019
 72
     1
 10
412.7334749940255
 20
27.36453811398019
 11
412.7334749940255
 21
35.1645381139802
 72
     1
 10
412.7334749940255
 20
35.16453811398014
 11
407.4334749940255
 21
28.26453811398025
 72
     1
 10
407.4334749940256
 20
28.26453811398028
 11
407.4334749940255
 21
35.16453811398026
 97
        1
330
15D2C
 75
     0
 76
     0
 52
45.0
 41
0.1
 77
     0
 78
     1
 53
45.0
 43
0.0
 44
-32.08885297207075
 45
-0.0707106781186548
 46
0.0707106781186548
 79
     0
 98
        1
 10
0.0
 20
-32.08885297207075
1001
PHOENIX7010
1002
{
1070
    41
1040
1.0
1002
}
  0
HATCH
  5
15CE9
102
{ACAD_REACTORS
330
15D3C
102
}
330
1F
100
AcDbEntity
  8
0
  6
Continuous
 62
     1
370
    25
100
AcDbHatch
 10
0.0
 20
0.0
 30
0.0
210
0.0
220
0.0
230
1.0
  2
_U
 70
     0
 71
     1
 91
        1
 92
        0
 93
        3
 72
     1
 10
399.8834749940255
 20
27.36453811398019
 11
399.8834749940255
 21
31.51453811398019
 72
     1
 10
399.8834749940255
 20
31.51453811398017
 11
404.0334749940255
 21
31.51453811398017
 72
     2
 10
399.8834749940255
 20
31.51453811398017
 40
4.149999999999977
 50
0.0000000000001962
 51
270.0
 73
     1
 97
        1
330
15D2D
 75
     0
 76
     0
 52
45.0
 41
0.65
 77
     0
 78
     1
 53
45.0
 43
0.0
 44
-32.08885297207075
 45
-0.4596194077712559
 46
0.459619407771256
 79
     0
 98
        1
 10
0.0
 20
-32.08885297207075
1001
PHOENIX7010
1002
{
1070
    41
1040
1.0
1002
}
  0
LINE
  5
15CEA
102
{ACAD_REACTORS
330
15D3C
102
}
330
1F
100
AcDbEntity
  8
0
  6
Continuous
 62
     7
370
    50
100
AcDbLine
 10
400.7334749940254
 20
27.36453811398019
 30
0.0
 11
412.7334749940255
 21
27.36453811398019
 31
0.0
1001
PHOENIX7010
1002
{
1070
    41
1040
1.0
1002
}
  0
LINE
  5
15CEB
102
{ACAD_REACTORS
330
15D3C
102
}
330
1F
100
AcDbEntity
  8
0
  6
Continuous
 62
     7
370
    50
100
AcDbLine
 10
412.7334749940255
 20
27.36453811398019
 30
0.0
 11
412.7334749940255
 21
35.16453811398014
 31
0.0
1001
PHOENIX7010
1002
{
1070
    41
1040
1.0
1002
}
  0
LINE
  5
15CEC
102
{ACAD_REACTORS
330
15D3C
102
}
330
1F
100
AcDbEntity
  8
0
  6
Continuous
 62
     7
370
    50
100
AcDbLine
 10
407.4334749940256
 20
28.26453811398017
 30
0.0
 11
407.4334749940256
 21
35.16453811398014
 31
0.0
1001
PHOENIX7010
1002
{
1070
    41
1040
1.0
1002
}
  0
LINE
  5
15CED
102
{ACAD_REACTORS
330
15D3C
102
}
330
1F
100
AcDbEntity
  8
0
  6
Continuous
 62
     7
370
    50
100
AcDbLine
 10
407.4334749940256
 20
35.16453811398014
 30
0.0
 11
400.7334749940254
 21
27.36453811398019
 31
0.0
1001
PHOENIX7010
1002
{
1070
    41
1040
1.0
1002
}
  0
LINE
  5
15CEE
102
{ACAD_REACTORS
330
15D3C
102
}
330
1F
100
AcDbEntity
  8
0
  6
Continuous
 62
     7
370
    50
100
AcDbLine
 10
412.7334749940255
 20
35.16453811398014
 30
0.0
 11
407.4334749940256
 21
28.26453811398017
 31
0.0
1001
PHOENIX7010
1002
{
1070
    41
1040
1.0
1002
}
  0
INSERT
  5
15CEF
102
{ACAD_REACTORS
330
15D3C
102
}
330
1F
100
AcDbEntity
  8
0
  6
Continuous
 62
     1
370
    25
100
AcDbBlockReference
  2
PH_GRPBLK
 10
400.7334749940254
 20
27.36453811398019
 30
0.0
1001
PHOENIX7010
1002
{
1070
    41
1040
1.0
1002
}
  0
MTEXT
  5
15CF0
102
{ACAD_REACTORS
330
15D3D
102
}
330
1F
100
AcDbEntity
  8
0
  6
Continuous
 62
     7
370
    50
100
AcDbMText
 10
381.0842366554657
 20
17.8834606000313
 30
0.0
 40
1.6
 41
0.0
 71
     7
 72
     5
  1
{\fArial|b0|i0|c0|p34;\W1.1;\C1;A Phoenix Mecano Company}
 73
     1
 44
1.0
1001
PHOENIX7010
1002
{
1070
    41
1040
1.0
1002
}
1001
ACAD
1000
MTEXTBEGIN
1070
    73
1070
     1
1070
    44
1040
1.0
1070
    74
1070
     0
1000
MTEXTEND
  0
MTEXT
  5
15CF1
102
{ACAD_XDICTIONARY
360
15D87
102
}
102
{ACAD_REACTORS
330
15D3D
102
}
330
1F
100
AcDbEntity
  8
0
  6
Continuous
 62
     7
370
    50
100
AcDbMText
 10
393.5658807175857
 20
21.46517927327716
 30
0.0
 40
3.7
 41
0.0
 71
     7
 72
     5
  1
{\fArial|b1|i0|c0|p34;\W1.1;BOPLA}
 73
     1
 44
1.135135135135135
1001
PHOENIX7010
1002
{
1070
    41
1040
1.0
1002
}
1001
ACAD
1000
MTEXTBEGIN
1070
    73
1070
     1
1070
    44
1040
1.135135135135135
1070
    74
1070
     0
1000
MTEXTEND
  0
INSERT
  5
15CF2
102
{ACAD_REACTORS
330
15D3D
102
}
330
1F
100
AcDbEntity
  8
0
  6
Continuous
 62
     7
370
    50
100
AcDbBlockReference
  2
PH_GRPBLK
 10
400.7334749940254
 20
27.36453811398019
 30
0.0
1001
PHOENIX7010
1002
{
1070
    41
1040
1.0
1002
}
  0
MTEXT
  5
15CF3
102
{ACAD_REACTORS
330
15D3E
102
}
330
1F
100
AcDbEntity
  8
0
  6
Continuous
 62
     5
370
    35
100
AcDbMText
 10
318.9304981780733
 20
52.18090043987103
 30
0.0
 40
4.0
 41
0.0
 71
     7
 72
     5
  1
{\C7;-}
 73
     1
 44
1.0
1001
PHOENIX7010
1002
{
1070
    41
1040
1.0
1002
}
1001
ACAD
1000
MTEXTBEGIN
1070
    73
1070
     1
1070
    44
1040
1.0
1070
    74
1070
     0
1000
MTEXTEND
  0
MTEXT
  5
15CF4
102
{ACAD_REACTORS
330
15D3E
102
}
330
1F
100
AcDbEntity
  8
0
  6
Continuous
 62
     5
370
    35
100
AcDbMText
 10
318.9304981780733
 20
59.18090043987104
 30
0.0
 40
3.5
 41
0.0
 71
     7
 72
     5
  1
{\C7;Katalogzeichnung/\Q20;Catalogue drawing}
 73
     1
 44
1.0
1001
PHOENIX7010
1002
{
1070
    41
1040
1.0
1002
}
1001
ACAD
1000
MTEXTBEGIN
1070
    73
1070
     1
1070
    44
1040
1.0
1070
    74
1070
     0
1000
MTEXTEND
  0
MTEXT
  5
15CF5
102
{ACAD_REACTORS
330
15D3E
102
}
330
1F
100
AcDbEntity
  8
0
  6
Continuous
 62
     5
370
    35
100
AcDbMText
 10
318.9304981780733
 20
66.18090043987104
 30
0.0
 40
4.0
 41
0.0
 71
     7
 72
     5
  1
{\C7;ART 115 KO}
 73
     1
 44
1.0
1001
PHOENIX7010
1002
{
1070
    41
1040
1.0
1002
}
1001
ACAD
1000
MTEXTBEGIN
1070
    73
1070
     1
1070
    44
1040
1.0
1070
    74
1070
     0
1000
MTEXTEND
  0
MTEXT
  5
15CF6
102
{ACAD_REACTORS
330
15D3E
102
}
330
1F
100
AcDbEntity
  8
0
  6
Continuous
 62
     5
370
    35
100
AcDbMText
 10
340.3074630969179
 20
95.19875800682347
 30
0.0
 40
4.0
 41
0.0
 71
     7
 72
     5
  1
{\C7;1:1}
 73
     1
 44
1.0
1001
PHOENIX7010
1002
{
1070
    41
1040
1.0
1002
}
1001
ACAD
1000
MTEXTBEGIN
1070
    73
1070
     1
1070
    44
1040
1.0
1070
    74
1070
     0
1000
MTEXTEND
  0
MTEXT
  5
15CF7
102
{ACAD_REACTORS
330
15D3E
102
}
330
1F
100
AcDbEntity
  8
0
  6
Continuous
 62
     5
370
    35
100
AcDbMText
 10
319.2942762589885
 20
94.24669079255091
 30
0.0
 40
2.5
 41
0.0
 71
     7
 72
     5
  1
{\C1;Maßstab/\P\Q20;Scale:}
 73
     1
 44
1.0
1001
PHOENIX7010
1002
{
1070
    41
1040
1.0
1002
}
1001
ACAD
1000
MTEXTBEGIN
1070
    73
1070
     1
1070
    44
1040
1.0
1070
    74
1070
     0
1000
MTEXTEND
  0
MTEXT
  5
15CF8
102
{ACAD_REACTORS
330
15D3E
102
}
330
1F
100
AcDbEntity
  8
0
  6
Continuous
 62
     5
370
    35
100
AcDbMText
 10
319.5702130763932
 20
86.57846179300577
 30
0.0
 40
3.0
 41
0.0
 71
     7
 72
     5
  1
Zeichnungs-Nr. / {\Q20;Drawing-No.:}
 73
     1
 44
1.0
1001
PHOENIX7010
1002
{
1070
    41
1040
1.0
1002
}
1001
ACAD
1000
MTEXTBEGIN
1070
    73
1070
     1
1070
    44
1040
1.0
1070
    74
1070
     0
1000
MTEXTEND
  0
MTEXT
  5
15CF9
102
{ACAD_REACTORS
330
15D3E
102
}
330
1F
100
AcDbEntity
  8
0
  6
Continuous
 62
     5
370
    35
100
AcDbMText
 10
340.6810942169352
 20
80.43630467405547
 30
0.0
 40
4.0
 41
0.0
 71
     7
 72
     5
  1
{\C7;3K 5300.279.01}
 73
     1
 44
1.0
1001
PHOENIX7010
1002
{
1070
    41
1040
1.0
1002
}
1001
ACAD
1000
MTEXTBEGIN
1070
    73
1070
     1
1070
    44
1040
1.0
1070
    74
1070
     0
1000
MTEXTEND
  0
MTEXT
  5
15CFA
102
{ACAD_REACTORS
330
15D3E
102
}
330
1F
100
AcDbEntity
  8
0
  6
Continuous
 62
     5
370
    35
100
AcDbMText
 10
318.8800602381664
 20
72.4289616716369
 30
0.0
 40
4.0
 41
0.0
 71
     7
 72
     5
  1
{\C7;Artikel / \Q20;Article:}
 73
     1
 44
1.0
1001
PHOENIX7010
1002
{
1070
    41
1040
1.0
1002
}
1001
ACAD
1000
MTEXTBEGIN
1070
    73
1070
     1
1070
    44
1040
1.0
1070
    74
1070
     0
1000
MTEXTEND
  0
MTEXT
  5
15CFB
102
{ACAD_REACTORS
330
15D3E
102
}
330
1F
100
AcDbEntity
  8
0
  6
Continuous
 62
     5
370
    35
100
AcDbMText
 10
329.5918340418987
 20
15.32304279191066
 30
0.0
 40
2.0
 41
0.0
 71
     7
 72
     5
  1
{\C1;Datum/\P\Q20;Date:}
 73
     1
 44
1.0
1001
PHOENIX7010
1002
{
1070
    41
1040
1.0
1002
}
1001
ACAD
1000
MTEXTBEGIN
1070
    73
1070
     1
1070
    44
1040
1.0
1070
    74
1070
     0
1000
MTEXTEND
  0
MTEXT
  5
15CFC
102
{ACAD_REACTORS
330
15D3E
102
}
330
1F
100
AcDbEntity
  8
0
  6
Continuous
 62
     5
370
    35
100
AcDbMText
 10
316.167758256943
 20
15.32303913053602
 30
0.0
 40
2.0
 41
0.0
 71
     7
 72
     5
  1
{\C1;Ä.Nr/\P\Q20;Alt-No.:}
 73
     1
 44
1.0
1001
PHOENIX7010
1002
{
1070
    41
1040
1.0
1002
}
1001
ACAD
1000
MTEXTBEGIN
1070
    73
1070
     1
1070
    44
1040
1.0
1070
    74
1070
     0
1000
MTEXTEND
  0
MTEXT
  5
15CFD
102
{ACAD_REACTORS
330
15D3E
102
}
330
1F
100
AcDbEntity
  8
0
  6
Continuous
 62
     5
370
    35
100
AcDbMText
 10
342.2178658257174
 20
10.60592166613912
 30
0.0
 40
2.5
 41
0.0
 71
     7
 72
     5
  1
2 802 645
 73
     1
 44
1.0
1001
PHOENIX7010
1002
{
1070
    41
1040
1.0
1002
}
1001
ACAD
1000
MTEXTBEGIN
1070
    73
1070
     1
1070
    44
1040
1.0
1070
    74
1070
     0
1000
MTEXTEND
  0
MTEXT
  5
15CFE
102
{ACAD_REACTORS
330
15D3E
102
}
330
1F
100
AcDbEntity
  8
0
  6
Continuous
 62
     5
370
    35
100
AcDbMText
 10
316.5289912646938
 20
10.49475527098093
 30
0.0
 40
2.5
 41
0.0
 71
     7
 72
     5
  1
DISK:
 73
     1
 44
1.0
1001
PHOENIX7010
1002
{
1070
    41
1040
1.0
1002
}
1001
ACAD
1000
MTEXTBEGIN
1070
    73
1070
     1
1070
    44
1040
1.0
1070
    74
1070
     0
1000
MTEXTEND
  0
MTEXT
  5
15CFF
102
{ACAD_REACTORS
330
15D3E
102
}
330
1F
100
AcDbEntity
  8
0
  6
Continuous
 62
     5
370
    35
100
AcDbMText
 10
342.2178658257174
 20
6.248887523187477
 30
0.0
 40
2.5
 41
0.0
 71
     7
 72
     5
  1
30.11.05 KH
 73
     1
 44
1.0
1001
PHOENIX7010
1002
{
1070
    41
1040
1.0
1002
}
1001
ACAD
1000
MTEXTBEGIN
1070
    73
1070
     1
1070
    44
1040
1.0
1070
    74
1070
     0
1000
MTEXTEND
  0
MTEXT
  5
15D00
102
{ACAD_REACTORS
330
15D3E
102
}
330
1F
100
AcDbEntity
  8
0
  6
Continuous
 62
     5
370
    35
100
AcDbMText
 10
316.5289912646938
 20
6.248887523187477
 30
0.0
 40
2.5
 41
0.0
 71
     7
 72
     5
  1
Datum/{\Q20;Date:}
 73
     1
 44
1.0
1001
PHOENIX7010
1002
{
1070
    41
1040
1.0
1002
}
1001
ACAD
1000
MTEXTBEGIN
1070
    73
1070
     1
1070
    44
1040
1.0
1070
    74
1070
     0
1000
MTEXTEND
  0
LINE
  5
15D01
102
{ACAD_REACTORS
330
15D3E
102
}
330
1F
100
AcDbEntity
  8
0
  6
Continuous
 62
     5
370
    35
100
AcDbLine
 10
314.9999999999998
 20
14.5
 30
0.0
 11
415.0
 21
14.5
 31
0.0
1001
PHOENIX7010
1002
{
1070
    41
1040
1.0
1002
}
  0
LINE
  5
15D02
102
{ACAD_REACTORS
330
15D3E
102
}
330
1F
100
AcDbEntity
  8
0
  6
Continuous
 62
     5
100
AcDbLine
 10
405.4999999999997
 20
92.49999999999989
 30
0.0
 11
405.4999999999997
 21
99.49999999999988
 31
0.0
1001
PHOENIX7010
1002
{
1070
    62
1070
     5
1070
    41
1040
1.0
1002
}
  0
LINE
  5
15D03
102
{ACAD_REACTORS
330
15D3E
102
}
330
1F
100
AcDbEntity
  8
0
  6
ACAD_ISO04W100
 62
     1
 48
0.1451612903225806
100
AcDbLine
 10
410.4999999999997
 20
91.49999999999989
 30
0.0
 11
410.4999999999997
 21
100.4999999999999
 31
0.0
1001
PHOENIX7010
1002
{
1070
    62
1070
     1
1070
    41
1040
1.0
1002
}
  0
CIRCLE
  5
15D04
102
{ACAD_REACTORS
330
15D3E
102
}
330
1F
100
AcDbEntity
  8
0
  6
Continuous
 62
     5
100
AcDbCircle
 10
410.4999999999997
 20
95.99999999999988
 30
0.0
 40
1.75
1001
PHOENIX7010
1002
{
1070
    62
1070
     5
1070
    41
1040
1.0
1002
}
  0
CIRCLE
  5
15D05
102
{ACAD_REACTORS
330
15D3E
102
}
330
1F
100
AcDbEntity
  8
0
  6
Continuous
 62
     5
100
AcDbCircle
 10
410.4999999999997
 20
95.99999999999988
 30
0.0
 40
3.5
1001
PHOENIX7010
1002
{
1070
    62
1070
     5
1070
    41
1040
1.0
1002
}
  0
LINE
  5
15D06
102
{ACAD_REACTORS
330
15D3E
102
}
330
1F
100
AcDbEntity
  8
0
  6
Continuous
 62
     5
100
AcDbLine
 10
398.4999999999998
 20
94.24999999999988
 30
0.0
 11
398.4999999999998
 21
97.74999999999989
 31
0.0
1001
PHOENIX7010
1002
{
1070
    62
1070
     5
1070
    41
1040
1.0
1002
}
  0
LINE
  5
15D07
102
{ACAD_REACTORS
330
15D3E
102
}
330
1F
100
AcDbEntity
  8
0
  6
ACAD_ISO04W100
 62
     1
 48
0.282258064516129
100
AcDbLine
 10
414.9999999999997
 20
95.99999999999988
 30
0.0
 11
397.4999999999998
 21
95.99999999999988
 31
0.0
1001
PHOENIX7010
1002
{
1070
    62
1070
     1
1070
    41
1040
1.0
1002
}
  0
LINE
  5
15D08
102
{ACAD_REACTORS
330
15D3E
102
}
330
1F
100
AcDbEntity
  8
0
  6
Continuous
 62
     5
100
AcDbLine
 10
405.4999999999997
 20
92.49999999999989
 30
0.0
 11
398.4999999999998
 21
94.24999999999988
 31
0.0
1001
PHOENIX7010
1002
{
1070
    62
1070
     5
1070
    41
1040
1.0
1002
}
  0
LINE
  5
15D09
102
{ACAD_REACTORS
330
15D3E
102
}
330
1F
100
AcDbEntity
  8
0
  6
Continuous
 62
     5
100
AcDbLine
 10
405.4999999999997
 20
99.49999999999988
 30
0.0
 11
398.4999999999998
 21
97.74999999999989
 31
0.0
1001
PHOENIX7010
1002
{
1070
    62
1070
     5
1070
    41
1040
1.0
1002
}
  0
ARC
  5
15D0A
102
{ACAD_REACTORS
330
15D3E
102
}
330
1F
100
AcDbEntity
  8
0
  6
Continuous
 62
     5
100
AcDbCircle
 10
317.4999999999998
 20
88.99999999999989
 30
0.0
 40
2.5
100
AcDbArc
 50
90.0
 51
180.0
1001
PHOENIX7010
1002
{
1070
    62
1070
     5
1070
    41
1040
1.0
1002
}
  0
ARC
  5
15D0B
102
{ACAD_REACTORS
330
15D3E
102
}
330
1F
100
AcDbEntity
  8
0
  6
Continuous
 62
     5
100
AcDbCircle
 10
317.4999999999998
 20
99.99999999999989
 30
0.0
 40
2.5
100
AcDbArc
 50
90.0
 51
180.0
1001
PHOENIX7010
1002
{
1070
    62
1070
     5
1070
    41
1040
1.0
1002
}
  0
LINE
  5
15D0C
102
{ACAD_REACTORS
330
15D3E
102
}
330
1F
100
AcDbEntity
  8
0
  6
Continuous
 62
     5
100
AcDbLine
 10
415.0
 20
91.49999999999989
 30
0.0
 11
317.4999999999998
 21
91.49999999999989
 31
0.0
1001
PHOENIX7010
1002
{
1070
    62
1070
     5
1070
    41
1040
1.0
1002
}
  0
LINE
  5
15D0D
102
{ACAD_REACTORS
330
15D3E
102
}
330
1F
100
AcDbEntity
  8
0
  6
Continuous
 62
     5
100
AcDbLine
 10
415.0
 20
102.4999999999999
 30
0.0
 11
317.4999999999998
 21
102.4999999999999
 31
0.0
1001
PHOENIX7010
1002
{
1070
    62
1070
     5
1070
    41
1040
1.0
1002
}
  0
LINE
  5
15D0E
102
{ACAD_REACTORS
330
15D3E
102
}
330
1F
100
AcDbEntity
  8
0
  6
Continuous
 62
     5
100
AcDbLine
 10
350.0
 20
48.0
 30
0.0
 11
350.0
 21
14.5
 31
0.0
1001
PHOENIX7010
1002
{
1070
    62
1070
     5
1070
    41
1040
1.0
1002
}
  0
TEXT
  5
15D0F
102
{ACAD_REACTORS
330
15D3E
102
}
330
1F
100
AcDbEntity
  8
0
  6
Continuous
 62
     1
100
AcDbText
 10
328.9999996997324
 20
42.74999981501344
 30
0.0
 40
2.0
  1
-
 41
1.5
100
AcDbText
1001
PHOENIX7010
1002
{
1070
    62
1070
     1
1070
    41
1040
1.0
1002
}
  0
TEXT
  5
15D10
102
{ACAD_REACTORS
330
15D3E
102
}
330
1F
100
AcDbEntity
  8
0
  6
Continuous
 62
     1
100
AcDbText
 10
328.9999996997324
 20
40.24999981501344
 30
0.0
 40
2.0
  1
-
 41
1.5
100
AcDbText
1001
PHOENIX7010
1002
{
1070
    62
1070
     1
1070
    41
1040
1.0
1002
}
  0
TEXT
  5
15D11
102
{ACAD_REACTORS
330
15D3E
102
}
330
1F
100
AcDbEntity
  8
0
  6
Continuous
 62
     1
100
AcDbText
 10
328.9999996997324
 20
45.24999981501344
 30
0.0
 40
2.0
  1
-
 41
1.5
100
AcDbText
1001
PHOENIX7010
1002
{
1070
    62
1070
     1
1070
    41
1040
1.0
1002
}
  0
TEXT
  5
15D12
102
{ACAD_REACTORS
330
15D3E
102
}
330
1F
100
AcDbEntity
  8
0
  6
Continuous
 62
     1
100
AcDbText
 10
315.9999996997324
 20
42.74999981501344
 30
0.0
 40
2.0
  1
-
 41
1.5
100
AcDbText
1001
PHOENIX7010
1002
{
1070
    62
1070
     1
1070
    41
1040
1.0
1002
}
  0
TEXT
  5
15D13
102
{ACAD_REACTORS
330
15D3E
102
}
330
1F
100
AcDbEntity
  8
0
  6
Continuous
 62
     1
100
AcDbText
 10
315.9999996997324
 20
40.24999981501344
 30
0.0
 40
2.0
  1
-
 41
1.5
100
AcDbText
1001
PHOENIX7010
1002
{
1070
    62
1070
     1
1070
    41
1040
1.0
1002
}
  0
TEXT
  5
15D14
102
{ACAD_REACTORS
330
15D3E
102
}
330
1F
100
AcDbEntity
  8
0
  6
Continuous
 62
     1
100
AcDbText
 10
315.9999996997324
 20
45.24999981501344
 30
0.0
 40
2.0
  1
-
 41
1.5
100
AcDbText
1001
PHOENIX7010
1002
{
1070
    62
1070
     1
1070
    41
1040
1.0
1002
}
  0
ARC
  5
15D15
102
{ACAD_REACTORS
330
15D3E
102
}
330
1F
100
AcDbEntity
  8
0
  6
Continuous
 62
     5
100
AcDbCircle
 10
317.4999999999998
 20
45.49999999999999
 30
0.0
 40
2.5
100
AcDbArc
 50
90.0
 51
180.0
1001
PHOENIX7010
1002
{
1070
    62
1070
     5
1070
    41
1040
1.0
1002
}
  0
ARC
  5
15D16
102
{ACAD_REACTORS
330
15D3E
102
}
330
1F
100
AcDbEntity
  8
0
  6
Continuous
 62
     5
100
AcDbCircle
 10
317.4999999999998
 20
76.0
 30
0.0
 40
2.5
100
AcDbArc
 50
90.0
 51
180.0
1001
PHOENIX7010
1002
{
1070
    62
1070
     5
1070
    41
1040
1.0
1002
}
  0
TEXT
  5
15D17
102
{ACAD_REACTORS
330
15D3E
102
}
330
1F
100
AcDbEntity
  8
0
  6
Continuous
 62
     1
100
AcDbText
 10
328.9999996997324
 20
25.24999981501344
 30
0.0
 40
2.0
  1
-
 41
1.5
100
AcDbText
1001
PHOENIX7010
1002
{
1070
    62
1070
     1
1070
    41
1040
1.0
1002
}
  0
TEXT
  5
15D18
102
{ACAD_REACTORS
330
15D3E
102
}
330
1F
100
AcDbEntity
  8
0
  6
Continuous
 62
     1
100
AcDbText
 10
328.9999996997324
 20
22.74999981501344
 30
0.0
 40
2.0
  1
-
 41
1.5
100
AcDbText
1001
PHOENIX7010
1002
{
1070
    62
1070
     1
1070
    41
1040
1.0
1002
}
  0
TEXT
  5
15D19
102
{ACAD_REACTORS
330
15D3E
102
}
330
1F
100
AcDbEntity
  8
0
  6
Continuous
 62
     1
100
AcDbText
 10
328.9999996997324
 20
30.24999981501344
 30
0.0
 40
2.0
  1
-
 41
1.5
100
AcDbText
1001
PHOENIX7010
1002
{
1070
    62
1070
     1
1070
    41
1040
1.0
1002
}
  0
TEXT
  5
15D1A
102
{ACAD_REACTORS
330
15D3E
102
}
330
1F
100
AcDbEntity
  8
0
  6
Continuous
 62
     1
100
AcDbText
 10
328.9999996997324
 20
27.74999981501344
 30
0.0
 40
2.0
  1
-
 41
1.5
100
AcDbText
1001
PHOENIX7010
1002
{
1070
    62
1070
     1
1070
    41
1040
1.0
1002
}
  0
TEXT
  5
15D1B
102
{ACAD_REACTORS
330
15D3E
102
}
330
1F
100
AcDbEntity
  8
0
  6
Continuous
 62
     1
100
AcDbText
 10
328.9999996997324
 20
32.74999981501344
 30
0.0
 40
2.0
  1
-
 41
1.5
100
AcDbText
1001
PHOENIX7010
1002
{
1070
    62
1070
     1
1070
    41
1040
1.0
1002
}
  0
TEXT
  5
15D1C
102
{ACAD_REACTORS
330
15D3E
102
}
330
1F
100
AcDbEntity
  8
0
  6
Continuous
 62
     1
100
AcDbText
 10
328.9999996997324
 20
35.24999981501344
 30
0.0
 40
2.0
  1
-
 41
1.5
100
AcDbText
1001
PHOENIX7010
1002
{
1070
    62
1070
     1
1070
    41
1040
1.0
1002
}
  0
TEXT
  5
15D1D
102
{ACAD_REACTORS
330
15D3E
102
}
330
1F
100
AcDbEntity
  8
0
  6
Continuous
 62
     1
100
AcDbText
 10
328.9999996997324
 20
37.74999981501344
 30
0.0
 40
2.0
  1
-
 41
1.5
100
AcDbText
1001
PHOENIX7010
1002
{
1070
    62
1070
     1
1070
    41
1040
1.0
1002
}
  0
TEXT
  5
15D1E
102
{ACAD_REACTORS
330
15D3E
102
}
330
1F
100
AcDbEntity
  8
0
  6
Continuous
 62
     1
100
AcDbText
 10
315.9999996997324
 20
25.24999981501344
 30
0.0
 40
2.0
  1
-
 41
1.5
100
AcDbText
1001
PHOENIX7010
1002
{
1070
    62
1070
     1
1070
    41
1040
1.0
1002
}
  0
TEXT
  5
15D1F
102
{ACAD_REACTORS
330
15D3E
102
}
330
1F
100
AcDbEntity
  8
0
  6
Continuous
 62
     1
100
AcDbText
 10
315.9999996997324
 20
22.74999981501344
 30
0.0
 40
2.0
  1
-
 41
1.5
100
AcDbText
1001
PHOENIX7010
1002
{
1070
    62
1070
     1
1070
    41
1040
1.0
1002
}
  0
TEXT
  5
15D20
102
{ACAD_REACTORS
330
15D3E
102
}
330
1F
100
AcDbEntity
  8
0
  6
Continuous
 62
     1
100
AcDbText
 10
315.9999996997324
 20
30.24999981501344
 30
0.0
 40
2.0
  1
-
 41
1.5
100
AcDbText
1001
PHOENIX7010
1002
{
1070
    62
1070
     1
1070
    41
1040
1.0
1002
}
  0
TEXT
  5
15D21
102
{ACAD_REACTORS
330
15D3E
102
}
330
1F
100
AcDbEntity
  8
0
  6
Continuous
 62
     1
100
AcDbText
 10
315.9999996997324
 20
27.74999981501344
 30
0.0
 40
2.0
  1
-
 41
1.5
100
AcDbText
1001
PHOENIX7010
1002
{
1070
    62
1070
     1
1070
    41
1040
1.0
1002
}
  0
TEXT
  5
15D22
102
{ACAD_REACTORS
330
15D3E
102
}
330
1F
100
AcDbEntity
  8
0
  6
Continuous
 62
     1
100
AcDbText
 10
315.9999996997324
 20
32.74999981501344
 30
0.0
 40
2.0
  1
-
 41
1.5
100
AcDbText
1001
PHOENIX7010
1002
{
1070
    62
1070
     1
1070
    41
1040
1.0
1002
}
  0
TEXT
  5
15D23
102
{ACAD_REACTORS
330
15D3E
102
}
330
1F
100
AcDbEntity
  8
0
  6
Continuous
 62
     1
100
AcDbText
 10
315.9999996997324
 20
35.24999981501344
 30
0.0
 40
2.0
  1
-
 41
1.5
100
AcDbText
1001
PHOENIX7010
1002
{
1070
    62
1070
     1
1070
    41
1040
1.0
1002
}
  0
TEXT
  5
15D24
102
{ACAD_REACTORS
330
15D3E
102
}
330
1F
100
AcDbEntity
  8
0
  6
Continuous
 62
     1
100
AcDbText
 10
315.9999996997324
 20
37.74999981501344
 30
0.0
 40
2.0
  1
-
 41
1.5
100
AcDbText
1001
PHOENIX7010
1002
{
1070
    62
1070
     1
1070
    41
1040
1.0
1002
}
  0
LINE
  5
15D25
102
{ACAD_REACTORS
330
15D3E
102
}
330
1F
100
AcDbEntity
  8
0
  6
Continuous
 62
     1
100
AcDbLine
 10
327.9999999999998
 20
48.0
 30
0.0
 11
327.9999999999998
 21
14.5
 31
0.0
1001
PHOENIX7010
1002
{
1070
    62
1070
     1
1070
    41
1040
1.0
1002
}
  0
LINE
  5
15D26
102
{ACAD_REACTORS
330
15D3E
102
}
330
1F
100
AcDbEntity
  8
0
  6
Continuous
 62
     1
100
AcDbLine
 10
314.9999999999998
 20
21.5
 30
0.0
 11
350.0
 21
21.5
 31
0.0
1001
PHOENIX7010
1002
{
1070
    62
1070
     1
1070
    41
1040
1.0
1002
}
  0
LINE
  5
15D27
102
{ACAD_REACTORS
330
15D3E
102
}
330
1F
100
AcDbEntity
  8
0
  6
Continuous
 62
     5
100
AcDbLine
 10
415.0
 20
78.5
 30
0.0
 11
317.4999999999998
 21
78.5
 31
0.0
1001
PHOENIX7010
1002
{
1070
    62
1070
     5
1070
    41
1040
1.0
1002
}
  0
LINE
  5
15D28
102
{ACAD_REACTORS
330
15D3E
102
}
330
1F
100
AcDbEntity
  8
0
  6
Continuous
 62
     5
100
AcDbLine
 10
415.0
 20
48.0
 30
0.0
 11
317.4999999999998
 21
48.0
 31
0.0
1001
PHOENIX7010
1002
{
1070
    62
1070
     5
1070
    41
1040
1.0
1002
}
  0
LINE
  5
15D29
102
{ACAD_REACTORS
330
15D3E
102
}
330
1F
100
AcDbEntity
  8
0
  6
Continuous
 62
     5
100
AcDbLine
 10
314.9999999999998
 20
99.99999999999989
 30
0.0
 11
314.9999999999998
 21
5.0
 31
0.0
1001
PHOENIX7010
1002
{
1070
    62
1070
     5
1070
    41
1040
1.0
1002
}
  0
INSERT
  5
15D2A
102
{ACAD_REACTORS
330
15D3E
102
}
330
1F
100
AcDbEntity
  8
0
  6
Continuous
 62
     5
370
    35
100
AcDbBlockReference
  2
PH_GRPBLK
 10
314.9999999999998
 20
14.5
 30
0.0
1001
PHOENIX7010
1002
{
1070
    41
1040
1.0
1002
}
  0
LWPOLYLINE
  5
15D2C
102
{ACAD_REACTORS
330
15CE8
102
}
330
1F
100
AcDbEntity
  8
0
  6
Continuous
 62
     7
 60
     1
370
    50
100
AcDbPolyline
 90
        5
 70
     1
 43
0.0
 10
407.4334749940256
 20
35.16453811398026
 10
400.7334749940254
 20
27.36453811398019
 10
412.7334749940255
 20
27.36453811398019
 10
412.7334749940255
 20
35.16453811398014
 10
407.4334749940256
 20
28.26453811398028
1001
PHOENIX7010
1002
{
1070
    41
1040
1.0
1002
}
  0
LWPOLYLINE
  5
15D2D
102
{ACAD_REACTORS
330
15CE9
102
}
330
1F
100
AcDbEntity
  8
0
  6
Continuous
 62
     7
 60
     1
370
    50
100
AcDbPolyline
 90
        3
 70
     1
 43
0.0
 10
399.8834749940255
 20
27.36453811398019
 10
399.8834749940255
 20
31.51453811398017
 10
404.0334749940255
 20
31.51453811398017
 42
2.414213562373094
1001
PHOENIX7010
1002
{
1070
    41
1040
1.0
1002
}
  0
LINE
  5
15D5F
102
{ACAD_REACTORS
330
15D6E
102
}
330
1F
100
AcDbEntity
  8
0
  6
Continuous
 62
     1
100
AcDbLine
 10
230.0
 20
5.0
 30
0.0
 11
230.0
 21
1.0
 31
0.0
1001
PHOENIX7010
1002
{
1070
    62
1070
     1
1070
    41
1040
1.0
1002
}
  0
LINE
  5
15D60
102
{ACAD_REACTORS
330
15D6E
102
}
330
1F
100
AcDbEntity
  8
0
  6
Continuous
 62
     3
100
AcDbLine
 10
415.0
 20
5.0
 30
0.0
 11
20.0
 21
5.0
 31
0.0
1001
PHOENIX7010
1002
{
1070
    62
1070
     3
1070
    41
1040
1.0
1002
}
  0
LINE
  5
15D61
102
{ACAD_REACTORS
330
15D6E
102
}
330
1F
100
AcDbEntity
  8
0
  6
Continuous
 62
     1
100
AcDbLine
 10
125.0
 20
296.0
 30
0.0
 11
125.0
 21
292.0
 31
0.0
1001
PHOENIX7010
1002
{
1070
    62
1070
     1
1070
    41
1040
1.0
1002
}
  0
LINE
  5
15D62
102
{ACAD_REACTORS
330
15D6E
102
}
330
1F
100
AcDbEntity
  8
0
  6
Continuous
 62
     1
100
AcDbLine
 10
230.0
 20
296.0
 30
0.0
 11
230.0
 21
292.0
 31
0.0
1001
PHOENIX7010
1002
{
1070
    62
1070
     1
1070
    41
1040
1.0
1002
}
  0
LINE
  5
15D63
102
{ACAD_REACTORS
330
15D6E
102
}
330
1F
100
AcDbEntity
  8
0
  6
Continuous
 62
     1
100
AcDbLine
 10
125.0
 20
5.0
 30
0.0
 11
125.0
 21
1.0
 31
0.0
1001
PHOENIX7010
1002
{
1070
    62
1070
     1
1070
    41
1040
1.0
1002
}
  0
LINE
  5
15D64
102
{ACAD_REACTORS
330
15D6E
102
}
330
1F
100
AcDbEntity
  8
0
  6
Continuous
 62
     1
100
AcDbLine
 10
419.0
 20
1.0
 30
0.0
 11
1.0
 21
1.0
 31
0.0
1001
PHOENIX7010
1002
{
1070
    62
1070
     1
1070
    41
1040
1.0
1002
}
  0
LINE
  5
15D65
102
{ACAD_REACTORS
330
15D6E
102
}
330
1F
100
AcDbEntity
  8
0
  6
Continuous
 62
     1
100
AcDbLine
 10
1.0
 20
1.0
 30
0.0
 11
1.0
 21
296.0
 31
0.0
1001
PHOENIX7010
1002
{
1070
    62
1070
     1
1070
    41
1040
1.0
1002
}
  0
LINE
  5
15D66
102
{ACAD_REACTORS
330
15D6E
102
}
330
1F
100
AcDbEntity
  8
0
  6
Continuous
 62
     1
100
AcDbLine
 10
1.0
 20
296.0
 30
0.0
 11
419.0
 21
296.0
 31
0.0
1001
PHOENIX7010
1002
{
1070
    62
1070
     1
1070
    41
1040
1.0
1002
}
  0
LINE
  5
15D67
102
{ACAD_REACTORS
330
15D6E
102
}
330
1F
100
AcDbEntity
  8
0
  6
Continuous
 62
     1
100
AcDbLine
 10
419.0
 20
296.0
 30
0.0
 11
419.0
 21
1.0
 31
0.0
1001
PHOENIX7010
1002
{
1070
    62
1070
     1
1070
    41
1040
1.0
1002
}
  0
LINE
  5
15D68
102
{ACAD_REACTORS
330
15D6E
102
}
330
1F
100
AcDbEntity
  8
0
  6
Continuous
 62
     3
100
AcDbLine
 10
20.0
 20
5.0
 30
0.0
 11
20.0
 21
292.0
 31
0.0
1001
PHOENIX7010
1002
{
1070
    62
1070
     3
1070
    41
1040
1.0
1002
}
  0
LINE
  5
15D69
102
{ACAD_REACTORS
330
15D6E
102
}
330
1F
100
AcDbEntity
  8
0
  6
Continuous
 62
     3
100
AcDbLine
 10
20.0
 20
292.0
 30
0.0
 11
415.0
 21
292.0
 31
0.0
1001
PHOENIX7010
1002
{
1070
    62
1070
     3
1070
    41
1040
1.0
1002
}
  0
LINE
  5
15D6A
102
{ACAD_REACTORS
330
15D6E
102
}
330
1F
100
AcDbEntity
  8
0
  6
Continuous
 62
     3
100
AcDbLine
 10
415.0
 20
292.0
 30
0.0
 11
415.0
 21
5.0
 31
0.0
1001
PHOENIX7010
1002
{
1070
    62
1070
     3
1070
    41
1040
1.0
1002
}
  0
MTEXT
  5
15D6B
102
{ACAD_REACTORS
330
15D6E
102
}
330
1F
100
AcDbEntity
  8
0
  6
Continuous
 62
     7
370
    50
100
AcDbMText
 10
19.70248718641096
 20
55.3935120791333
 30
0.0
 40
2.0
 41
0.0
 71
     7
 72
     5
  1
{\T1.1;\C1;"Schutzvermerk nach DIN ISO 16016 beachten" \Q20;"Please pay attention to copyright note DIN ISO 16016"}
 11
0.0000000000000002
 21
1.0
 31
0.0
 73
     1
 44
1.0
1001
PHOENIX7010
1002
{
1070
    41
1040
1.0
1002
}
1001
ACAD
1000
MTEXTBEGIN
1070
    73
1070
     1
1070
    44
1040
1.0
1070
    74
1070
     0
1000
MTEXTEND
  0
INSERT
  5
15D6C
102
{ACAD_REACTORS
330
15D6E
102
}
330
1F
100
AcDbEntity
  8
0
  6
Continuous
 62
     1
100
AcDbBlockReference
  2
PH_GRPBLK
 10
230.0
 20
5.0
 30
0.0
1001
PHOENIX7010
1002
{
1070
    41
1040
1.0
1002
}
  0
ENDSEC
  0
SECTION
  2
OBJECTS
  0
DICTIONARY
  5
C
330
0
100
AcDbDictionary
281
     1
  3
ACAD_COLOR
350
376D
  3
ACAD_GROUP
350
D
  3
ACAD_LAYOUT
350
1A
  3
ACAD_MATERIAL
350
376C
  3
ACAD_MLEADERSTYLE
350
15B01
  3
ACAD_MLINESTYLE
350
17
  3
ACAD_PLOTSETTINGS
350
19
  3
ACAD_PLOTSTYLENAME
350
E
  3
ACAD_SCALELIST
350
15AEF
  3
ACAD_TABLESTYLE
350
376E
  3
ACAD_VISUALSTYLE
350
15ADB
  3
ACDB_RECOMPOSE_DATA
350
15D89
  3
AcDbVariableDictionary
350
3761
  3
DWGPROPS
350
15D8A
  3
PH_OBJREACTOR_DICT
350
49
  3
PH_ROOTGROUP_DICT
350
4A
  3
PH_VARS
350
3772
  0
DICTIONARY
  5
15B06
330
2
100
AcDbDictionary
280
     1
281
     1
  3
ACAD_LAYERSTATES
360
15B07
  0
DICTIONARY
  5
15D43
330
10
100
AcDbDictionary
280
     1
281
     1
  3
ADSK_XREC_LAYER_RECONCILED
360
15D44
  0
DICTIONARY
  5
15D45
330
B21
100
AcDbDictionary
280
     1
281
     1
  3
ADSK_XREC_LAYER_RECONCILED
360
15D46
  0
DICTIONARY
  5
4813
330
1F
100
AcDbDictionary
280
     1
281
     1
  3
ACAD_SORTENTS
360
4814
  0
DICTIONARY
  5
15D87
330
15CF1
100
AcDbDictionary
280
     1
281
     1
  3
ACAD_MTEXT_2008_RT
360
15D88
  0
DICTIONARY
  5
376D
102
{ACAD_REACTORS
330
C
102
}
330
C
100
AcDbDictionary
281
     1
  0
DICTIONARY
  5
D
102
{ACAD_REACTORS
330
C
102
}
330
C
100
AcDbDictionary
281
     1
  3
*A1
350
9D8
  3
*A10
350
3A6C
  3
*A11
350
3A6D
  3
*A12
350
3A6E
  3
*A13
350
3A6F
  3
*A14
350
3A70
  3
*A15
350
3A71
  3
*A16
350
1460E
  3
*A17
350
15720
  3
*A2
350
E1EF
  3
*A3
350
E497
  3
*A4
350
12A97
  3
*A5
350
12BE0
  3
*A6
350
25B3
  3
*A7
350
3A69
  3
*A8
350
3A6A
  3
*A9
350
3A6B
  0
DICTIONARY
  5
1A
102
{ACAD_REACTORS
330
C
102
}
330
C
100
AcDbDictionary
281
     1
  3
Layout1
350
1E
  3
Layout2
350
26
  3
Model
350
22
  0
DICTIONARY
  5
376C
102
{ACAD_REACTORS
330
C
102
}
330
C
100
AcDbDictionary
281
     1
  3
ByBlock
350
15ACB
  3
ByLayer
350
15AC3
  3
Global
350
15AD3
  0
DICTIONARY
  5
15B01
102
{ACAD_REACTORS
330
C
102
}
330
C
100
AcDbDictionary
281
     1
  3
Standard
350
15B02
  0
DICTIONARY
  5
17
102
{ACAD_REACTORS
330
C
102
}
330
C
100
AcDbDictionary
281
     1
  3
Standard
350
18
  0
DICTIONARY
  5
19
102
{ACAD_REACTORS
330
C
102
}
330
C
100
AcDbDictionary
281
     1
  3
A3_Randlos
350
3A72
  0
ACDBDICTIONARYWDFLT
  5
E
102
{ACAD_REACTORS
330
C
102
}
330
C
100
AcDbDictionary
281
     1
  3
Normal
350
F
100
AcDbDictionaryWithDefault
340
F
  0
DICTIONARY
  5
15AEF
102
{ACAD_REACTORS
330
C
102
}
330
C
100
AcDbDictionary
281
     1
  3
A0
350
15AF0
  3
A1
350
15AF1
  3
A2
350
15AF2
  3
A3
350
15AF3
  3
A4
350
15AF4
  3
A5
350
15AF5
  3
A6
350
15AF6
  3
A7
350
15AF7
  3
A8
350
15AF8
  3
A9
350
15AF9
  3
B0
350
15AFA
  3
B1
350
15AFB
  3
B2
350
15AFC
  3
B3
350
15AFD
  3
B4
350
15AFE
  3
B5
350
15AFF
  3
B6
350
15B00
  0
DICTIONARY
  5
376E
102
{ACAD_REACTORS
330
C
102
}
330
C
100
AcDbDictionary
281
     1
  3
Standard
350
376F
  0
DICTIONARY
  5
15ADB
102
{ACAD_REACTORS
330
C
102
}
330
C
100
AcDbDictionary
281
     1
  3
2dWireframe
350
15AE1
  3
3D Hidden
350
15AE3
  3
3dWireframe
350
15AE2
  3
Basic
350
15AE0
  3
Brighten
350
15AE7
  3
ColorChange
350
15AEB
  3
Conceptual
350
15AE4
  3
Dim
350
15AE6
  3
EdgeColorOff
350
15AEE
  3
Facepattern
350
15AEA
  3
Flat
350
15ADC
  3
FlatWithEdges
350
15ADD
  3
Gouraud
350
15ADE
  3
GouraudWithEdges
350
15ADF
  3
JitterOff
350
15AEC
  3
Linepattern
350
15AE9
  3
OverhangOff
350
15AED
  3
Realistic
350
15AE5
  3
Thicken
350
15AE8
  0
XRECORD
  5
15D89
102
{ACAD_REACTORS
330
C
102
}
330
C
100
AcDbXrecord
280
     1
 90
        1
330
376F
330
15CF1
  0
DICTIONARY
  5
3761
102
{ACAD_REACTORS
330
C
102
}
330
C
100
AcDbDictionary
281
     1
  3
CANNOSCALE
350
15D55
  3
CMLEADERSTYLE
350
15D53
  3
CTABLESTYLE
350
3774
  3
DIMASSOC
350
3762
  3
INDEXCTL
350
15D83
  3
LAYEREVAL
350
15D57
  3
LAYERNOTIFY
350
15D58
  3
LIGHTINGUNITS
350
15D56
  3
MSLTSCALE
350
15D54
  3
SORTENTS
350
15D82
  3
XCLIPFRAME
350
15D84
  0
XRECORD
  5
15D8A
102
{ACAD_REACTORS
330
C
102
}
330
C
100
AcDbXrecord
280
     1
  1
DWGPROPS COOKIE
  2

  3

  4

  6

  7

  8
kleemann
  9

300
=
301
=
302
=
303
=
304
=
305
=
306
=
307
=
308
=
309
=
 40
0.4379514699074074
 41
2453705.353824502
 42
2456898.554352118
  1

 90
        0
  0
DICTIONARY
  5
49
102
{ACAD_REACTORS
330
C
102
}
330
C
100
AcDbDictionary
281
     1
  3
*A1
350
988E
  3
*A10
350
12739
  3
*A11
350
9890
  3
*A12
350
145E0
  3
*A13
350
A496
  3
*A14
350
145E1
  3
*A15
350
C539
  3
*A16
350
A497
  3
*A17
350
A97D
  3
*A18
350
A97E
  3
*A19
350
C538
  3
*A2
350
D677
  3
*A20
350
E181
  3
*A21
350
145DF
  3
*A22
350
CD7B
  3
*A23
350
CD7C
  3
*A24
350
CD7D
  3
*A25
350
D675
  3
*A26
350
D676
  3
*A3
350
E180
  3
*A4
350
A495
  3
*A5
350
E182
  3
*A6
350
988F
  3
*A7
350
113E1
  3
*A8
350
113E2
  3
*A9
350
12738
  0
DICTIONARY
  5
4A
102
{ACAD_REACTORS
330
C
102
}
330
C
100
AcDbDictionary
281
     1
  3
$PH$AAAHSK_E
350
15D36
  3
$PH$AAAI3H
350
15D6D
  3
PH_GRPMEMBERS
350
4815
  0
PH_VARS
  5
3772
102
{ACAD_REACTORS
330
C
102
}
330
C
  0
DICTIONARY
  5
15B07
102
{ACAD_REACTORS
330
15B06
102
}
330
15B06
100
AcDbDictionary
281
     1
  0
XRECORD
  5
15D44
102
{ACAD_REACTORS
330
15D43
102
}
330
15D43
100
AcDbXrecord
280
     1
290
     1
  0
XRECORD
  5
15D46
102
{ACAD_REACTORS
330
15D45
102
}
330
15D45
100
AcDbXrecord
280
     1
290
     1
  0
SORTENTSTABLE
  5
4814
102
{ACAD_REACTORS
330
4813
102
}
330
4813
100
AcDbSortentsTable
330
1F
331
42A7
  5
42A8
331
CDD5
  5
D69C
331
431D
  5
4320
331
4319
  5
431C
331
42DE
  5
42E1
331
42DA
  5
42DD
331
4315
  5
4318
331
4395
  5
4398
331
4354
  5
4357
331
4311
  5
4314
331
4391
  5
4394
331
4350
  5
4353
331
438D
  5
4390
331
4389
  5
438C
331
42D6
  5
42D9
331
42D2
  5
42D5
331
430D
  5
4310
331
434C
  5
434F
331
42CE
  5
42D1
331
4309
  5
430C
331
4348
  5
434B
331
42CA
  5
42CD
331
4344
  5
4347
331
4385
  5
4388
331
4305
  5
4308
331
4340
  5
4343
331
4381
  5
4384
331
4301
  5
4304
331
437D
  5
4380
331
45E3
  5
45E6
331
4379
  5
437C
331
42C6
  5
42C9
331
433C
  5
433F
331
42FD
  5
4300
331
42C2
  5
42C4
331
D69C
  5
E339
331
42BE
  5
42C0
331
4338
  5
433B
331
42F9
  5
42FC
331
4334
  5
4337
331
45DF
  5
45E2
331
4375
  5
4378
331
42F5
  5
42F8
331
42BA
  5
42BC
331
4330
  5
4333
331
45DB
  5
45DE
331
4371
  5
4374
331
42F1
  5
42F4
331
45D7
  5
45DA
331
436D
  5
4370
331
45D3
  5
45D6
331
4369
  5
436C
331
43A8
  5
45CE
331
42B6
  5
42B8
331
432C
  5
432F
331
42ED
  5
42F0
331
42B2
  5
42B4
331
42AE
  5
42B0
331
4328
  5
432B
331
42E9
  5
42EC
331
4324
  5
4327
331
43A4
  5
43A8
331
45CF
  5
45D2
331
4365
  5
4368
331
42E5
  5
42E8
331
42AA
  5
42AC
331
4361
  5
4364
331
43A0
  5
43A3
331
42E1
  5
42E4
331
439C
  5
439F
331
435D
  5
4360
331
4359
  5
435C
331
4398
  5
439B
331
431C
  5
431F
331
4357
  5
435A
331
4318
  5
431B
331
42DD
  5
42E0
331
4353
  5
4356
331
4394
  5
4397
331
4314
  5
4317
331
42D9
  5
42DC
331
4390
  5
4393
331
4310
  5
4313
331
88B6
  5
98B5
331
438C
  5
438F
331
4388
  5
438B
331
434F
  5
4352
331
42D5
  5
42D8
331
434B
  5
434E
331
430C
  5
430F
331
42D1
  5
42D4
331
4347
  5
434A
331
4308
  5
430B
331
42CD
  5
42D0
331
4343
  5
4346
331
4384
  5
4387
331
4304
  5
4307
331
42C9
  5
42CC
331
4380
  5
4383
331
4300
  5
4303
331
45E6
  5
88B6
331
437C
  5
437F
331
45E2
  5
45E5
331
4378
  5
437B
331
42C5
  5
42C8
331
433F
  5
4342
331
433B
  5
433E
331
42FC
  5
42FF
331
42C1
  5
42C3
331
4337
  5
433A
331
42BD
  5
42BF
331
42F8
  5
42FB
331
4333
  5
4336
331
42F4
  5
42F7
331
42B9
  5
42BB
331
4374
  5
4377
331
45DE
  5
45E1
331
42F0
  5
42F3
331
4370
  5
4373
331
45DA
  5
45DD
331
436C
  5
436F
331
98B5
  5
A4C4
331
45D6
  5
45D9
331
4368
  5
436B
331
45D2
  5
45D5
331
BC44
  5
C55B
331
432F
  5
4332
331
42B5
  5
42B7
331
432B
  5
432E
331
42EC
  5
42EF
331
42B1
  5
42B3
331
4327
  5
432A
331
42AD
  5
42AF
331
42E8
  5
42EB
331
43A7
  5
43F3
331
4323
  5
4326
331
42E4
  5
42E7
331
42A9
  5
42AA
331
43A3
  5
43A6
331
4364
  5
4367
331
45CE
  5
45D1
331
42E0
  5
42E3
331
439F
  5
43A2
331
4360
  5
4363
331
435C
  5
435F
331
439B
  5
439E
331
4358
  5
435B
331
431F
  5
4324
331
431B
  5
431E
331
4356
  5
4359
331
4317
  5
431A
331
42DC
  5
42DF
331
4397
  5
439A
331
4352
  5
4355
331
4313
  5
4316
331
42D8
  5
42DB
331
4393
  5
4396
331
438F
  5
4392
331
438B
  5
438E
331
434E
  5
4351
331
430F
  5
4312
331
42D4
  5
42D7
331
434A
  5
434D
331
430B
  5
430E
331
42D0
  5
42D3
331
C55B
  5
CDD5
331
4346
  5
4349
331
4307
  5
430A
331
42CC
  5
42CF
331
4387
  5
438A
331
4342
  5
4345
331
4303
  5
4306
331
42C8
  5
42CB
331
A4C4
  5
A98E
331
4383
  5
4386
331
437F
  5
4382
331
437B
  5
437E
331
45E5
  5
45E8
331
45E1
  5
45E4
331
42C4
  5
42C7
331
433E
  5
4341
331
42FF
  5
4302
331
433A
  5
433D
331
42FB
  5
42FE
331
42C0
  5
42C2
331
42BC
  5
42BE
331
4336
  5
4339
331
42F7
  5
42FA
331
4377
  5
437A
331
42B8
  5
42BA
331
4332
  5
4335
331
42F3
  5
42F6
331
45DD
  5
45E0
331
4373
  5
4376
331
436F
  5
4372
331
45D9
  5
45DC
331
45D5
  5
45D8
331
436B
  5
436E
331
45D1
  5
45D4
331
42B4
  5
42B6
331
432E
  5
4331
331
42EF
  5
42F2
331
42B0
  5
42B2
331
432A
  5
432D
331
42EB
  5
42EE
331
42AC
  5
42AE
331
4326
  5
4329
331
42E7
  5
42EA
331
4367
  5
436A
331
43A6
  5
43A9
331
42A8
  5
42A9
331
4322
  5
4325
331
42E3
  5
42E6
331
45CD
  5
45D0
331
4363
  5
4366
331
43A2
  5
43A5
331
435F
  5
4362
331
439E
  5
43A1
331
435B
  5
435E
331
439A
  5
439D
331
431E
  5
4321
331
431A
  5
431D
331
42DF
  5
42E2
331
4355
  5
4358
331
4316
  5
4319
331
42DB
  5
42DE
331
4396
  5
4399
331
4351
  5
4354
331
4312
  5
4315
331
4392
  5
4395
331
438E
  5
4391
331
438A
  5
438D
331
42D7
  5
42DA
331
434D
  5
4350
331
430E
  5
4311
331
42D3
  5
42D6
331
4349
  5
434C
331
430A
  5
430D
331
42CF
  5
42D2
331
4345
  5
4348
331
4306
  5
4309
331
42CB
  5
42CE
331
4386
  5
4389
331
4341
  5
4344
331
4302
  5
4305
331
4382
  5
4385
331
437E
  5
4381
331
45E4
  5
45E7
331
437A
  5
437D
331
45E0
  5
45E3
331
42C7
  5
42CA
331
42C3
  5
42C5
331
42FE
  5
4301
331
433D
  5
4340
331
42BF
  5
42C1
331
42FA
  5
42FD
331
4339
  5
433C
331
4335
  5
4338
331
42F6
  5
42F9
331
42BB
  5
42BD
331
4376
  5
4379
331
4331
  5
4334
331
42F2
  5
42F5
331
45DC
  5
45DF
331
4372
  5
4375
331
436E
  5
4371
331
45D8
  5
45DB
331
45D4
  5
45D7
331
436A
  5
436D
331
43A9
  5
45CF
331
45D0
  5
45D3
331
42B7
  5
42B9
331
432D
  5
4330
331
42EE
  5
42F1
331
42B3
  5
42B5
331
42AF
  5
42B1
331
4329
  5
432C
331
42EA
  5
42ED
331
42E6
  5
42E9
331
4325
  5
4328
331
42AB
  5
42AD
331
4366
  5
4369
331
42E2
  5
42E5
331
4362
  5
4365
331
43A1
  5
43A4
331
435E
  5
4361
331
439D
  5
43A0
331
435A
  5
435D
331
4399
  5
439C
  0
XRECORD
  5
15D88
102
{ACAD_REACTORS
330
15D87
102
}
330
15D87
100
AcDbXrecord
280
     1
 40
46997.0
  1
\pxql;{\fArial|b1|i0|c0|p34;\W1.1;BOPLA}
  0
GROUP
  5
9D8
102
{ACAD_REACTORS
330
D
102
}
330
D
100
AcDbGroup
300

 70
     0
 71
     0
  0
GROUP
  5
3A6C
102
{ACAD_REACTORS
330
D
102
}
330
D
100
AcDbGroup
300

 70
     0
 71
     0
  0
GROUP
  5
3A6D
102
{ACAD_REACTORS
330
D
102
}
330
D
100
AcDbGroup
300

 70
     0
 71
     0
  0
GROUP
  5
3A6E
102
{ACAD_REACTORS
330
D
102
}
330
D
100
AcDbGroup
300

 70
     0
 71
     0
  0
GROUP
  5
3A6F
102
{ACAD_REACTORS
330
D
102
}
330
D
100
AcDbGroup
300

 70
     0
 71
     0
  0
GROUP
  5
3A70
102
{ACAD_REACTORS
330
D
102
}
330
D
100
AcDbGroup
300

 70
     0
 71
     0
  0
GROUP
  5
3A71
102
{ACAD_REACTORS
330
D
102
}
330
D
100
AcDbGroup
300

 70
     0
 71
     0
  0
GROUP
  5
1460E
102
{ACAD_REACTORS
330
D
102
}
330
D
100
AcDbGroup
300

 70
     0
 71
     0
  0
GROUP
  5
15720
102
{ACAD_REACTORS
330
D
102
}
330
D
100
AcDbGroup
300

 70
     0
 71
     0
  0
GROUP
  5
E1EF
102
{ACAD_REACTORS
330
D
102
}
330
D
100
AcDbGroup
300

 70
     0
 71
     0
  0
GROUP
  5
E497
102
{ACAD_REACTORS
330
D
102
}
330
D
100
AcDbGroup
300

 70
     0
 71
     0
  0
GROUP
  5
12A97
102
{ACAD_REACTORS
330
D
102
}
330
D
100
AcDbGroup
300

 70
     0
 71
     0
  0
GROUP
  5
12BE0
102
{ACAD_REACTORS
330
D
102
}
330
D
100
AcDbGroup
300

 70
     0
 71
     0
  0
GROUP
  5
25B3
102
{ACAD_REACTORS
330
D
102
}
330
D
100
AcDbGroup
300

 70
     0
 71
     0
  0
GROUP
  5
3A69
102
{ACAD_REACTORS
330
D
102
}
330
D
100
AcDbGroup
300

 70
     0
 71
     0
  0
GROUP
  5
3A6A
102
{ACAD_REACTORS
330
D
102
}
330
D
100
AcDbGroup
300

 70
     0
 71
     0
  0
GROUP
  5
3A6B
102
{ACAD_REACTORS
330
D
102
}
330
D
100
AcDbGroup
300

 70
     0
 71
     0
  0
LAYOUT
  5
1E
102
{ACAD_XDICTIONARY
360
15D8B
102
}
102
{ACAD_REACTORS
330
1A
102
}
330
1A
100
AcDbPlotSettings
  1

  2

  4

  6

 40
0.0
 41
0.0
 42
0.0
 43
0.0
 44
0.0
 45
0.0
 46
0.0
 47
0.0
 48
0.0
 49
0.0
140
0.0
141
0.0
142
1.0
143
1.0
 70
   688
 72
     0
 73
     0
 74
     5
  7

 75
    16
147
1.0
148
0.0
149
0.0
100
AcDbLayout
  1
Layout1
 70
     1
 71
     1
 10
0.0
 20
0.0
 11
420.0
 21
297.0
 12
0.0
 22
0.0
 32
0.0
 14
1.000000000000000E+20
 24
1.000000000000000E+20
 34
1.000000000000000E+20
 15
-1.000000000000000E+20
 25
-1.000000000000000E+20
 35
-1.000000000000000E+20
146
0.0
 13
0.0
 23
0.0
 33
0.0
 16
1.0
 26
0.0
 36
0.0
 17
0.0
 27
1.0
 37
0.0
 76
     0
330
1B
  0
LAYOUT
  5
26
102
{ACAD_XDICTIONARY
360
15D8E
102
}
102
{ACAD_REACTORS
330
1A
102
}
330
1A
100
AcDbPlotSettings
  1

  2

  4

  6

 40
0.0
 41
0.0
 42
0.0
 43
0.0
 44
0.0
 45
0.0
 46
0.0
 47
0.0
 48
0.0
 49
0.0
140
0.0
141
0.0
142
1.0
143
1.0
 70
   688
 72
     0
 73
     0
 74
     5
  7

 75
    16
147
1.0
148
0.0
149
0.0
100
AcDbLayout
  1
Layout2
 70
     1
 71
     2
 10
0.0
 20
0.0
 11
12.0
 21
9.0
 12
0.0
 22
0.0
 32
0.0
 14
0.0
 24
0.0
 34
0.0
 15
0.0
 25
0.0
 35
0.0
146
0.0
 13
0.0
 23
0.0
 33
0.0
 16
1.0
 26
0.0
 36
0.0
 17
0.0
 27
1.0
 37
0.0
 76
     0
330
23
  0
LAYOUT
  5
22
102
{ACAD_XDICTIONARY
360
15D4E
102
}
102
{ACAD_REACTORS
330
1A
102
}
330
1A
100
AcDbPlotSettings
  1
A3_Randlos
  2
hp deskjet 9600 series
  4
A3
  6

 40
3.841749906539916
 41
12.47774982452392
 42
3.841766357421875
 43
3.17498779296875
 44
296.9683227539062
 45
419.9889831542968
 46
-4.0
 47
-13.0
 48
0.0
 49
0.0
140
0.0
141
0.0
142
1.0
143
1.0
 70
 28336
 72
     1
 73
     3
 74
     2
  7
HP_SW.ctb
 75
    16
147
1.0
148
0.0
149
0.0
100
AcDbLayout
  1
Model
 70
     1
 71
     0
 10
0.0
 20
0.0
 11
12.0
 21
9.0
 12
0.0
 22
0.0
 32
0.0
 14
0.0
 24
0.0
 34
0.0
 15
0.0
 25
0.0
 35
0.0
146
0.0
 13
0.0
 23
0.0
 33
0.0
 16
1.0
 26
0.0
 36
0.0
 17
0.0
 27
1.0
 37
0.0
 76
     0
330
1F
331
15AC1
1001
ACAD_PSEXT
1000
hp deskjet 9600 series
1000
hp deskjet 9600 series
1000
USB001
1000

1070
     0
  0
MATERIAL
  5
15ACB
102
{ACAD_XDICTIONARY
360
15ACC
102
}
102
{ACAD_REACTORS
330
376C
102
}
330
376C
100
AcDbMaterial
  1
ByBlock
 72
     0
 43
0.0008202099737533
 43
0.0
 43
0.0
 43
0.0
 43
0.0
 43
0.0008202099737533
 43
0.0
 43
0.0
 43
0.0
 43
0.0
 43
1.0
 43
0.0
 43
0.0
 43
0.0
 43
0.0
 43
1.0
 77
     0
 47
0.0008202099737533
 47
0.0
 47
0.0
 47
0.0
 47
0.0
 47
0.0008202099737533
 47
0.0
 47
0.0
 47
0.0
 47
0.0
 47
1.0
 47
0.0
 47
0.0
 47
0.0
 47
0.0
 47
1.0
171
     0
 49
0.0008202099737533
 49
0.0
 49
0.0
 49
0.0
 49
0.0
 49
0.0008202099737533
 49
0.0
 49
0.0
 49
0.0
 49
0.0
 49
1.0
 49
0.0
 49
0.0
 49
0.0
 49
0.0
 49
1.0
175
     0
142
0.0008202099737533
142
0.0
142
0.0
142
0.0
142
0.0
142
0.0008202099737533
142
0.0
142
0.0
142
0.0
142
0.0
142
1.0
142
0.0
142
0.0
142
0.0
142
0.0
142
1.0
179
     0
144
0.0008202099737533
144
0.0
144
0.0
144
0.0
144
0.0
144
0.0008202099737533
144
0.0
144
0.0
144
0.0
144
0.0
144
1.0
144
0.0
144
0.0
144
0.0
144
0.0
144
1.0
147
0.0008202099737533
147
0.0
147
0.0
147
0.0
147
0.0
147
0.0008202099737533
147
0.0
147
0.0
147
0.0
147
0.0
147
1.0
147
0.0
147
0.0
147
0.0
147
0.0
147
1.0
  0
MATERIAL
  5
15AC3
102
{ACAD_XDICTIONARY
360
15AC4
102
}
102
{ACAD_REACTORS
330
376C
102
}
330
376C
100
AcDbMaterial
  1
ByLayer
 72
     0
 43
0.0008202099737533
 43
0.0
 43
0.0
 43
0.0
 43
0.0
 43
0.0008202099737533
 43
0.0
 43
0.0
 43
0.0
 43
0.0
 43
1.0
 43
0.0
 43
0.0
 43
0.0
 43
0.0
 43
1.0
 77
     0
 47
0.0008202099737533
 47
0.0
 47
0.0
 47
0.0
 47
0.0
 47
0.0008202099737533
 47
0.0
 47
0.0
 47
0.0
 47
0.0
 47
1.0
 47
0.0
 47
0.0
 47
0.0
 47
0.0
 47
1.0
171
     0
 49
0.0008202099737533
 49
0.0
 49
0.0
 49
0.0
 49
0.0
 49
0.0008202099737533
 49
0.0
 49
0.0
 49
0.0
 49
0.0
 49
1.0
 49
0.0
 49
0.0
 49
0.0
 49
0.0
 49
1.0
175
     0
142
0.0008202099737533
142
0.0
142
0.0
142
0.0
142
0.0
142
0.0008202099737533
142
0.0
142
0.0
142
0.0
142
0.0
142
1.0
142
0.0
142
0.0
142
0.0
142
0.0
142
1.0
179
     0
144
0.0008202099737533
144
0.0
144
0.0
144
0.0
144
0.0
144
0.0008202099737533
144
0.0
144
0.0
144
0.0
144
0.0
144
1.0
144
0.0
144
0.0
144
0.0
144
0.0
144
1.0
147
0.0008202099737533
147
0.0
147
0.0
147
0.0
147
0.0
147
0.0008202099737533
147
0.0
147
0.0
147
0.0
147
0.0
147
1.0
147
0.0
147
0.0
147
0.0
147
0.0
147
1.0
  0
MATERIAL
  5
15AD3
102
{ACAD_XDICTIONARY
360
15AD4
102
}
102
{ACAD_REACTORS
330
376C
102
}
330
376C
100
AcDbMaterial
  1
Global
 72
     0
 43
0.0008202099737533
 43
0.0
 43
0.0
 43
0.0
 43
0.0
 43
0.0008202099737533
 43
0.0
 43
0.0
 43
0.0
 43
0.0
 43
1.0
 43
0.0
 43
0.0
 43
0.0
 43
0.0
 43
1.0
 77
     0
 47
0.0008202099737533
 47
0.0
 47
0.0
 47
0.0
 47
0.0
 47
0.0008202099737533
 47
0.0
 47
0.0
 47
0.0
 47
0.0
 47
1.0
 47
0.0
 47
0.0
 47
0.0
 47
0.0
 47
1.0
171
     0
 49
0.0008202099737533
 49
0.0
 49
0.0
 49
0.0
 49
0.0
 49
0.0008202099737533
 49
0.0
 49
0.0
 49
0.0
 49
0.0
 49
1.0
 49
0.0
 49
0.0
 49
0.0
 49
0.0
 49
1.0
175
     0
142
0.0008202099737533
142
0.0
142
0.0
142
0.0
142
0.0
142
0.0008202099737533
142
0.0
142
0.0
142
0.0
142
0.0
142
1.0
142
0.0
142
0.0
142
0.0
142
0.0
142
1.0
179
     0
144
0.0008202099737533
144
0.0
144
0.0
144
0.0
144
0.0
144
0.0008202099737533
144
0.0
144
0.0
144
0.0
144
0.0
144
1.0
144
0.0
144
0.0
144
0.0
144
0.0
144
1.0
147
0.0008202099737533
147
0.0
147
0.0
147
0.0
147
0.0
147
0.0008202099737533
147
0.0
147
0.0
147
0.0
147
0.0
147
1.0
147
0.0
147
0.0
147
0.0
147
0.0
147
1.0
  0
MLEADERSTYLE
  5
15B02
102
{ACAD_REACTORS
330
15B01
102
}
330
15B01
100
AcDbMLeaderStyle
170
     2
171
     1
172
     0
 90
        2
 40
0.0
 41
0.0
173
     1
 91
-1056964608
340
14
 92
       -2
290
     1
 42
2.0
291
     1
 43
0.36
  3
Standard
 44
4.0
300

342
11
174
     1
178
     6
175
     1
176
     0
 93
-1056964608
 45
4.0
292
     0
297
     0
 46
4.0
 94
-1056964608
 47
1.0
 49
1.0
140
1.0
293
     1
141
0.0
294
     1
177
     0
142
1.0
295
     0
296
     0
143
0.125
1001
ACAD_MLEADERVER
1070
     2
  0
MLINESTYLE
  5
18
102
{ACAD_REACTORS
330
17
102
}
330
17
100
AcDbMlineStyle
  2
STANDARD
 70
     0
  3

 62
   256
 51
90.0
 52
90.0
 71
     2
 49
0.5
 62
   256
  6
BYLAYER
 49
-0.5
 62
   256
  6
BYLAYER
  0
PLOTSETTINGS
  5
3A72
102
{ACAD_XDICTIONARY
360
15D91
102
}
102
{ACAD_REACTORS
330
19
102
}
330
19
100
AcDbPlotSettings
  1
A3_Randlos
  2
hp deskjet 9600 series
  4
A3
  6

 40
3.841749906539916
 41
12.47774982452392
 42
3.841766357421875
 43
3.17498779296875
 44
296.9683227539062
 45
419.9889831542968
 46
-4.0
 47
-13.0
 48
0.0
 49
0.0
140
0.0
141
0.0
142
1.0
143
1.0
 70
 28336
 72
     1
 73
     3
 74
     2
  7
HP_SW.ctb
 75
    16
147
1.0
148
0.0
149
0.0
1001
ACAD_PSEXT
1000
hp deskjet 9600 series
1000
hp deskjet 9600 series
1000
USB001
1000

1070
     0
  0
ACDBPLACEHOLDER
  5
F
102
{ACAD_REACTORS
330
E
102
}
330
E
  0
SCALE
  5
15AF0
102
{ACAD_REACTORS
330
15AEF
102
}
330
15AEF
100
AcDbScale
 70
     0
300
1:1
140
1.0
141
1.0
290
     1
  0
SCALE
  5
15AF1
102
{ACAD_REACTORS
330
15AEF
102
}
330
15AEF
100
AcDbScale
 70
     0
300
1:2
140
1.0
141
2.0
290
     0
  0
SCALE
  5
15AF2
102
{ACAD_REACTORS
330
15AEF
102
}
330
15AEF
100
AcDbScale
 70
     0
300
1:4
140
1.0
141
4.0
290
     0
  0
SCALE
  5
15AF3
102
{ACAD_REACTORS
330
15AEF
102
}
330
15AEF
100
AcDbScale
 70
     0
300
1:5
140
1.0
141
5.0
290
     0
  0
SCALE
  5
15AF4
102
{ACAD_REACTORS
330
15AEF
102
}
330
15AEF
100
AcDbScale
 70
     0
300
1:8
140
1.0
141
8.0
290
     0
  0
SCALE
  5
15AF5
102
{ACAD_REACTORS
330
15AEF
102
}
330
15AEF
100
AcDbScale
 70
     0
300
1:10
140
1.0
141
10.0
290
     0
  0
SCALE
  5
15AF6
102
{ACAD_REACTORS
330
15AEF
102
}
330
15AEF
100
AcDbScale
 70
     0
300
1:16
140
1.0
141
16.0
290
     0
  0
SCALE
  5
15AF7
102
{ACAD_REACTORS
330
15AEF
102
}
330
15AEF
100
AcDbScale
 70
     0
300
1:20
140
1.0
141
20.0
290
     0
  0
SCALE
  5
15AF8
102
{ACAD_REACTORS
330
15AEF
102
}
330
15AEF
100
AcDbScale
 70
     0
300
1:30
140
1.0
141
30.0
290
     0
  0
SCALE
  5
15AF9
102
{ACAD_REACTORS
330
15AEF
102
}
330
15AEF
100
AcDbScale
 70
     0
300
1:40
140
1.0
141
40.0
290
     0
  0
SCALE
  5
15AFA
102
{ACAD_REACTORS
330
15AEF
102
}
330
15AEF
100
AcDbScale
 70
     0
300
1:50
140
1.0
141
50.0
290
     0
  0
SCALE
  5
15AFB
102
{ACAD_REACTORS
330
15AEF
102
}
330
15AEF
100
AcDbScale
 70
     0
300
1:100
140
1.0
141
100.0
290
     0
  0
SCALE
  5
15AFC
102
{ACAD_REACTORS
330
15AEF
102
}
330
15AEF
100
AcDbScale
 70
     0
300
2:1
140
2.0
141
1.0
290
     0
  0
SCALE
  5
15AFD
102
{ACAD_REACTORS
330
15AEF
102
}
330
15AEF
100
AcDbScale
 70
     0
300
4:1
140
4.0
141
1.0
290
     0
  0
SCALE
  5
15AFE
102
{ACAD_REACTORS
330
15AEF
102
}
330
15AEF
100
AcDbScale
 70
     0
300
8:1
140
8.0
141
1.0
290
     0
  0
SCALE
  5
15AFF
102
{ACAD_REACTORS
330
15AEF
102
}
330
15AEF
100
AcDbScale
 70
     0
300
10:1
140
10.0
141
1.0
290
     0
  0
SCALE
  5
15B00
102
{ACAD_REACTORS
330
15AEF
102
}
330
15AEF
100
AcDbScale
 70
     0
300
100:1
140
100.0
141
1.0
290
     0
  0
TABLESTYLE
  5
376F
102
{ACAD_XDICTIONARY
360
15D85
102
}
102
{ACAD_REACTORS
330
376E
102
}
330
376E
100
AcDbTableStyle
  3
Standard
 70
     0
 71
     0
 40
1.5
 41
1.5
280
     0
281
     0
  7
Standard
140
4.5
170
     2
 62
     0
 63
     7
283
     0
274
    -2
284
     1
 64
     0
275
    -2
285
     1
 65
     0
276
    -2
286
     1
 66
     0
277
    -2
287
     1
 67
     0
278
    -2
288
     1
 68
     0
279
    -2
289
     1
 69
     0
  7
Standard
140
6.0
170
     5
 62
     0
 63
     7
283
     0
274
    -2
284
     1
 64
     0
275
    -2
285
     1
 65
     0
276
    -2
286
     1
 66
     0
277
    -2
287
     1
 67
     0
278
    -2
288
     1
 68
     0
279
    -2
289
     1
 69
     0
  7
Standard
140
4.5
170
     5
 62
     0
 63
     7
283
     0
274
    -2
284
     1
 64
     0
275
    -2
285
     1
 65
     0
276
    -2
286
     1
 66
     0
277
    -2
287
     1
 67
     0
278
    -2
288
     1
 68
     0
279
    -2
289
     1
 69
     0
  0
VISUALSTYLE
  5
15AE1
102
{ACAD_XDICTIONARY
360
15DA0
102
}
102
{ACAD_REACTORS
330
15ADB
102
}
330
15ADB
100
AcDbVisualStyle
  2
2dWireframe
 70
     4
 71
     0
 72
     2
 73
     0
 90
        0
 40
-0.6
 41
-30.0
 62
     5
 63
     7
 74
     1
 91
        4
 64
     7
 65
   257
 75
     1
175
     1
 42
1.0
 92
        0
 66
   257
 43
1.0
 76
     1
 77
     6
 78
     2
 67
     7
 79
     5
170
     0
171
     0
290
     0
174
     0
 93
        1
 44
0.0
173
     0
291
     0
 45
0.0
1001
ACAD
1000
AcDbSavedByObjectVersion
1070
     0
  0
VISUALSTYLE
  5
15AE3
102
{ACAD_XDICTIONARY
360
15DA4
102
}
102
{ACAD_REACTORS
330
15ADB
102
}
330
15ADB
100
AcDbVisualStyle
  2
3D Hidden
 70
     6
 71
     1
 72
     2
 73
     2
 90
        0
 40
-0.6
 41
-30.0
 62
     5
 63
     7
 74
     2
 91
        2
 64
     7
 65
   257
 75
     2
175
     1
 42
179.0
 92
        0
 66
   257
 43
1.0
 76
     1
 77
     6
 78
     2
 67
     7
 79
     3
170
     0
171
     0
290
     0
174
     0
 93
        1
 44
0.0
173
     0
291
     0
 45
0.0
1001
ACAD
1000
AcDbSavedByObjectVersion
1070
     0
  0
VISUALSTYLE
  5
15AE2
102
{ACAD_XDICTIONARY
360
15DA2
102
}
102
{ACAD_REACTORS
330
15ADB
102
}
330
15ADB
100
AcDbVisualStyle
  2
3dWireframe
 70
     5
 71
     0
 72
     2
 73
     0
 90
        0
 40
-0.6
 41
-30.0
 62
     5
 63
     7
 74
     1
 91
        4
 64
     7
 65
   257
 75
     1
175
     1
 42
1.0
 92
        0
 66
   257
 43
1.0
 76
     1
 77
     6
 78
     2
 67
     7
 79
     5
170
     0
171
     0
290
     0
174
     0
 93
        1
 44
0.0
173
     0
291
     0
 45
0.0
1001
ACAD
1000
AcDbSavedByObjectVersion
1070
     0
  0
VISUALSTYLE
  5
15AE0
102
{ACAD_XDICTIONARY
360
15D9E
102
}
102
{ACAD_REACTORS
330
15ADB
102
}
330
15ADB
100
AcDbVisualStyle
  2
Basic
 70
     7
 71
     1
 72
     0
 73
     1
 90
        0
 40
-0.6
 41
-30.0
 62
     5
 63
     7
 74
     0
 91
        4
 64
     7
 65
   257
 75
     1
175
     1
 42
1.0
 92
        8
 66
     7
 43
1.0
 76
     1
 77
     6
 78
     2
 67
     7
 79
     5
170
     0
171
     0
290
     0
174
     0
 93
        1
 44
0.0
173
     0
291
     1
 45
0.0
1001
ACAD
1000
AcDbSavedByObjectVersion
1070
     0
  0
VISUALSTYLE
  5
15AE7
102
{ACAD_XDICTIONARY
360
15DAC
102
}
102
{ACAD_REACTORS
330
15ADB
102
}
330
15ADB
100
AcDbVisualStyle
  2
Brighten
 70
    12
 71
     2
 72
     2
 73
     0
 90
        0
 40
-0.6
 41
-30.0
 62
     5
 63
     7
 74
     1
 91
        4
 64
     7
 65
   257
 75
     1
175
     1
 42
1.0
 92
        8
 66
     7
 43
1.0
 76
     1
 77
     6
 78
     2
 67
     7
 79
     5
170
     0
171
     0
290
     0
174
     0
 93
        1
 44
50.0
173
     0
291
     1
 45
0.0
1001
ACAD
1000
AcDbSavedByObjectVersion
1070
     0
  0
VISUALSTYLE
  5
15AEB
102
{ACAD_XDICTIONARY
360
15DB4
102
}
102
{ACAD_REACTORS
330
15ADB
102
}
330
15ADB
100
AcDbVisualStyle
  2
ColorChange
 70
    16
 71
     2
 72
     2
 73
     3
 90
        0
 40
-0.6
 41
-30.0
 62
     5
 63
     8
 74
     1
 91
        4
 64
     7
 65
   257
 75
     1
175
     1
 42
1.0
 92
        8
 66
     8
 43
1.0
 76
     1
 77
     6
 78
     2
 67
     7
 79
     5
170
     0
171
     0
290
     0
174
     0
 93
        1
 44
0.0
173
     0
291
     1
 45
0.0
1001
ACAD
1000
AcDbSavedByObjectVersion
1070
     0
  0
VISUALSTYLE
  5
15AE4
102
{ACAD_XDICTIONARY
360
15DA6
102
}
102
{ACAD_REACTORS
330
15ADB
102
}
330
15ADB
100
AcDbVisualStyle
  2
Conceptual
 70
     9
 71
     3
 72
     2
 73
     0
 90
        0
 40
-0.6
 41
-30.0
 62
     5
 63
     7
 74
     2
 91
        2
 64
     7
 65
   257
 75
     1
175
     1
 42
179.0
 92
        8
 66
     7
 43
1.0
 76
     1
 77
     6
 78
     2
 67
     7
 79
     3
170
     0
171
     0
290
     0
174
     0
 93
        1
 44
0.0
173
     0
291
     0
 45
0.0
1001
ACAD
1000
AcDbSavedByObjectVersion
1070
     0
  0
VISUALSTYLE
  5
15AE6
102
{ACAD_XDICTIONARY
360
15DAA
102
}
102
{ACAD_REACTORS
330
15ADB
102
}
330
15ADB
100
AcDbVisualStyle
  2
Dim
 70
    11
 71
     2
 72
     2
 73
     0
 90
        0
 40
-0.6
 41
-30.0
 62
     5
 63
     7
 74
     1
 91
        4
 64
     7
 65
   257
 75
     1
175
     1
 42
1.0
 92
        8
 66
     7
 43
1.0
 76
     1
 77
     6
 78
     2
 67
     7
 79
     5
170
     0
171
     0
290
     0
174
     0
 93
        1
 44
-50.0
173
     0
291
     1
 45
0.0
1001
ACAD
1000
AcDbSavedByObjectVersion
1070
     0
  0
VISUALSTYLE
  5
15AEE
102
{ACAD_XDICTIONARY
360
15DBA
102
}
102
{ACAD_REACTORS
330
15ADB
102
}
330
15ADB
100
AcDbVisualStyle
  2
EdgeColorOff
 70
    22
 71
     2
 72
     2
 73
     0
 90
        0
 40
-0.6
 41
-30.0
 62
     5
 63
     7
 74
     1
 91
        4
 64
     7
 65
   257
 75
     1
175
     1
 42
1.0
 92
        8
 66
     7
 43
1.0
 76
     1
 77
     6
 78
     2
 67
     7
 79
     5
170
     0
171
     0
290
     0
174
     0
 93
        1
 44
0.0
173
     0
291
     1
 45
0.0
1001
ACAD
1000
AcDbSavedByObjectVersion
1070
     0
  0
VISUALSTYLE
  5
15AEA
102
{ACAD_XDICTIONARY
360
15DB2
102
}
102
{ACAD_REACTORS
330
15ADB
102
}
330
15ADB
100
AcDbVisualStyle
  2
Facepattern
 70
    15
 71
     2
 72
     2
 73
     0
 90
        0
 40
-0.6
 41
-30.0
 62
     5
 63
     7
 74
     1
 91
        4
 64
     7
 65
   257
 75
     1
175
     1
 42
1.0
 92
        8
 66
     7
 43
1.0
 76
     1
 77
     6
 78
     2
 67
     7
 79
     5
170
     0
171
     0
290
     0
174
     0
 93
        1
 44
0.0
173
     0
291
     1
 45
0.0
1001
ACAD
1000
AcDbSavedByObjectVersion
1070
     0
  0
VISUALSTYLE
  5
15ADC
102
{ACAD_XDICTIONARY
360
15D96
102
}
102
{ACAD_REACTORS
330
15ADB
102
}
330
15ADB
100
AcDbVisualStyle
  2
Flat
 70
     0
 71
     2
 72
     1
 73
     1
 90
        2
 40
-0.6
 41
30.0
 62
     5
 63
     7
 74
     0
 91
        4
 64
     7
 65
   257
 75
     1
175
     1
 42
1.0
 92
        8
 66
     7
 43
1.0
 76
     1
 77
     6
 78
     2
 67
     7
 79
     5
170
     0
171
     0
290
     0
174
     0
 93
       13
 44
0.0
173
     0
291
     1
 45
0.0
1001
ACAD
1000
AcDbSavedByObjectVersion
1070
     0
  0
VISUALSTYLE
  5
15ADD
102
{ACAD_XDICTIONARY
360
15D98
102
}
102
{ACAD_REACTORS
330
15ADB
102
}
330
15ADB
100
AcDbVisualStyle
  2
FlatWithEdges
 70
     1
 71
     2
 72
     1
 73
     1
 90
        2
 40
-0.6
 41
30.0
 62
     5
 63
     7
 74
     1
 91
        4
 64
     7
 65
   257
 75
     1
175
     1
 42
1.0
 92
        0
 66
   257
 43
1.0
 76
     1
 77
     6
 78
     2
 67
     7
 79
     5
170
     0
171
     0
290
     0
174
     0
 93
       13
 44
0.0
173
     0
291
     1
 45
0.0
1001
ACAD
1000
AcDbSavedByObjectVersion
1070
     0
  0
VISUALSTYLE
  5
15ADE
102
{ACAD_XDICTIONARY
360
15D9A
102
}
102
{ACAD_REACTORS
330
15ADB
102
}
330
15ADB
100
AcDbVisualStyle
  2
Gouraud
 70
     2
 71
     2
 72
     2
 73
     1
 90
        2
 40
-0.6
 41
30.0
 62
     5
 63
     7
 74
     0
 91
        4
 64
     7
 65
   257
 75
     1
175
     1
 42
1.0
 92
        0
 66
     7
 43
1.0
 76
     1
 77
     6
 78
     2
 67
     7
 79
     5
170
     0
171
     0
290
     0
174
     0
 93
       13
 44
0.0
173
     0
291
     1
 45
0.0
1001
ACAD
1000
AcDbSavedByObjectVersion
1070
     0
  0
VISUALSTYLE
  5
15ADF
102
{ACAD_XDICTIONARY
360
15D9C
102
}
102
{ACAD_REACTORS
330
15ADB
102
}
330
15ADB
100
AcDbVisualStyle
  2
GouraudWithEdges
 70
     3
 71
     2
 72
     2
 73
     1
 90
        2
 40
-0.6
 41
30.0
 62
     5
 63
     7
 74
     1
 91
        4
 64
     7
 65
   257
 75
     1
175
     1
 42
1.0
 92
        0
 66
   257
 43
1.0
 76
     1
 77
     6
 78
     2
 67
     7
 79
     5
170
     0
171
     0
290
     0
174
     0
 93
       13
 44
0.0
173
     0
291
     1
 45
0.0
1001
ACAD
1000
AcDbSavedByObjectVersion
1070
     0
  0
VISUALSTYLE
  5
15AEC
102
{ACAD_XDICTIONARY
360
15DB6
102
}
102
{ACAD_REACTORS
330
15ADB
102
}
330
15ADB
100
AcDbVisualStyle
  2
JitterOff
 70
    20
 71
     2
 72
     2
 73
     0
 90
        0
 40
-0.6
 41
-30.0
 62
     5
 63
     7
 74
     1
 91
        4
 64
     7
 65
   257
 75
     1
175
     1
 42
1.0
 92
       10
 66
     7
 43
1.0
 76
     1
 77
     6
 78
     2
 67
     7
 79
     5
170
     0
171
     0
290
     0
174
     0
 93
        1
 44
0.0
173
     0
291
     1
 45
0.0
1001
ACAD
1000
AcDbSavedByObjectVersion
1070
     0
  0
VISUALSTYLE
  5
15AE9
102
{ACAD_XDICTIONARY
360
15DB0
102
}
102
{ACAD_REACTORS
330
15ADB
102
}
330
15ADB
100
AcDbVisualStyle
  2
Linepattern
 70
    14
 71
     2
 72
     2
 73
     0
 90
        0
 40
-0.6
 41
-30.0
 62
     5
 63
     7
 74
     1
 91
        4
 64
     7
 65
   257
 75
     7
175
     7
 42
1.0
 92
        8
 66
     7
 43
1.0
 76
     1
 77
     6
 78
     2
 67
     7
 79
     5
170
     0
171
     0
290
     0
174
     0
 93
        1
 44
0.0
173
     0
291
     1
 45
0.0
1001
ACAD
1000
AcDbSavedByObjectVersion
1070
     0
  0
VISUALSTYLE
  5
15AED
102
{ACAD_XDICTIONARY
360
15DB8
102
}
102
{ACAD_REACTORS
330
15ADB
102
}
330
15ADB
100
AcDbVisualStyle
  2
OverhangOff
 70
    21
 71
     2
 72
     2
 73
     0
 90
        0
 40
-0.6
 41
-30.0
 62
     5
 63
     7
 74
     1
 91
        4
 64
     7
 65
   257
 75
     1
175
     1
 42
1.0
 92
        9
 66
     7
 43
1.0
 76
     1
 77
     6
 78
     2
 67
     7
 79
     5
170
     0
171
     0
290
     0
174
     0
 93
        1
 44
0.0
173
     0
291
     1
 45
0.0
1001
ACAD
1000
AcDbSavedByObjectVersion
1070
     0
  0
VISUALSTYLE
  5
15AE5
102
{ACAD_XDICTIONARY
360
15DA8
102
}
102
{ACAD_REACTORS
330
15ADB
102
}
330
15ADB
100
AcDbVisualStyle
  2
Realistic
 70
     8
 71
     2
 72
     2
 73
     0
 90
        0
 40
-0.6
 41
-30.0
 62
     5
 63
     7
 74
     1
 91
        0
 64
     7
 65
   257
 75
     1
175
     1
 42
1.0
 92
        8
 66
     8
 43
1.0
 76
     1
 77
     6
 78
     2
 67
     7
 79
     5
170
     0
171
     0
290
     0
174
     0
 93
       13
 44
0.0
173
     0
291
     0
 45
0.0
1001
ACAD
1000
AcDbSavedByObjectVersion
1070
     0
  0
VISUALSTYLE
  5
15AE8
102
{ACAD_XDICTIONARY
360
15DAE
102
}
102
{ACAD_REACTORS
330
15ADB
102
}
330
15ADB
100
AcDbVisualStyle
  2
Thicken
 70
    13
 71
     2
 72
     2
 73
     0
 90
        0
 40
-0.6
 41
-30.0
 62
     5
 63
     7
 74
     1
 91
        4
 64
     7
 65
   257
 75
     1
175
     1
 42
1.0
 92
       12
 66
     7
 43
1.0
 76
     1
 77
     6
 78
     2
 67
     7
 79
     5
170
     0
171
     0
290
     0
174
     0
 93
        1
 44
0.0
173
     0
291
     1
 45
0.0
1001
ACAD
1000
AcDbSavedByObjectVersion
1070
     0
  0
DICTIONARYVAR
  5
15D55
102
{ACAD_REACTORS
330
3761
102
}
330
3761
100
DictionaryVariables
280
     0
  1
1:1
  0
DICTIONARYVAR
  5
15D53
102
{ACAD_REACTORS
330
3761
102
}
330
3761
100
DictionaryVariables
280
     0
  1
STANDARD
  0
DICTIONARYVAR
  5
3774
102
{ACAD_REACTORS
330
3761
102
}
330
3761
100
DictionaryVariables
280
     0
  1
STANDARD
  0
DICTIONARYVAR
  5
3762
102
{ACAD_REACTORS
330
3761
102
}
330
3761
100
DictionaryVariables
280
     0
  1
1
  0
DICTIONARYVAR
  5
15D83
102
{ACAD_REACTORS
330
3761
102
}
330
3761
100
DictionaryVariables
280
     0
  1
0
  0
DICTIONARYVAR
  5
15D57
102
{ACAD_REACTORS
330
3761
102
}
330
3761
100
DictionaryVariables
280
     0
  1
1
  0
DICTIONARYVAR
  5
15D58
102
{ACAD_REACTORS
330
3761
102
}
330
3761
100
DictionaryVariables
280
     0
  1
15
  0
DICTIONARYVAR
  5
15D56
102
{ACAD_REACTORS
330
3761
102
}
330
3761
100
DictionaryVariables
280
     0
  1
0
  0
DICTIONARYVAR
  5
15D54
102
{ACAD_REACTORS
330
3761
102
}
330
3761
100
DictionaryVariables
280
     0
  1
0
  0
DICTIONARYVAR
  5
15D82
102
{ACAD_REACTORS
330
3761
102
}
330
3761
100
DictionaryVariables
280
     0
  1
127
  0
DICTIONARYVAR
  5
15D84
102
{ACAD_REACTORS
330
3761
102
}
330
3761
100
DictionaryVariables
280
     0
  1
0
  0
PH_ENTDIMREACTOR
  5
988E
102
{ACAD_REACTORS
330
49
102
}
330
49
  0
PH_DIMENTREACTOR
  5
12739
102
{ACAD_REACTORS
330
49
102
}
330
49
  0
PH_DIMENTREACTOR
  5
9890
102
{ACAD_REACTORS
330
49
102
}
330
49
  0
PH_ENTDIMREACTOR
  5
145E0
102
{ACAD_REACTORS
330
49
102
}
330
49
  0
PH_ENTDIMREACTOR
  5
A496
102
{ACAD_REACTORS
330
49
102
}
330
49
  0
PH_DIMENTREACTOR
  5
145E1
102
{ACAD_REACTORS
330
49
102
}
330
49
  0
PH_DIMENTREACTOR
  5
C539
102
{ACAD_REACTORS
330
49
102
}
330
49
  0
PH_DIMENTREACTOR
  5
A497
102
{ACAD_REACTORS
330
49
102
}
330
49
  0
PH_ENTDIMREACTOR
  5
A97D
102
{ACAD_REACTORS
330
49
102
}
330
49
  0
PH_DIMENTREACTOR
  5
A97E
102
{ACAD_REACTORS
330
49
102
}
330
49
  0
PH_ENTDIMREACTOR
  5
C538
102
{ACAD_REACTORS
330
49
102
}
330
49
  0
PH_DIMENTREACTOR
  5
D677
102
{ACAD_REACTORS
330
49
102
}
330
49
  0
PH_ENTDIMREACTOR
  5
E181
102
{ACAD_REACTORS
330
49
102
}
330
49
  0
PH_ENTDIMREACTOR
  5
145DF
102
{ACAD_REACTORS
330
49
102
}
330
49
  0
PH_ENTDIMREACTOR
  5
CD7B
102
{ACAD_REACTORS
330
49
102
}
330
49
  0
PH_ENTDIMREACTOR
  5
CD7C
102
{ACAD_REACTORS
330
49
102
}
330
49
  0
PH_DIMENTREACTOR
  5
CD7D
102
{ACAD_REACTORS
330
49
102
}
330
49
  0
PH_ENTDIMREACTOR
  5
D675
102
{ACAD_REACTORS
330
49
102
}
330
49
  0
PH_ENTDIMREACTOR
  5
D676
102
{ACAD_REACTORS
330
49
102
}
330
49
  0
PH_ENTDIMREACTOR
  5
E180
102
{ACAD_REACTORS
330
49
102
}
330
49
  0
PH_ENTDIMREACTOR
  5
A495
102
{ACAD_REACTORS
330
49
102
}
330
49
  0
PH_DIMENTREACTOR
  5
E182
102
{ACAD_REACTORS
330
49
102
}
330
49
  0
PH_ENTDIMREACTOR
  5
988F
102
{ACAD_REACTORS
330
49
102
}
330
49
  0
PH_ENTDIMREACTOR
  5
113E1
102
{ACAD_REACTORS
330
49
102
}
330
49
  0
PH_DIMENTREACTOR
  5
113E2
102
{ACAD_REACTORS
330
49
102
}
330
49
  0
PH_ENTDIMREACTOR
  5
12738
102
{ACAD_REACTORS
330
49
102
}
330
49
  0
DICTIONARY
  5
15D36
102
{ACAD_REACTORS
330
4A
102
}
330
4A
100
AcDbDictionary
280
     1
281
     1
  3
$PH$AAAB
360
15D39
  3
PH_GRPMEMBERS
360
15D3F
  0
DICTIONARY
  5
15D6D
102
{ACAD_REACTORS
330
4A
102
}
330
4A
100
AcDbDictionary
280
     1
281
     1
  3
PH_GRPMEMBERS
360
15D6E
  0
PH_GROUP
  5
4815
102
{ACAD_REACTORS
330
4A
102
}
330
4A
  0
DICTIONARY
  5
15D8B
330
1E
100
AcDbDictionary
280
     1
281
     1
  3
ACAD_XREC_ROUNDTRIP
360
15D8C
  0
DICTIONARY
  5
15D8E
330
26
100
AcDbDictionary
280
     1
281
     1
  3
ACAD_XREC_ROUNDTRIP
360
15D8F
  0
DICTIONARY
  5
15D4E
330
22
100
AcDbDictionary
280
     1
281
     1
  3
ACAD_XREC_ROUNDTRIP
360
15D8D
  3
ADSK_XREC_LAYOUTTHUMBNAIL
360
15D4F
  0
DICTIONARY
  5
15ACC
330
15ACB
100
AcDbDictionary
280
     1
281
     1
  3
ACAD_XREC_ROUNDTRIP
360
15D94
  3
BUMPTILE
360
15ACE
  3
DIFFUSETILE
360
15ACD
  3
OPACITYTILE
360
15AD1
  3
REFLECTIONTILE
360
15AD0
  3
REFRACTIONTILE
360
15AD2
  3
SPECULARTILE
360
15ACF
  0
DICTIONARY
  5
15AC4
330
15AC3
100
AcDbDictionary
280
     1
281
     1
  3
ACAD_XREC_ROUNDTRIP
360
15D93
  3
BUMPTILE
360
15AC6
  3
DIFFUSETILE
360
15AC5
  3
OPACITYTILE
360
15AC9
  3
REFLECTIONTILE
360
15AC8
  3
REFRACTIONTILE
360
15ACA
  3
SPECULARTILE
360
15AC7
  0
DICTIONARY
  5
15AD4
330
15AD3
100
AcDbDictionary
280
     1
281
     1
  3
ACAD_XREC_ROUNDTRIP
360
15D95
  3
BUMPTILE
360
15AD6
  3
DIFFUSETILE
360
15AD5
  3
OPACITYTILE
360
15AD9
  3
REFLECTIONTILE
360
15AD8
  3
REFRACTIONTILE
360
15ADA
  3
SPECULARTILE
360
15AD7
  0
DICTIONARY
  5
15D91
330
3A72
100
AcDbDictionary
280
     1
281
     1
  3
ACAD_XREC_ROUNDTRIP
360
15D92
  0
DICTIONARY
  5
15D85
330
376F
100
AcDbDictionary
280
     1
281
     1
  3
ACAD_ROUNDTRIP_2008_TABLESTYLE_CELLSTYLEMAP
360
15D86
  3
ACAD_XREC_ROUNDTRIP
360
15D90
  0
DICTIONARY
  5
15DA0
330
15AE1
100
AcDbDictionary
280
     1
281
     1
  3
ACAD_XREC_ROUNDTRIP
360
15DA1
  0
DICTIONARY
  5
15DA4
330
15AE3
100
AcDbDictionary
280
     1
281
     1
  3
ACAD_XREC_ROUNDTRIP
360
15DA5
  0
DICTIONARY
  5
15DA2
330
15AE2
100
AcDbDictionary
280
     1
281
     1
  3
ACAD_XREC_ROUNDTRIP
360
15DA3
  0
DICTIONARY
  5
15D9E
330
15AE0
100
AcDbDictionary
280
     1
281
     1
  3
ACAD_XREC_ROUNDTRIP
360
15D9F
  0
DICTIONARY
  5
15DAC
330
15AE7
100
AcDbDictionary
280
     1
281
     1
  3
ACAD_XREC_ROUNDTRIP
360
15DAD
  0
DICTIONARY
  5
15DB4
330
15AEB
100
AcDbDictionary
280
     1
281
     1
  3
ACAD_XREC_ROUNDTRIP
360
15DB5
  0
DICTIONARY
  5
15DA6
330
15AE4
100
AcDbDictionary
280
     1
281
     1
  3
ACAD_XREC_ROUNDTRIP
360
15DA7
  0
DICTIONARY
  5
15DAA
330
15AE6
100
AcDbDictionary
280
     1
281
     1
  3
ACAD_XREC_ROUNDTRIP
360
15DAB
  0
DICTIONARY
  5
15DBA
330
15AEE
100
AcDbDictionary
280
     1
281
     1
  3
ACAD_XREC_ROUNDTRIP
360
15DBB
  0
DICTIONARY
  5
15DB2
330
15AEA
100
AcDbDictionary
280
     1
281
     1
  3
ACAD_XREC_ROUNDTRIP
360
15DB3
  0
DICTIONARY
  5
15D96
330
15ADC
100
AcDbDictionary
280
     1
281
     1
  3
ACAD_XREC_ROUNDTRIP
360
15D97
  0
DICTIONARY
  5
15D98
330
15ADD
100
AcDbDictionary
280
     1
281
     1
  3
ACAD_XREC_ROUNDTRIP
360
15D99
  0
DICTIONARY
  5
15D9A
330
15ADE
100
AcDbDictionary
280
     1
281
     1
  3
ACAD_XREC_ROUNDTRIP
360
15D9B
  0
DICTIONARY
  5
15D9C
330
15ADF
100
AcDbDictionary
280
     1
281
     1
  3
ACAD_XREC_ROUNDTRIP
360
15D9D
  0
DICTIONARY
  5
15DB6
330
15AEC
100
AcDbDictionary
280
     1
281
     1
  3
ACAD_XREC_ROUNDTRIP
360
15DB7
  0
DICTIONARY
  5
15DB0
330
15AE9
100
AcDbDictionary
280
     1
281
     1
  3
ACAD_XREC_ROUNDTRIP
360
15DB1
  0
DICTIONARY
  5
15DB8
330
15AED
100
AcDbDictionary
280
     1
281
     1
  3
ACAD_XREC_ROUNDTRIP
360
15DB9
  0
DICTIONARY
  5
15DA8
330
15AE5
100
AcDbDictionary
280
     1
281
     1
  3
ACAD_XREC_ROUNDTRIP
360
15DA9
  0
DICTIONARY
  5
15DAE
330
15AE8
100
AcDbDictionary
280
     1
281
     1
  3
ACAD_XREC_ROUNDTRIP
360
15DAF
  0
DICTIONARY
  5
15D39
102
{ACAD_REACTORS
330
15D36
102
}
330
15D36
100
AcDbDictionary
280
     1
281
     1
  3
$PH$AAAA
360
15D3A
  3
PH_GRPMEMBERS
360
15D3E
  0
PH_GROUP
  5
15D3F
102
{ACAD_REACTORS
330
15D36
102
}
330
15D36
  0
PH_GROUP
  5
15D6E
102
{ACAD_REACTORS
330
15D6D
102
}
330
15D6D
  0
XRECORD
  5
15D8C
102
{ACAD_REACTORS
330
15D8B
102
}
330
15D8B
100
AcDbXrecord
280
     1
102
SHADEPLOT
 70
     0
102
SHADEPLOTRESLEVEL
 70
     2
102
SHADEPLOTCUSTOMDPI
 70
   300
  0
XRECORD
  5
15D8F
102
{ACAD_REACTORS
330
15D8E
102
}
330
15D8E
100
AcDbXrecord
280
     1
102
SHADEPLOT
 70
     0
102
SHADEPLOTRESLEVEL
 70
     2
102
SHADEPLOTCUSTOMDPI
 70
   300
  0
XRECORD
  5
15D8D
102
{ACAD_REACTORS
330
15D4E
102
}
330
15D4E
100
AcDbXrecord
280
     1
102
SHADEPLOT
 70
     1
102
SHADEPLOTRESLEVEL
 70
     2
102
SHADEPLOTCUSTOMDPI
 70
   300
  0
XRECORD
  5
15D4F
102
{ACAD_REACTORS
330
15D4E
102
}
330
15D4E
100
AcDbXrecord
280
     1
310
28000000000100008700000001000800000000000087000000000000000000000001000000000000F0FCFE0000000000FFFFFF000000000000000000000000000000000000000000000000000000000000000000330000006600000099000000CC000000FF00000000330000333300006633000099330000CC330000FF3300
310
0000660000336600006666000099660000CC660000FF66000000990000339900006699000099990000CC990000FF99000000CC000033CC000066CC000099CC0000CCCC0000FFCC000000FF000033FF000066FF000099FF0000CCFF0000FFFF000000003300330033006600330099003300CC003300FF003300003333003333
310
33006633330099333300CC333300FF33330000663300336633006666330099663300CC663300FF66330000993300339933006699330099993300CC993300FF99330000CC330033CC330066CC330099CC3300CCCC3300FFCC330000FF330033FF330066FF330099FF3300CCFF3300FFFF330000006600330066006600660099
310
006600CC006600FF00660000336600333366006633660099336600CC336600FF33660000666600336666006666660099666600CC666600FF66660000996600339966006699660099996600CC996600FF99660000CC660033CC660066CC660099CC6600CCCC6600FFCC660000FF660033FF660066FF660099FF6600CCFF6600
310
FFFF660000009900330099006600990099009900CC009900FF00990000339900333399006633990099339900CC339900FF33990000669900336699006666990099669900CC669900FF66990000999900339999006699990099999900CC999900FF99990000CC990033CC990066CC990099CC9900CCCC9900FFCC990000FF99
310
0033FF990066FF990099FF9900CCFF9900FFFF99000000CC003300CC006600CC009900CC00CC00CC00FF00CC000033CC003333CC006633CC009933CC00CC33CC00FF33CC000066CC003366CC006666CC009966CC00CC66CC00FF66CC000099CC003399CC006699CC009999CC00CC99CC00FF99CC0000CCCC0033CCCC0066CC
310
CC0099CCCC00CCCCCC00FFCCCC0000FFCC0033FFCC0066FFCC0099FFCC00CCFFCC00FFFFCC000000FF003300FF006600FF009900FF00CC00FF00FF00FF000033FF003333FF006633FF009933FF00CC33FF00FF33FF000066FF003366FF006666FF009966FF00CC66FF00FF66FF000099FF003399FF006699FF009999FF00CC
310
99FF00FF99FF0000CCFF0033CCFF0066CCFF0099CCFF00CCCCFF00FFCCFF0000FFFF0033FFFF0066FFFF0099FFFF00CCFFFF00FFFFFF00000000000D0D0D001A1A1A00282828003535350043434300505050005D5D5D006B6B6B00787878008686860093939300A1A1A100AEAEAE00BBBBBB00C9C9C900D6D6D600E4E4E400
310
F1F1F100FFFFFF0000000000000000000000000000000000000000000000000000000000000000000000000000000000E1E1E1E1E1E1E1E1E1E1E1E1E1E1E1E1E1E1E1E1E1E1E1E1E1E1E1E1E1E1E1E1BEBEBEBEBEBEBEBEBEBEBEBEBEBEBEBEBEBEBEBEBEBEBEBEBEBEBEBEBEBEBEBEBEBEBEBEBEBEBEBEBEBEBEBEBEBEBE
310
BEBEBEBEBEBEBEBEBEBEBEBEBEBEBEBEBEBEBEBEBEBEBEBEBEBEBEBEBEBEBEBEBEBEBEBEBEBEBEBEBEBEBEBEBEBEBEBEBEBEBEBEBEBEBEBEBEBEBEBEBEBEBEBEBEBEBEBEBEBEBEBEBEBEBEBEBEBEBEBEBEBEBEBEBEBEBEBEBEBEBEBEBEBEBEBEBEBEBEBEBEBEBEBEBEBEBEBEBEBEBEBEBEBEBEBEBEBEBEBEBEBEBEBEBEBEBE
310
BEBEBEBEBEBEBEBEBEBEBEBEBEBEBEBEBEBEE1E1E1E1E1E1E1E1E1E1E1E1E1E1E1E1E1E1E1E1E1E1E1E1E1E1E1E1E1E1E1E1E1E1E1E1E1E1E1E1E1E1E1E1E1E1E1E1E1E1E1E1E1E1E1E1E1E1E1E1E1E1E1E1BEE1E1E1E1E1E1E1E1E1E1E1E1E1E1E1E1E1E1E1E1E1E1E1E1E1E1E1E1E1E1E1E1E1E1E1E1E1E1E1E1E1E1E1E1
310
E1E1E1E1E1E1E1E1E1E1E1E1BEE1E1E1E1E1E1E1E1E1E1E1E1E1E1E1E1E1E1E1E1E1E1E1E1E1E1E1E1E1E1E1E1E1E1E1E1E1E1E1E1E1E1E1E1E1E1E1BEE1E1E1E1E1E1E1E1E1E1E1E1E1E1E1E1E1E1E1E1E1E1E1E1E1E1E1E1E1E1E1E1E1E1E1E1E1E1E1E1E1E1E1E1E1E1E1E1E1E1E1E1E1E1E1E1E1E1E1E1E1E1E1E1E1E1
310
E1E1E1E1E1E1E1E1E1E1E1E1E1E1E1E1E1E1E1BEE1E1E1E1E1E1E1E1E1E1E1E1E1E1E1E1E1E1E1E1E1E1E1E1E1E1E1E1E1E1E1E1E1E1E1E1E1E1E1E1E1E1E1E1E1E1E1E1E1E1E1E1E1E1E1E1E1E1E1E1E1E1E1E1BEE1E1E1E1E1E1E1E128282828282828282828282828282828282828282828282828282828282828282828
310
2828282828282828282828282828BE2828282828282828282828282828282828282828282828282828282828282828282828282828282828282828282828BE28282828282828282828282828282828282828282828282828282828282828282828282828282828282828282828282828282828282828282828282828282828
310
2828282828282828282828282828282828282828E1BEE1E1E1E1E1E1E1E1E1E1E1E1E1E1E1E1E1E1E1E1E1E1E1E1E1E1E1E1E1E1E1E1E1E1E1E1E1E1E1E1E1E1E1E1E1E1E1E1E1E1E1E1E1E1E1E1E1E1E1E1E1E1E1E1BEE1E1E1E1E1E1E1E128E1E1E1E1E1E1E1E1E1E1E1E1E1E1E1E1E1E1E1E1E1E1E1E1E1E1E1E1E1E1E1
310
E1E1E1E1E1E1E1E1E1E1E1E1E1E1E1E1E1E1E1E1E1E1E1E1E1E1E1E1E1E1E1E1E1E1E1E1E1E1E1E1E1E1E1E1E1E1E1E1E1E1E1E1E1E1E1E1E1E1E1E1E1E1E1E1E1E1E1E1E1E1E1E1E1E1E1E1E1E1E1E1E1E1E1E1E1E1E1E1E1E1E1E1E1E1E1E1E1E1E1E1E1E10F0F0F0F0F0F0F0F0F0F0F0FE10F0F0F0F0F0F0F0F0FE1E1E1
310
E1E1E1E1E1E1E1E1E1E1E1E1E1E1E1E1E1E1E1E1E128E1BEE1E1E1E1E1E1E1E1E1E1E1E1E1E1E1E1E1E1E1E1E1E1E1E1E1E1E1E1E1E1E1E1E1E1E1E1E1E1E1E1E1E1E1E1E1E1E1E1E1E1E1E1E1E1E1E1E1E1E1E1E1E1E1E1BEE1E1E1E1E1E1E1E128E1E1E1E1E1E1E1E1E1E1E1E1E1E1E1E1E1E1E1E1E1E1E1E1E1E1E1E1E1
310
E1E1E1E1E1E1E1E1E1E1E1E1E1E1E1E1E1E1E1E1E1E1E1E1E1E1E1E1E1E1E1E1E1E1E1E1E1E1E1E1E1E1E1E1E1E1E1E1E1E1E1E1E1E1E1E1E1E1E1E1E1E1E1E1E1E1E1E1E1E1E1E1E1E1E1E1E1E1E1E1E1E1E1E1E1E1E1E1E1E1E1E1E1E1E1E1E1E1E1E1E1E1E1E10F0F0F0F0F0F0F0F0F0F0F0FE10F0F0F0F0F0F0F0F0FE1
310
E1E1E1E1E1E1E1E1E1E1E1E1E1E1E1E1E1E1E1E1E1E1E128E1BEE1E1E1E1E1E1E1E1E1E1E1E1E1E1E1E1E1E1E1E1E1E1E1E1E1E1E1E1E1E1E1E1E1E1E1E1E1E1E1E1E1E1E1E1E1E1E1E1E1E1E1E1E1E1E1E1E1E1E1E1E1E1E1E1BEE1E1E1E1E1E1E1E128E1E1E1E1E1E1E1E1E1E1E1E1E1E1E1E1E1E1E1E1E1E1E1E1E1E1E1
310
E1E1E1E1E1E1E1E1E1E1E1E1E1E1E1E1E1E1E1E1E1E1E1E1E1E1E1E1E1E1E1E1E1E1E1E1E1E1E1E1E1E1E1E1E1E1E1E1E1E1E1E1E1E1E1E1E1E1E1E1E1E1E1E1E1E1E1E1E1E1E1E1E1E1E1E1E1E1E1E1E1E1E1E1E1E1E1E1E1E1E1E1E1E1E1E1E1E1E1E1E1E1E1E1E1E10F0F0F0F0F0FE1E1E1E1E1E1E10F0F0F0F0F0F0F0F
310
E1E1E1E1E1E1E1E1E1E1E1E1E1E1E1E1E1E1E1E1E1E1E1E1E128E1BEE1E1E1E1E1E1E1E1E1E1E1E1E1E1E1E1E1E1E1E1E1E1E1E1E1E1E1E1E1E1E1E1E1E1E1E1E1E1E1E1E1E1E1E1E1E1E1E1E1E1E1E1E1E1E1E1E1E1E1E1E1E1E1E1BEE1E1E1E1E1E1E1E128E1E1E1E1E1E1E1E1E1E1E1E1E1E1E1E1E1E1E1E1E1E1E1E1E1
310
E1E1E1E1E1E1E1E1E1E1E1E1E1E1E1E1E1E1E1E1E1E1E1E1E1E1E1E1E1E1E1E1E1E1E1E1E1E1E1E1E1E1E1E1E1E1E1E1E1E1E1E1E1E1E1E1E1E1E1E1E1E1E1E1E1E1E1E1E1E1E1E1E1E1E1E1E1E1E1E1E1E1E1E1E1E1E1E1E1E1E1E1E1E1E1E1E1E1E1E1E1E1E1E1E1E1E1E10F0F0F0F0FE1E1E1E1E1E1E1E10F0F0F0F0F0F
310
0F0FE1E1E1E1E1E1E1E1E1E1E1E1E1E1E1E1E1E1E1E1E1E1E1E1E128E1BEE1E1E1E1E1E1E1E1E1E1E1E1E1E1E1E1E1E1E1E1E1E1E1E1E1E1E1E1E1E1E1E1E1E1E1E1E1E1E1E1E1E1E1E1E1E1E1E1E1E1E1E1E1E1E1E1E1E1E1E1E1E1E1E1BEE1E1E1E1E1E1E1E128E1E1E1E1E1E1E1E1E1E1E1E1E1E1E1E1E1E1E1E1E1E1E1
310
E1E1E1E1E1E1E1E1E1E1E1E1E1E1E1E1E1E1E1E1E1E1E1E1E1E1E1E1E1E1E1E1E1E1E1E1E1E1E1E1E1E1E1E1E1E1E1E1E1E1E1E1E1E1E1E1E1E1E1E1E1E1E1E1E1E1E1E1E1E1E1E1E1E1E1E1E1E1E1E1E1E1E1E1E1E1E1E1E1E1E1E1E1E1E1E1E1E1E1E1E1E1E1E1E1E1E1E1E1E10F0F0F0F0F0FBE0F0F0F0F0F0F0F0F0F0F
310
0F0F0F0F0F0F0F0F0F0F0F0F0F0F0F0F0F0F0F0F0F0F0F0F0F0F0F0F0F28E1BEE1E1E1E1E1E1E1E1E1E1E1E1E1E1E1E1E1E1E1E1E1E1E1E1E1E1E1E1E1E1E1E1E1E1E1E1E1E1E1E1E1E1E1E1E1E1E1E1E1E1E1E1E1E1E1E1E1E1E1E1E1E1E1E1BEE1E1E1E1E1E1E1E128E1E1E1E1E1E1E1E1E1E1E1E1E1E1E1E1E1E1E1E1E1
310
E1E1E1E1E1E1E1E1E1E1E1E1E1E1E1E1E1E1E1E1E1E1E1E1E1E1E1E1E1E1E1E1E1E1E1E1E1E1E1E1E1E1E1E1E1E1E1E1E1E1E1E1E1E1E1E1E1E1E1E1E1E1E1E1E1E1E1E1E1E1E1E1E1E1E1E1E1E1E1E1E1E1E1E1E1E1E1E1E1E1E1E1E1E1E1E1E1E1E1E1E1E1E1E1E1E1E1E1E1E1E1E10FBEBEBEBEBEBEBEBEBEBEBEE1E1E1
310
E10FE1E1E1E1E1E1E1E1E1E1E1E1E1BEBEBEBEBEBEBEBEBEBEBEBEBEBEBEE128E1BEE1E1E1E1E1E1E1E1E1E1E1E1E1E1E1E1E1E1E1E1E1E1E1E1E1E1E1E1E1E1E1E1E1E1E1E1E1E1E1E1E1E1E1E1E1E1E1E1E1E1E1E1E1E1E1E1E1E1E1E1E1E1E1E1BEE1E1E1E1E1E1E1E128E1E1E1E1E1E1E1E1E1E1E1E1E1E1E1E1E1E1E1
310
E1E1E1E1E1E1E1E1E1E1E1E1E1E1E1E1E1E1E1E1E1E1E1E1E1E1E1E1E1E1E1E1E1E1E1E1E1E1E1E1E1E1E1E1E1E1E1E1E1E1E1E1E1E1E1E1E1E1E1E1E1E1E1E1E1E1E1E1E1E1E1E1E1E1E1E1E1E1E1E1E1E1E1E1E1E1E1E1E1E1E1E1E1E1E1E1E1E1E1E1E1E1E1E1E1E1E1E1E1E1E1E1E1E10FBEBEBEBEE1BEBEBEBEBEBEE1
310
E1E1E10FE1E1E1E1E1E1E1E1E1E1E1E1E1E1E1E1E1E1E1E2E2E2E2E2E2E2E2E2E128E1BEE1E1E1E1E1E1E1E1E1E1E1E1E1E1E1E1E1E1E1E1E1E1E1E1E1E1E1E1E1E1E1E1E1E1E1E1E1E1E1E1E1E1E1E1E1E1E1E1E1E1E1E1E1E1E1E1E1E1E1E1E1E1E1E1BEE1E1E1E1E1E1E1E128E1E1E1E1E1E1E1E1E1E1E1E1E1E1E1E1E1
310
E1E1E1E1E1E1E1E1E1E1E1E1E1E1E1E1E1E1E1E1E1E1E1E1E1E1E1E1E1E1E1E1E1E1E1E1E1E1E1E1E1E1E1E1E1E1E1E1E1E1E1E1E1E1E1E1E1E1E1E1E1E1E1E1E1E1E1E1E1E1E1E1E1E1E1E1E1E1E1E1E1E1E1E1E1E1E1E1E1E1E1E1E1E1E1E1E1E1E1E1E1E1E1E1E1E1E1E1E1E1E1E1E1E1E1E10FBEBEBEBEBEBEBEBEBEBE
310
BEBEBEBEBEBEE1E1E1E1E1E1E1E1E1E1E1E1E1E1E1E1E1E1E1E2E2E2E2E2E2E2E2E2E128E1BEE1E1E1E1E1E1E1E1E1E1E1E1E1E1E1E1E1E1E1E1E1E1E1E1E1E1E1E1E1E1E1E1E1E1E1E1E1E1E1E1E1E1E1E1E1E1E1E1E1E1E1E1E1E1E1E1E1E1E1E1E1E1E1E1BEE1E1E1E1E1E1E1E128E1E1E1E1E1E1E1E1E1E1E1E1E1E1E1
310
E1E1E1E1E1E1E1E1E1E1E1E1E1E1E1E1E1E1E1E1E1E1E1E1E1E1E1E1E1E1E1E1E1E1E1E1E1E1E1E1E1E1E1E1E1E1E1E1E1E1E1E1E1E1E1E1E1E1E1E1E1E1E1E1E1E1E1E1E1E1E1E1E1E1E1E1E1E1E1E1E1E1E1E1E1E1E1E1E1E1E1E1E1E1E1E1E1E1E1E1E1E1E1E1E1E1E1E1E1E1E1E1E1E1E1E1E1E10FBEBEE1E1E1BEBEE1
310
E1E1E1E1E1E1E10FE1E1E1E1E1E1E1E1E1E1E1E1E1E1E1E1E1E1E1E2E2E2E2E2E2E2E2E2E128E1BEE1E1E1E1E1E1E1E1E1E1E1E1E1E1E1E1E1E1E1E1E1E1E1E1E1E1E1E1E1E1E1E1E1E1E1E1E1E1E1E1E1E1E1E1E1E1E1E1E1E1E1E1E1E1E1E1E1E1E1E1E1E1E1E1BEE1E1E1E1E1E1E1E128E1E1E1E1E1E1E1E1E1E1E1E1E1
310
E1E1E1E1E1E1E1E1E1E1E1E1E1E1E1E1E1E1E1E1E1E1E1E1E1E1E1E1E1E1E1E1E1E1E1E1E1E1E1E1E1E1E1E1E1E1E1E1E1E1E1E1E1E1E1E1E1E1E1E1E1E1E1E1E1E1E1E1E1E1E1E1E1E1E1E1E1E1E1E1E1E1E1E1E1E1E1E1E1E1E1E1E1E1E1E1E1E1E1E1E1E1E1E1E1E1E1E1E1E1E1E1E1E1E1E1E1E1E1E10FBEBEE1E1E1BE
310
BEE1E1E1E1E1E1E1E10FE1E1E1E1E1E1E1E1E1E1E1E1E1E1E1E1E1E1E1E1E1BEE2E2E2E2E2E2E228E1BEE1E1E1E1E1E1E1E1E1E1E1E1E1E1E1E1E1E1E1E1E1E1E1E1E1E1E1E1E1E1E1E1E1E1E1E1E1E1E1E1E1E1E1E1E1E1E1E1E1E1E1E1E1E1E1E1E1E1E1E1E1E1E1E1BEE1E1E1E1E1E1E1E128E1E1E1E1E1E1E1E1E1E1E1
310
E1E1E1E1E1E1E1E1E1E1E1E1E1E1E1E1E1E1E1E1E1E1E1E1E1E1E1E1E1E1E1E1E1E1E1E1E1E1E1E1E1E1E1E1E1E1E1E1E1E1E1E1E1E1E1E1E1E1E1E1E1E1E1E1E1E1E1E1E1E1E1E1E1E1E1E1E1E1E1E1E1E1E1E1E1E1E1E1E1E1E1E1E1E1E1E1E1E1E1E1E1E1E1E1E1E1E1E1E1E1E1E1E1E1E1E1E1E1E1E1E1E10FBEBEE1E1
310
E1BEBEE1E1E1E1E1E1E1E10FE1E1E1E1E1E1E1E1E1E1E1E1E1E1E1E1E1E1E1E1BEBEBEE2BEE2BEBEE228E1BEE1E1E1E1E1E1E1E1E1E1E1E1E1E1E1E1E1E1E1E1E1E1E1E1E1E1E1E1E1E1E1E1E1E1E1E1E1E1E1E1E1E1E1E1E1E1E1E1E1E1E1E1E1E1E1E1E1E1E1E1E1E1E1E1BEE1E1E1E1E1E1E1E128E1E1E1E1E1E1E1E1E1
310
E1E1E1E1E1E1E1E1E1E1E1E1E1E1E1E1E1E1E1E1E1E1E1E1E1E1E1E1E1E1E1E1E1E1E1E1E1E1E1E1E1E1E1E1E1E1E1E1E1E1E1E1E1E1E1E1E1E1E1E1E1E1E1E1E1E1E1E1E1E1E1E1E1E1E1E1E1E1E1E1E1E1E1E1E1E1E1E1E1E1E1E1E1E1E1E1E1E1E1E1E1E1E1E1E1E1E1E1E1E1E1E1E1E1E1E1E1E1E1E1E1E1E1E10FBEBE
310
E1E1E1BEBEE1E1E1E1E1E1E1E10FE1E1E1E1E1E1E1E1E1E1E1E1E1E1E1E1E1E1E1E1BEBEBEBEE2E2E2BEE228E1BEE1E1E1E1E1E1E1E1E1E1E1E1E1E1E1E1E1E1E1E1E1E1E1E1E1E1E1E1E1E1E1E1E1E1E1E1E1E1E1E1E1E1E1E1E1E1E1E1E1E1E1E1E1E1E1E1E1E1E1E1E1E1E1E1BEE1E1E1E1E1E1E1E128E1E1E1E1E1E1E1
310
E1E1E1E1E1E1E1E1E1E1E1E1E1E1E1E1E1E1E1E1E1E1E1E1E1E1E1E1E1E1E1E1E1E1E1E1E1E1E1E1E1E1E1E1E1E1E1E1E1E1E1E1E1E1E1E1E1E1E1E1E1E1E1E1E1E1E1E1E1E1E1E1E1E1E1E1E1E1E1E1E1E1E1E1E1E1E1E1E1E1E1E1E1E1E1E1E1E1E1E1E1E1E1E1E1E1E1E1E1E1E1E1E1E1E1E1E1E1E1E1E1E1E1E1E1E10F
310
BEBEE1E1E1BEBEE1E1E1E1E1E1E1E10FE1E1E1E1E1E1E1E1E1E1E1E1E1E1E1E1E1E1E1E1BEBEBEBEE2E2E1E2E228E1BEE1E1E1E1E1E1E1E1E1E1E1E1E1E1E1E1E1E1E1E1E1E1E1E1E1E1E1E1E1E1E1E1E1E1E1E1E1E1E1E1E1E1E1E1E1E1E1E1E1E1E1E1E1E1E1E1E1E1E1E1E1E1E1E1BEE1E1E1E1E1E1E1E128E1E1E1E1E1
310
E1E1E1E1E1E1E1E1E1E1E1E1E1E1E1E1E1E1E1E1E1E1E1E1E1E1E1E1E1E1E1E1E1E1E1E1E1E1E1E1E1E1E1E1E1E1E1E1E1E1E1E1E1E1E1E1E1E1E1E1E1E1E1E1E1E1E1E1E1E1E1E1E1E1E1E1E1E1E1E1E1E1E1E1E1E1E1E1E1E1E1E1E1E1E1E1E1E1E1E1E1E1E1E1E1E1E1E1E1E1E1E1E1E1E1E1E1E1E1E1E1E1E1E1E1E1E1
310
E10FBEBEE1E1E1BEBEE1E1E1E1E1E1E1E10FE1E1E1E1E1E1E1E1E1E1E1E1E1E1E1E1E1E1E1E1E1BEBEBEE1E2E1E1E228E1BEE1E1E1E1E1E1E1E1E1E1E1E1E1E1E1E1E1E1E1E1E1E1E1E1E1E1E1E1E1E1E1E1E1E1E1E1E1E1E1E1E1E1E1E1E1E1E1E1E1E1E1E1E1E1E1E1E1E1E1E1E1E1E1E1BEE1E1E1E1E1E1E1E128E1E1E1
310
E1E1E1E1E1E1E1E1E1E1E1E1E1E1E1E1E1E1E1E1E1E1E1E1E1E1E1E1E1E1E1E1E1E1E1E1E1E1E1E1E1E1E1E1E1E1E1E1E1E1E1E1E1E1E1E1E1E1E1E1E1E1E1E1E1E1E1E1E1E1E1E1E1E1E1E1E1E1E1E1E1E1E1E1E1E1E1E1E1E1E1E1E1E1E1E1E1E1E1E1E1E1E1E1E1E1E1E1E1E1E1E1E1E1E1E1E1E1E1E1E1E1E1E1E1E1E1
310
E1E1E10FBEBEE1E1E1BEBEE1E1E1E1E1E1E1E10FE1E1E1E1E1E1E1E1E1E1E1E1E1E1E1E1E1E1E1E1E1E1E1E1E1E1E1E1E128E1BEE1E1E1E1E1E1E1E1E1E1E1E1E1E1E1E1E1E1E1E1E1E1E1E1E1E1E1E1E1E1E1E1E1E1E1E1E1E1E1E1E1E1E1E1E1E1E1E1E1E1E1E1E1E1E1E1E1E1E1E1E1E1E1E1BEE1E1E1E1E1E1E1E128E1
310
E1E1E1E1E1E1E1E1E1E1E1E1E1E1E1E1E1E1E1E1E1E1E1E1E1E1E1E1E1E1E1E1E1E1E1E1E1E1E1E1E1E1E1E1E1E1E1E1E1E1E1E1E1E1E1E1E1E1E1E1E1E1E1E1E1E1E1E1E1E1E1E1E1E1E1E1E1E1E1E1E1E1E1E1E1E1E1E1E1E1E1E1E1E1E1E1E1E1E1E1E1E1E1E1E1E1E1E1E1E1E1E1E1E1E1E1E1E1E1E1E1E1E1E1E1E1E1
310
E1E1E1E1E10FBEBEE1E1E1BEBEE1E1E1E1E1E1E1E10FE1E1E1E1E1E1E1E1E1E1E1E1E1E1E1E1E1E1E1E1E1E1E1E1E1E1E1E1E128E1BEE1E1E1E1E1E1E1E1E1E1E1E1E1E1E1E1E1E1E1E1E1E1E1E1E1E1E1E1E1E1E1E1E1E1E1E1E1E1E1E1E1E1E1E1E1E1E1E1E1E1E1E1E1E1E1E1E1E1E1E1E1E1E1E1BEE1E1E1E1E1E1E1E1
310
28E1E1E1E1E1E1E1E1E1E1E1E1E1E1E1E1E1E1E1E1E1E1E1E1E1E1E1E1E1E1E1E1E1E1E1E1E1E1E1E1E1E1E1E1E1E1E1E1E1E1E1E1E1E1E1E1E1E1E1E1E1E1E1E1E1E1E1E1E1E1E1E1E1E1E1E1E1E1E1E1E1E1E1E1E1E1E1E1E1E1E1E1E1E1E1E1E1E1E1E1E1E1E1E1E1E1E1E1E1E1E1E1E1E1E1E1E1E1E1E1E1E1E1E1E1E1
310
E1E1E1E1E1E1E10FE1E1E1E1E1BEE1E1E1E1E1E1E1E1E10FE1E1E1E1E1E1E1E1E1E1E1E1E1E1E1E1E1E1E1E1E1E1E1E1E1E1E1E1E128E1BEE1E1E1E1E1E1E1E1E1E1E1E1E1E1E1E1E1E1E1E1E1E1E1E1E1E1E1E1E1E1E1E1E1E1E1E1E1E1E1E1E1E1E1E1E1E1E1E1E1E1E1E1E1E1E1E1E1E1E1E1E1E1E1E1BEE1E1E1E1E1E1
310
E1E128E1E1E1E1E1E1E1E1E1E1E1E1E1E1E1E1E1E1E1E1E1E1E1E1E1E1E1E1E1E1E1E1E1E1E1E1E1E1E1E1E1E1E1E1E1E1E1E1E1E1E1E1E1E1E1E1E1E1E1E1E1E1E1E1E1E1E1E1E1E1E1E1E1E1E1E1E1E1E1E1E1E1E1E1E1E1E1E1E1E1E1E1E1E1E1E1E1E1E1E1E1E1E1E1E1E1E1E1E1E1E1E1E1E1E1E1E1E1E1E1E1E1E1E1
310
E1E1E1E1E1E1E1E1E10FBEBEE1E1E1BEBEE1E1E1E1E1E1E1E10FE1E1E1E1E1E1E1E1E1E1E1E1E1E1E1E1E1E1E1E1E1E1E1E1E1E1E1E1E128E1BEE1E1E1E1E1E1E1E1E1E1E1E1E1E1E1E1E1E1E1E1E1E1E1E1E1E1E1E1E1E1E1E1E1E1E1E1E1E1E1E1E1E1E1E1E1E1E1E1E1E1E1E1E1E1E1E1E1E1E1E1E1E1E1E1BEE1E1E1E1
310
E1E1E1E128E1E1E1E1E1E1E1E1E1E1E1E1E1E1E1E1E1E1E1E1E1E1E1E1E1E1E1E1E1E1E1E1E1E1E1E1E1E1E1E1E1E1E1E1E1E1E1E1E1E1E1E1E1E1E1E1E1E1E1E1E1E1E1E1E1E1E1E1E1E1E1E1E1E1E1E1E1E1E1E1E1E1E1E1E1E1E1E1E1E1E1E1E1E1E1E1E1E1E1E1E1E1E1E1E1E1E1E1E1E1E1E1E1E1E1E1E1E1E1E1E1E1
310
E1E1E1E1E1E1E1E1E1E1E10F0FBEE1E1E1BEBEE1E1E1E1E1E1E1E10FE1E1E1E1E1E1E1E1E1E1E1E1E1E1E1E1E1E1E1E1E1E1E1E1E1E1E1E1E128E1BEE1E1E1E1E1E1E1E1E1E1E1E1E1E1E1E1E1E1E1E1E1E1E1E1E1E1E1E1E1E1E1E1E1E1E1E1E1E1E1E1E1E1E1E1E1E1E1E1E1E1E1E1E1E1E1E1E1E1E1E1E1E1E1E1BEE1E1
310
E1E1E1E1E1E128E1E1E1E1E1E1E1E1E1E1E1E1E1E1E1E1E1E1E1E1E1E1E1E1E1E1E1E1E1E1E1E1E1E1E1E1E1E1E1E1E1E1E1E1E1E1E1E1E1E1E1E1E1E1E1E1E1E1E1E1E1E1E1E1E1E1E1E1E1E1E1E1E1E1E1E1E1E1E1E1E1E1E1E1E1E1E1E1E1E1E1E1E1E1E1E1E1E1E1E1E1E1E1E1E1E1E1E1E1E1E1E1E1E1E1E1E1E1E1E1
310
E1E1E1E1E1E1E1E1E1E1E1E1E10F0F0F0F0F0F0F0F0F0F0F0F0F0F0F0F0F0F0F0F0F0F0F0F0F0F0F0F0F0F0F0F0F0F0F0F0F0F0F0F0F0F0F0F0F0F28E1BEE1E1E1E1E1E1E1E1E1E1E1E1E1E1E1E1E1E1E1E1E1E1E1E1E1E1E1E1E1E1E1E1E1E1E1E1E1E1E1E1E1E1E1E1E1E1E1E1E1E1E1E1E1E1E1E1E1E1E1E1E1E1E1E1BE
310
E1E1E1E1E1E1E1E128E1E1E1E1E1E1E1E1E1E1E1E1E1E1E1E1E1E1E1E1E1E1E1E1E1E1E1E1E1E1E1E1E1E1E1E1E1E1E1E1E1E1E1E1E1E1E1E1E1E1E1E1E1E1E1E1E1E1E1E1E1E1E1E1E1E1E1E1E1E1E1E1E1E1E1E1E1E1E1E1E1E1E1E1E1E1E1E1E1E1E1E1E1E1E1E1E1E1E1E1E1E1E1E1E1E1E1E1E1E1E1E1E1E1E1E1E1E1
310
E1E1E1E1E1E1E1E1E1E1E1E1E1E1E10FE1E1E1E1E1E1E1E1E1E1E1E1E1E1E1E1E1E1E1E1E1E1E1E1E1E1E1E1E1E1E1E1E1E1E1E1E1E1E1E1E1E1E1E1E128E1BEE1E1E1E1E1E1E1E1E1E1E1E1E1E1E1E1E1E1E1E1E1E1E1E1E1E1E1E1E1E1E1E1E1E1E1E1E1E1E1E1E1E1E1E1E1E1E1E1E1E1E1E1E1E1E1E1E1E1E1E1E1E1E1
310
E1BEE1E1E1E1E1E1E1E128E1E1E1E1E1E1E1E1E1E1E1E1E1E1E1E1E1E1E1E1E1E1E1E1E1E1E1E1E1E1E1E1E1E1E1E1E1E1E1E1E1E1E1E1E1E1E1E1E1E1E1E1E1E1E1E1E1E1E1E1E1E1E1E1E1E1E1E1E1E1E1E1E1E1E1E1E1E1E1E1E1E1E1E1E1E1E1E1E1E1E1E1E1E1E1E1E1E1E1E1E1E1E1E1E1E1E1E1E1E1E1E1E1E1E1E1
310
E1E1E1E1E1E1E1E1E1E1E1E1E1E1E1E1E10FE1E2E2E1E1E1E1E1E1E1E1E1E1E1E1E1E1E1E1E1E1E1E1E1E1E1E1E1E1E1E1E1E1E1E1E1E1E1E1E1E1E1E1E1E128E1BEE1E1E1E1E1E1E1E1E1E1E1E1E1E1E1E1E1E1E1E1E1E1E1E1E1E1E1E1E1E1E1E1E1E1E1E1E1E1E1E1E1E1E1E1E1E1E1E1E1E1E1E1E1E1E1E1E1E1E1E1E1
310
E1E1E1BEE1E1E1E1E1E1E1BE28E1E1E1E1E1E1E1E1E1E1E1E1E1E1E1E1E1E1E1E1E1E1E1E1E1E1E1E1E1E1E1E1E1E1E1E1E1E1E1E1E1E1E1E1E1E1E1E1E1E1E1E1E1E1E1E1E1E1E1E1E1E1E1E1E1E1E1E1E1E1E1E1E1E1E1E1E1E1E1E1E1E1E1E1E1E1E1E1E1E1E1E1E1E1E1E1E1E1E1E1E1E1E1E1E1E1E1E1E1E1E1E1E1E1
310
E1E1E1E1E1E1E1E1E1E1E1E1E1E1E1E1E1E1E10FE1E1E1E1E1E1E1E1E1E1E1E1E1E1E1E1E1E1E1E1E1E1E1E1E1E1E1E1E1E1E1E1E1E1E1E1E1E1E1E1E1E1E1E1E128E1BEE1E1E1E1E1E1E1E1E1E1E1E1E1E1E1E1E1E1E1E1E1E1E1E1E1E1E1E1E1E1E1E1E1E1E1E1E1E1E1E1E1E1E1E1E1E1E1E1E1E1E1E1E1E1E1E1E1E1E1
310
E1E1E1E1E1BEE1E1E1E1E1E1E1BEBEE1E1E1E1E1E1E1E1E1E1E1E1E1E1E1E1E1E1E1E1E1E1E1E1E1E1E1E1E1E1E1E1E1E1E1E1E1E1E1E1E1E1E1E1E1E1E1E1E1E1E1E1E1E1E1E1E1E1E1E1E1E1E1E1E1E1E1E1E1E1E1E1E1E1E1E1E1E1E1E1E1E1E1E1E1E1E1E1E1E1E1E1E1E1E1E1E1E1E1E1E1E1E1E1E1E1E1E1E1E1E1E1
310
E1E1E1E1E1E1E1E1E1E1E1E1E1E1E1E1E1E1E1E1E10FE1E1E1E1E1E1E1E1E1E1E1E1E1E1E1E1E1E1E1E1E1E1E1E1E1E1E1E1E1E1E1E1E1E1E1E1E1E1E1E1E1E1E1E1E128E1BEE1E1E1E1E1E1E1E1E1E1E1E1E1E1E1E1E1E1E1E1E1E1E1E1E1E1E1E1E1E1E1E1E1E1E1E1E1E1E1E1E1E1E1E1E1E1E1E1E1E1E1E1E1E1E1E1E1
310
E1E1E1E1E1E1E1BEE1E1E1E1E1E1E1BEBEE1E1E1E1E1E1E1E1E1E1E1E1E1E1E1E1E1E1E1E1E1E1E1E1E1E1E1E1E1E1E1E1E1E1E1E1E1E1E1E1E1E1E1E1E1E1E1E1E1E1E1E1E1E1E1E1E1E1E1E1E1E1E1E1E1E1E1E1E1E1E1E1E1E1E1E1E1E1E1E1E1E1E1E1E1E1E1E1E1E1E1E1E1E1E1E1E1E1E1E1E1E1E1E1E1E1E1E1E1E1
310
E1E1E1E1E1E1E1E1E1E1E1E1E1E1E1E1E1E1E1E1E1E1E10FE1E2E2E2E2E2E2E2E2E2E2E2E2E2E2E2E2E2E2E2E2E2E1E2E2E2E2E2E2E2E2E2E2E2E1E2E2E2E2E2E2E2E2E2E128E1BEE1E1E1E1E1E1E1E1E1E1E1E1E1E1E1E1E1E1E1E1E1E1E1E1E1E1E1E1E1E1E1E1E1E1E1E1E1E1E1E1E1E1E1E1E1E1E1E1E1E1E1E1E1E1E1
310
E1E1E1E1E1E1E1E1E1BEE1E1E1E1E1E1E1BEBEE1E1E1E1E1E1E1E1E1E1E1E1E1E1E1E1E1E1E1E1E1E1E1E1E1E1E1E1E1E1E1E1E1E1E1E1E1E1E1E1E1E1E1E1E1E1E1E1E1E1E1E1E1E1E1E1E1E1E1E1E1E1E1E1E1E1E1E1E1E1E1E1E1E1E1E1E1E1E1E1E1E1E1E1E1E1E1E1E1E1E1E1E1E1E1E1E1E1E1E1E1E1E1E1E1E1E1E1
310
E1E1E1E1E1E1E1E1E1E1E1E1E1E1E1E1E1E1E1E1E1E1E1E1E10FE1E2E1E2E2E2E2E2E2E2E2E2E2E2E2E2E2E2E2E2E2E1E2E2E2E2E2E2E2E2E2E2E2E2E1E2E2E2E2E2E2E2E2E2E128E1BEE1E1E1E1E1E1E1E1E1E1E1E1E1E1E1E1E1E1E1E1E1E1E1E1E1E1E1E1E1E1E1E1E1E1E1E1E1E1E1E1E1E1E1E1E1E1E1E1E1E1E1E1E1
310
E1E1E1E1E1E1E1E1E1E1E1BEE1E1E1E1E1E1E1BEBEE1E1E1E1E1E1E1E1E1E1E1E1E1E1E1E1E1E1E1E1E1E1E1E1E1E1E1E1E1E1E1E1E1E1E1E1E1E1E1E1E1E1E1E1E1E1E1E1E1E1E1E1E1E1E1E1E1E1E1E1E1E1E1E1E1E1E1E1E1E1E1E1E1E1E1E1E1E1E1E1E1E1E1E1E1E1E1E1E1E1E1E1E1E1E1E1E1E1E1E1E1E1E1E1E1E1
310
E1E1E1E1E1E1E1E1E1E1E1E1E1E1E1E1E1E1E1E1E1E1E1E1E1E1E10FE1E2E2E1E2E1E2E1E1E1E1E1E1E2E2E1E1E1E1E1E1E1E2E2E2E1E2E1E2E1E1E1E1E1E1E1E2E1E1E1E2E1E1E1E128E1BEE1E1E1E1E1E1E1E1E1E1E1E1E1E1E1E1E1E1E1E1E1E1E1E1E1E1E1E1E1E1E1E1E1E1E1E1E1E1E1E1E1E1E1E1E1E1E1E1E1E1E1
310
E1E1E1E1E1E1E1E1E1E1E1E1E1BEE1E1E1E1E1E1E1BEBEE1E1E1E1E1E1E1E1E1E1E1E1E1E1E1E1E1E1E1E1E1E1E1E1E1E1E1E1E1E1E1E1E1E1E1E1E1E1E1E1E1E1E1E1E1E1E1E1E1E1E1E1E1E1E1E1E1E1E1E1E1E1E1E1E1E1E1E1E1E1E1E1E1E1E1E1E1E1E1E1E1E1E1E1E1E1E1E1E1E1E1E1E1E1E1E1E1E1E1E1E1E1E1E1
310
E1E1E1E1E1E1E1E1E1E1E1E1E1E1E1E1E1E1E1E1E1E1E1E1E1E1E1E1E10FE1E2E2E2E2E2E1E1E2E2E2E2E2E2E2E2E1E1E1E1E1E1E1E1E1E1E1E1E1E1E1E1E1E1E1E1E1E1E1E1E1E1E1E1E128E1BEE1E1E1E1E1E1E1E1E1E1E1E1E1E1E1E1E1E1E1E1E1E1E1E1E1E1E1E1E1E1E1E1E1E1E1E1E1E1E1E1E1E1E1E1E1E1E1E1E1
310
E1E1E1E1E1E1E1E1E1E1E1E1E1E1E1BEE1E1E1E1E1E1E1BEBEE1E1E1E1E1E1E1E1E1E1E1E1E1E1E1E1E1E1E1E1E1E1E1E1E1E1E1E1E1E1E1E1E1E1E1E1E1E1E1E1E1E1E1E1E1E1E1E1E1E1E1E1E1E1E1E1E1E1E1E1E1E1E1E1E1E1E1E1E1E1E1E1E1E1E1E1E1E1E1E1E1E1E1E1E1E1E1E1E1E1E1E1E1E1E1E1E1E1E1E1E1E1
310
E1E1E1E1E1E1E1E1E1E1E1E1E1E1E1E1E1E1E1E1E1E1E1E1E1E1E1E1E1E1E10FE1E1E2E2E2E2E1E2E2E2E2E2E2E1E2E2E1E1E1E1E1E1E1E1E1E1E1E1E1E1E1E1E1E1E1E1E1E1E1E1E1E1E1E1E128E1BEE1E1E1E1E1E1E1E1E1E1E1E1E1E1E1E1E1E1E1E1E1E1E1E1E1E1E1E1E1E1E1E1E1E1E1E1E1E1E1E1E1E1E1E1E1E1E1
310
E1E1E1E1E1E1E1E1E1E1E1E1E1E1E1E1E1BEE1E1E1E1E1E1E1BEBEE1E1E1E1E1E1E1E1E1E1E1E1E1E1E1E1E1E1E1E1E1E1E1E1E1E1E1E1E1E1E1E1E1E1E1E1E1E1E1E1E1E1E1E1E1E1E1E1E1E1E1E1E1E1E1E1E1E1E1E1E1E1E1E1E1E1E1E1E1E1E1E1E1E1E1E1E1E1E1E1E1E1E1E1E1E1E1E1E1E1E1E1E1E1E1E1E1E1E1E1
310
E1E1E1E1E1E1E1E1E1E1E1E1E1E1E1E1E1E1E1E1E1E1E1E1E1E1E1E1E1E1E1E1E10FE1E1E2E2E2E2E2E1E2E2E2E1E2E2E2E1E1E1E1E1E1E1E1E1E1E1E1E1E1E1E1E1E1E1E1E1E1E1E1E1E1E1E1E1E128E1BEE1E1E1E1E1E1E1E1E1E1E1E1E1E1E1E1E1E1E1E1E1E1E1E1E1E1E1E1E1E1E1E1E1E1E1E1E1E1E1E1E1E1E1E1E1
310
E1E1E1E1E1E1E1E1E1E1E1E1E1E1E1E1E1E1E1BEE1E1E1E1E1E1E1BEBEE1E1E1E1E1E1E1E1E1E1E1E1E1E1E1E1E1E1E1E1E1E1E1E1E1E1E1E1E1E1E1E1E1E1E1E1E1E1E1E1E1E1E1E1E1E1E1E1E1E1E1E1E1E1E1E1E1E1E1E1E1E1E1E1E1E1E1E1E1E1E1E1E1E1E1E1E1E1E1E1E1E1E1E1E1E1E1E1E1E1E1E1E1E1E1E1E1E1
310
E1E1E1E1E1E1E1E1E1E1E1E1E1E1E1E1E1E1E1E1E1E1E1E1E1E1E1E1E1E1E1E1E1E1E10FE1E2E2E2E1E2E2E2E2E2E2E2E1E1E2E2E2E2E2E2E2E2E2E2E1E1E1E1E1E1E1E1E1E1E1E1E1E1E1E1E1E1E1E1E128E1BEE1E1E1E1E1E1E1E1E1E1E1E1E1E1E1E1E1E1E1E1E1E1E1E1E1E1E1E1E1E1E1E1E1E1E1E1E1E1E1E1E1E1E1
310
E1E1E1E1E1E1E1E1E1E1E1E1E1E1E1E1E1E1E1E1E1BEE1E1E1E1E1E1E1BEBEE1E1E1E1E1E1E1E1E1E1E1E1E1E1E1E1E1E1E1E1E1E1E1E1E1E1E1E1E1E1E1E1E1E1E1E1E1E1E1E1E1E1E1E1E1E1E1E1E1E1E1E1E1E1E1E1E1E1E1E1E1E1E1E1E1E1E1E1E1E1E1E1E1E1E1E1E1E1E1E1E1E1E1E1E1E1E1E1E1E1E1E1E1E1E1E1
310
E1E1E1E1E1E1E1E1E1E1E1E1E1E1E1E1E1E1E1E1E1E1E1E1E1E1E1E1E1E1E1E1E1E1E1E1E10FE1E1E2E2E2E2E2E2E2E2E1E1E2E1E1E2E2E2E2E2E2E2E2E2E1E1E1E1E1E1E1E1E1E1E1E1E1E1E1E1E1E1E1E1E128E1BEE1E1E1E1E1E1E1E1E1E1E1E1E1E1E1E1E1E1E1E1E1E1E1E1E1E1E1E1E1E1E1E1E1E1E1E1E1E1E1E1E1
310
E1E1E1E1E1E1E1E1E1E1E1E1E1E1E1E1E1E1E1E1E1E1E1BEE1E1E1E1E1E1E1BEBEE1E1E1E1E1E1E1E1E1E1E1E1E1E1E1E1E1E1E1E1E1E1E1E1E1E1E1E1E1E1E1E1E1E1E1E1E1E1E1E1E1E1E1E1E1E1E1E1E1E1E1E1E1E1E1E1E1E1E1E1E1E1E1E1E1E1E1E1E1E1E1E1E1E1E1E1E1E1E1E1E1E1E1E1E1E1E1E1E1E1E1E1E1E1
310
E1E1E1E1E1E1E1E1E1E1E1E1E1E1E1E1E1E1E1E1E1E1E1E1E1E1E1E1E1E1E1E1E1E1E1E1E1E1E10F0F0F0F0F0F0F0F0F0F0F0F0F0F0F0F0F0F0F0F0F0F0F0F0F0F0F0F0F0F0F0F0F0F0F0F0F0F0F0F0F0F0F0F0F0F28E1BEE1E1E1E1E1E1E1E1E1E1E1E1E1E1E1E1E1E1E1E1E1E1E1E1E1E1E1E1E1E1E1E1E1E1E1E1E1E1E1
310
E1E1E1E1E1E1E1E1E1E1E1E1E1E1E1E1E1E1E1E1E1E1E1E1E1BEE1E1E1E1E1E1E1BEBEE1E1E1E1E1E1E1E1E1E1E1E1E1E1E1E1E1E1E1E1E1E1E1E1E1E1E1E1E1E1E1E1E1E1E1E1E1E1E1E1E1E1E1E1E1E1E1E1E1E1E1E1E1E1E1E1E1E1E1E1E1E1E1E1E1E1E1E1E1E1E1E1E1E1E1E1E1E1E1E1E1E1E1E1E1E1E1E1E1E1E1E1
310
E1E1E1E1E1E1E1E1E1E1E1E1E1E1E1E1E1E1E1E1E1E1E1E1E1E1E1E1E1E1E1E1E1E1E1E1E1E1E1E1E10FE1E1E1E1E1E1E1E1E1E1E1E2E2E2E2E2E2E2E2E2E2E2E2E2E2E2E1E2E2E2E1E1E1E1E1E1E1E1E1E1E1E1E1E1E128E1BEE1E1E1E1E1E1E1E1E1E1E1E1E1E1E1E1E1E1E1E1E1E1E1E1E1E1E1E1E1E1E1E1E1E1E1E1E1
310
E1E1E1E1E1E1E1E1E1E1E1E1E1E1E1E1E1E1E1E1E1E1E1E1E1E1E1BEE1E1E1E1E1E1E1BEBEE1E1E1E1E1E1E1E1E1E1E1E1E1E1E1E1E1E1E1E1E1E1E1E1E1E1E1E1E1E1E1E1E1E1E1E1E1E1E1E1E1E1E1E1E1E1E1E1E1E1E1E1E1E1E1E1E1E1E1E1E1E1E1E1E1E1E1E1E1E1E1E1E1E1E1E1E1E1E1E1E1E1E1E1E1E1E1E1E1E1
310
E1E1E1E1E1E1E1E1E1E1E1E1E1E1E1E1E1E1E1E1E1E1E1E1E1E1E1E1E1E1E1E1E1E1E1E1E1E1E1E1E1E1E10FE1E1E1E1E1E1E1E1E1E1E1E2E2E2E1E2E2E2E2E2E2E1E1E2E2E2E2E2E2E2E1E1E1E1E1E1E1E1E1E1E1E1E1E1E128E1BEE1E1E1E1E1E1E1E1E1E1E1E1E1E1E1E1E1E1E1E1E1E1E1E1E1E1E1E1E1E1E1E1E1E1E1
310
E1E1E1E1E1E1E1E1E1E1E1E1E1E1E1E1E1E1E1E1E1E1E1E1E1E1E1E1E1BEE1E1E1E1E1E1E1BEBEE1E1E1E1E1E1E1E1E1E1E1E1E1E1E1E1E1E1E1E1E1E1E1E1E1E1E1E1E1E1E1E1E1E1E1E1E1E1E1E1E1E1E1E1E1E1E1E1E1E1E1E1E1E1E1E1E1E1E1E1E1E1E1E1E1E1E1E1E1E1E1E1E1E1E1E1E1E1E1E1E1E1E1E1E1E1E1E1
310
E1E1E1E1E1E1E1E1E1E1E1E1E1E1E1E1E1E1E1E1E1E1E1E1E1E1E1E1E1E1E1E1E1E1E1E1E1E1E1E1E1E1E1E1E10FE1E1E1E1E1E1E1E1E1E1E1E2E2E2E2E2E2E2E2E2E2E1E2E2E2E2E2E2E2E2E1E1E1E1E1E1E1E1E1E1E1E1E1E1E128E1BEE1E1E1E1E1E1E1E1E1E1E1E1E1E1E1E1E1E1E1E1E1E1E1E1E1E1E1E1E1E1E1E1E1
310
E1E1E1E1E1E1E1E1E1E1E1E1E1E1E1E1E1E1E1E1E1E1E1E1E1E1E1E1E1E1E1BEE1E1E1E1E1E1E1BEBEE1E1E1E1E1E1E1E1E1E1E1E1E1E1E1E1E1E1E1E1E1E1E1E1E1E1E1E1E1E1E1E1E1E1E1E1E1E1E1E1E1E1E1E1E1E1E1E1E1E1E1E1E1E1E1E1E1E1E1E1E1E1E1E1E1E1E1E1E1E1E1E1E1E1E1E1E1E1E1E1E1E1E1E1E1E1
310
E1E1E1E1E1E1E1E1E1E1E1E1E1E1E1E1E1E1E1E1E1E1E1E1E1E1E1E1E1E1E1E1E1E1E1E1E1E1E1E1E1E1E1E1E1E1E10FE1E1E1E1E1E1E1E1E1E10F0FE1E1E1E1E1E1E1E1E1E1E1E1E10F0FE1E1E1E1E1E1E1E1E1E1E1E1E1E1E1E1E1E128E1BEE1E1E1E1E1E1E1E1E1E1E1E1E1E1E1E1E1E1E1E1E1E1E1E1E1E1E1E1E1E1E1
310
E1E1E1E1E1E1E1E1E1E1E1E1E1E1E1E1E1E1E1E1E1E1E1E1E1E1E1E1E1E1E1E1E1BEE1E1E1E1E1E1E1BEBEE1E1E1E1E1E1E1E1E1E1E1E1E1E1E1E1E1E1E1E1E1E1E1E1E1E1E1E1E1E1E1E1E1E1E1E1E1E1E1E1E1E1E1E1E1E1E1E1E1E1E1E1E1E1E1E1E1E1E1E1E1E1E1E1E1E1E1E1E1E1E1E1E1E1E1E1E1E1E1E1E1E1E1E1
310
E1E1E1E1E1E1E1E1E1E1E1E1E1E1E1E1E1E1E1E1E1E1E1E1E1E1E1E1E1E1E1E1E1E1E1E1E1E1E1E1E1E1E1E1E1E1E1E1E10FE10F0F0F0F0F0F0F0F0F0F0F0F0F0F0F0F0FE10F0F0F0F0F0F0F0F0F0F0F0F0FE1E1E1E1E1E1E1E1E1E1E1E1E128E1BEE1E1E1E1E1E1E1E1E1E1E1E1E1E1E1E1E1E1E1E1E1E1E1E1E1E1E1E1E1
310
E1E1E1E1E1E1E1E1E1E1E1E1E1E1E1E1E1E1E1E1E1E1E1E1E1E1E1E1E1E1E1E1E1E1E1BEE1E1E1E1E1E1E1BEBEE1E1E1E1E1E1E1E1E1E1E1E1E1E1E1E1E1E1E1E1E1E1E1E1E1E1E1E1E1E1E1E1E1E1E1E1E1E1E1E1E1E1E1E1E1E1E1E1E1E1E1E1E1E1E1E1E1E1E1E1E1E1E1E1E1E1E1E1E1E1E1E1E1E1E1E1E1E1E1E1E1E1
310
E1E1E1E1E1E1E1E1E1E1E1E1E1E1E1E1E1E1E1E1E1E1E1E1E1E1E1E1E1E1E1E1E1E1E1E1E1E1E1E1E1E1E1E1E1E1E1E1E1E1E10F0F0F0F0F0F0F0F0F0F0F0F0F0F0F0F0F0F0F0F0F0F0F0F0F0F0F0F0F0F0F0F0F0F0F0F0F0F0F0F0F0F0F0F0F0F28E1BEE1E1E1E1E1E1E1E1E1E1E1E1E1E1E1E1E1E1E1E1E1E1E1E1E1E1E1
310
E1E1E1E1E1E1E1E1E1E1E1E1E1E1E1E1E1E1E1E1E1E1E1E1E1E1E1E1E1E1E1E1E1E1E1E1E1BEE1E1E1E1E1E1E1BEBEE1E1E1E1E1E1E1E1E1E1E1E1E1E1E1E1E1E1E1E1E1E1E1E1E1E1E1E1E1E1E1E1E1E1E1E1E1E1E1E1E1E1E1E1E1E1E1E1E1E1E1E1E1E1E1E1E1E1E1E1E1E1E1E1E1E1E1E1E1E1E1E1E1E1E1E1E1E1E1E1
310
E1E1E1E1E1E1E1E1E1E1E1E1E1E1E1E1E1E1E1E1E1E1E1E1E1E1E1E1E1E1E1E1E1E1E1E1E1E1E1E1E1E1E1E1E1E1E1E1E1E1E1E1E10FE1E1E1E1E1E1E1E1E1E1E1E1E1E1E1E1E1E1E1E1E1E1E1E1E1E1E1E1E1E1E1E1E1E1E1E1E1E1E1E10F0F0F0F0F28E1BEE1E1E1E1E1E1E1E1E1E1E1E1E1E1E1E1E1E1E1E1E1E1E1E1E1
310
E1E1E1E1E1E1E1E1E1E1E1E1E1E1E1E1E1E1E1E1E1E1E1E1E1E1E1E1E1E1E1E1E1E1E1E1E1E1E1BEE1E1E1E1E1E1E1BEBEE1E1E1E1E1E1E1E1E1E1E1E1E1E1E1E1E1E1E1E1E1E1E1E1E1E1E1E1E1E1E1E1E1E1E1E1E1E1E1E1E1E1E1E1E1E1E1E1E1E1E1E1E1E1E1E1E1E1E1E1E1E1E1E1E1E1E1E1E1E1E1E1E1E1E1E1E1E1
310
E1E1E1E1E1E1E1E1E1E1E1E1E1E1E1E1E1E1E1E1E1E1E1E1E1E1E1E1E1E1E1E1E1E1E1E1E1E1E1E1E1E1E1E1E1E1E1E1E1E1E1E1E1E1E10FE1BEBEBEBEBEBEE1E1E1E1E2E2E2E1E1E1E1E1E1E1E1E1E1E1E1E1E1E1E1E1E1E1E1E1E1E10F0F0FBEBEBEBEBE28E1BEE1E1E1E1E1E1E1E1E1E1E1E1E1E1E1E1E1E1E1E1E1E1E1
310
E1E1E1E1E1E1E1E1E1E1E1E1E1E1E1E1E1E1E1E1E1E1E1E1E1E1E1E1E1E1E1E1E1E1E1E1E1E1E1E1E1BEE1E1E1E1E1E1E1BEBEE1E1E1E1E1E1E1E1E1E1E1E1E1E1E1E1E1E1E1E1E1E1E1E1E1E1E1E1E1E1E1E1E1E1E1E1E1E1E1E1E1E1E1E1E1E1E1E1E1E1E1E1E1E1E1E1E1E1E1E1E1E1E1E1E1E1E1E1E1E1E1E1E1E1E1E1
310
E1E1E1E1E1E1E1E1E1E1E1E1E1E1E1E1E1E1E1E1E1E1E1E1E1E1E1E1E1E1E1E1E1E1E1E1E1E1E1E1E1E1E1E1E1E1E1E1E1E1E1E1E1E1E1E1E10FE1BEBEBEBEBEBEBEBEE1E1E2E2E2E1E1E1E1E1E1E1E1E1E1E1E1E1E1E1E1E1E1E1E1E1E1E10F0FE1E10F0F0F0F28E1BEE1E1E1E1E1E1E1E1E1E1E1E1E1E1E1E1E1E1E1E1E1
310
E1E1E1E1E1E1E1E1E1E1E1E1E1E1E1E1E1E1E1E1E1E1E1E1E1E1E1E1E1E1E1E1E1E1E1E1E1E1E1E1E1E1E1BEE1E1E1E1E1E1E1BEBEE1E1E1E1E1E1E1E1E1E1E1E1E1E1E1E1E1E1E1E1E1E1E1E1E1E1E1E1E1E1E1E1E1E1E1E1E1E1E1E1E1E1E1E1E1E1E1E1E1E1E1E1E1E1E1E1E1E1E1E1E1E1E1E1E1E1E1E1E1E1E1E1E1E1
310
E1E1E1E1E1E1E1E1E1E1E1E1E1E1E1E1E1E1E1E1E1E1E1E1E1E1E1E1E1E1E1E1E1E1E1E1E1E1E1E1E1E1E1E1E1E1E1E1E1E1E1E1E1E1E1E1E1E1E10FE1BEBEBEBEBEBEBEBEBEE1E2E1E2E1E1E1E1E1E1E1E1E1E1E1E1E1E1E1E1E1E1E1E1E1E1E1E1E10F0F0FE10FE128E1BEE1E1E1E1E1E1E1E1E1E1E1E1E1E1E1E1E1E1E1
310
E1E1E1E1E1E1E1E1E1E1E1E1E1E1E1E1E1E1E1E1E1E1E1E1E1E1E1E1E1E1E1E1E1E1E1E1E1E1E1E1E1E1E1E1E1BEE1E1E1E1E1E1E1BEBEE1E1E1E1E1E1E1E1E1E1E1E1E1E1E1E1E1E1E1E1E1E1E1E1E1E1E1E1E1E1E1E1E1E1E1E1E1E1E1E1E1E1E1E1E1E1E1E1E1E1E1E1E1E1E1E1E1E1E1E1E1E1E1E1E1E1E1E1E1E1E1E1
310
E1E1E1E1E1E1E1E1E1E1E1E1E1E1E1E1E1E1E1E1E1E1E1E1E1E1E1E1E1E1E1E1E1E1E1E1E1E1E1E1E1E1E1E1E1E1E1E1E1E1E1E1E1E1E1E1E1E1E1E1E1E10F0F0F0F0F0F0F0F0F0F0F0F0F0F0F0F0F0F0F0F0F0F0F0F0F0F0F0F0F0F0F0F0F0F0F0F0F0F0F0F0F0F0F0F0F28E1BEE1E1E1E1E1E1E1E1E1E1E1E1E1E1E1E1E1
310
E1E1E1E1E1E1E1E1E1E1E1E1E1E1E1E1E1E1E1E1E1E1E1E1E1E1E1E1E1E1E1E1E1E1E1E1E1E1E1E1E1E1E1E1E1E1E1BEE1E1E1E1E1E1E1BEBEE1E1E1E1E1E1E1E1E1E1E1E1E1E1E1E1E1E1E1E1E1E1E1E1E1E1E1E1E1E1E1E1E1E1E1E1E1E1E1E1E1E1E1E1E1E1E1E1E1E1E1E1E1E1E1E1E1E1E1E1E1E1E1E1E1E1E1E1E1E1
310
E1E1E1E1E1E1E1E1E1E1E1E1E1E1E1E1E1E1E1E1E1E1E1E1E1E1E1E1E1E1E1E1E1E1E1E1E1E1E1E1E1E1E1E1E1E1E1E1E1E1E1E1E1E1E1E1E1E1E1E1E1E1E1E1E1E1E1E1E1E1E1E1E1E1E1E1E1E1E1E1E1E1E1E1E1E1E1E1E1E1E1E1E1E1E1E1E1E1E1E1E1E1E1E1E1E1E1E1E128E1BEE1E1E1E1E1E1E1E1E1E1E1E1E1E1E1
310
E1E1E1E1E1E1E1E1E1E1E1E1E1E1E1E1E1E1E1E1E1E1E1E1E1E1E1E1E1E1E1E1E1E1E1E1E1E1E1E1E1E1E1E1E1E1E1E1E1BEE1E1E1E1E1E1E1BEBEE1E1E1E1E1E1E1E1E1E1E1E1E1E1E1E1E1E1E1E1E1E1E1E1E1E1E1E1E1E1E1E1E1E1E1E1E1E1E1E1E1E1E1E1E1E1E1E1E1E1E1E1E1E1E1E1E1E1E1E1E1E1E1E1E1E1E1E1
310
E1E1E1E1E1E1E1E1E1E1E1E1E1E1E1E1E1E1E1E1E1E1E1E1E1E1E1E1E1E1E1E1E1E1E1E1E1E1E1E1E1E1E1E1E1E1E1E1E1E1E1E1E1E1E1E1E1E1E1E1E1E1E1E1E1E1E1E1E1E1E1E1E1E1E1E1E1E1E1E1E1E1E1E1E1E1E1E1E1E1E1E1E1E1E1E1E1E1E1E1E1E1E1E1E1E1E1E1E1E1E128E1BEE1E1E1E1E1E1E1E1E1E1E1E1E1
310
E1E1E1E1E1E1E1E1E1E1E1E1E1E1E1E1E1E1E1E1E1E1E1E1E1E1E1E1E1E1E1E1E1E1E1E1E1E1E1E1E1E1E1E1E1E1E1E1E1E1E1BEE1E1E1E1E1E1E1BEBEE1E1E1E1E1E1E1E1E1E1E1E1E1E1E1E1E1E1E1E1E1E1E1E1E1E1E1E1E1E1E1E1E1E1E1E1E1E1E1E1E1E1E1E1E1E1E1E1E1E1E1E1E1E1E1E1E1E1E1E1E1E1E1E1E1E1
310
E1E1E1E1E1E1E1E1E1E1E1E1E1E1E1E1E1E1E1E1E1E1E1E1E1E1E1E1E1E1E1E1E1E1E1E1E1E1E1E1E1E1E1E1E1E1E1E1E1E1E1E1E1E1E1E1E1E1E1E1E1E1E1E1E1E1E1E1E1E1E1E1E1E1E1E1E1E1E1E1E1E1E1E1E1E1E1E1E1E1E1E1E1E1E1E1E1E1E1E1E1E1E1E1E1E1E1E1E1E1E1E1E128E1BEE1E1E1E1E1E1E1E1E1E1E1
310
E1E1E1E1E1E1E1E1E1E1E1E1E1E1E1E1E1E1E1E1E1E1E1E1E1E1E1E1E1E1E1E1E1E1E1E1E1E1E1E1E1E1E1E1E1E1E1E1E1E1E1E1E1BEE1E1E1E1E1E1E1BEBEE1E1E1E1E1E1E1E1E1E1E1E1E1E1E1E1E1E1E1E1E1E1E1E1E1E1E1E1E1E1E1E1E1E1E1E1E1E1E1E1E1E1E1E1E1E1E1E1E1E1E1E1E1E1E1E1E1E1E1E1E1E1E1E1
310
E1E1E1E1E1E1E1E1E1E1E1E1E1E1E1E1E1E1E1E1E1E1E1E1E1E1E1E1E1E1E1E1E1E1E1E1E1E1E1E1E1E1E1E1E1E1E1E1E1E1E1E1E1E1E1E1E1E1E1E1E1E1E1E1E1E1E1E1E1E1E1E1E1E1E1E1E1E1E1E1E1E1E1E1E1E1E1E1E1E1E1E1E1E1E1E1E1E1E1E1E1E1E1E1E1E1E1E1E1E1E1E1E1E1E128E1BEE1E1E1E1E1E1E1E1E1
310
E1E1E1E1E1E1E1E1E1E1E1E1E1E1E1E1E1E1E1E1E1E1E1E1E1E1E1E1E1E1E1E1E1E1E1E1E1E1E1E1E1E1E1E1E1E1E1E1E1E1E1E1E1E1E1BEE1E1E1E1E1E1E1BEBEE1E1E1E1E1E1E1E1E1E1E1E1E1E1E1E1E1E1E1E1E1E1E1E1E1E1E1E1E1E1E1E1E1E1E1E1E1E1E1E1E1E1E1E1E1E1E1E1E1E1E1E1E1E1E1E1E1E1E1E1E1E1
310
E1E1E1E1E1E1E1E1E1E1E1E1E1E1E1E1E1E1E1E1E1E1E1E1E1E1E1E1E1E1E1E1E1E1E1E1E1E1E1E1E1E1E1E1E1E1E1E1E1E1E1E1E1E1E1E1E1E1E1E1E1E1E1E1E1E1E1E1E1E1E1E1E1E1E1E1E1E1E1E1E1E1E1E1E1E1E1E1E1E1E1E1E1E1E1E1E1E1E1E1E1E1E1E1E1E1E1E1E1E1E1E1E1E1E1E1E128E1BEE1E1E1E1E1E1E1
310
E1E1E1E1E1E1E1E1E1E1E1E1E1E1E1E1E1E1E1E1E1E1E1E1E1E1E1E1E1E1E1E1E1E1E1E1E1E1E1E1E1E1E1E1E1E1E1E1E1E1E1E1E1E1E1E1E1BEE1E1E1E1E1E1E1BEBEE1E1E1E1E1E1E1E1E1E1E1E1E1E1E1E1E1E1E1E1E1E1E1E1E1E1E1E1E1E1E1E1E1E1E1E1E1E1E1E1E1E1E1E1E1E1E1E1E1E1E1E1E1E1E1E1E1E1E1E1
310
E1E1E1E1E1E1E1E1E1E1E1E1E1E1E1E1E1E1E1E1E1E1E1E1E1E1E1E1E1E1E1E1E1E1E1E1E1E1E1E1E1E1E1E1E1E1E1E1E1E1E1E1E1E1E1E1E1E1E1E1E1E1E1E1E1E1E1E1E1E1E1E1E1E1E1E1E1E1E1E1E1E1E1E1E1E1E1E1E1E1E1E1E1E1E1E1E1E1E1E1E1E1E1E1E1E1E1E1E1E1E1E1E1E1E1E1E1E1E128E1BEE1E1E1E1E1
310
E1E1E1E1E1E1E1E1E1E1E1E1E1E1E1E1E1E1E1E1E1E1E1E1E1E1E1E1E1E1E1E1E1E1E1E1E1E1E1E1E1E1E1E1E1E1E1E1E1E1E1E1E1E1E1E1E1E1E1BEE1E1E1E1E1E1E1BEBEE1E1E1E1E1E1E1E1E1E1E1E1E1E1E1E1E1E1E1E1E1E1E1E1E1E1E1E1E1E1E1E1E1E1E1E1E1E1E1E1E1E1E1E1E1E1E1E1E1E1E1E1E1E1E1E1E1E1
310
E1E1E1E1E1E1E1E1E1E1E1E1E1E1E1E1E1E1E1E1E1E1E1E1E1E1E1E1E1E1E1E1E1E1E1E1E1E1E1E1E1E1E1E1E1E1E1E1E1E1E1E1E1E1E1E1E1E1E1E1E1E1E1E1E1E1E1E1E1E1E1E1E1E1E1E1E1E1E1E1E1E1E1E1E1E1E1E1E1E1E1E1E1E1E1E1E1E1E1E1E1E1E1E1E1E1E1E1E1E1E1E1E1E1E1E1E1E1E1E1E128E1BEE1E1E1
310
E1E1E1E1E1E1E1E1E1E1E1E1E1E1E1E1E1E1E1E1E1E1E1E1E1E1E1E1E1E1E1E1E1E1E1E1E1E1E1E1E1E1E1E1E1E1E1E1E1E1E1E1E1E1E1E1E1E1E1E1E1BEE1E1E1E1E1E1E1BEBEE1E1E1E1E1E1E1E1E1E1E1E1E1E1E1E1E1E1E1E1E1E1E1E1E1E1E1E1E1E1E1E1E1E1E1E1E1E1E1E1E1E1E1E1E1E1E1E1E1E1E1E1E1E1E1E1
310
E1E1E1E1E1E1E1E1E1E1E1E1E1E1E1E1E1E1E1E1E1E1E1E1E1E1E1E1E1E1E1E1E1E1E1E1E1E1E1E1E1E1E1E1E1E1E1E1E1E1E1E1E1E1E1E1E1E1E1E1E1E1E1E1E1E1E1E1E1E1E1E1E1E1E1E1E1E1E1E1E1E1E1E1E1E1E1E1E1E1E1E1E1E1E1E1E1E1E1E1E1E1E1E1E1E1E1E1E1E1E1E1E1E1E1E1E1E1E1E1E1E1E128E1BEE1
310
E1E1E1E1E1E1E1E1E1E1E1E1E1E1E1E1E1E1E1E1E1E1E1E1E1E1E1E1E1E1E1E1E1E1E1E1E1E1E1E1E1E1E1E1E1E1E1E1E1E1E1E1E1E1E1E1E1E1E1E1E1E1E1BEE1E1E1E1E1E1E1BEBEE1E1E1E1E1E1E1E1E1E1E1E1E1E1E1E1E1E1E1E1E1E1E1E1E1E1E1E1E1E1E1E1E1E1E1E1E1E1E1E1E1E1E1E1E1E1E1E1E1E1E1E1E1E1
310
E1E1E1E1E1E1E1E1E1E1E1E1E1E1E1E1E1E1E1E1E1E1E1E1E1E1E1E1E1E1E1E1E1E1E1E1E1E1E1E1E1E1E1E1E1E1E1E1E1E1E1E1E1E1E1E1E1E1E1E1E1E1E1E1E1E1E1E1E1E1E1E1E1E1E1E1E1E1E1E1E1E1E1E1E1E1E1E1E1E1E1E1E1E1E1E1E1E1E1E1E1E1E1E1E1E1E1E1E1E1E1E1E1E1E1E1E1E1E1E1E1E1E1E1E128E1
310
BEE1E1E1E1E1E1E1E1E1E1E1E1E1E1E1E1E1E1E1E1E1E1E1E1E1E1E1E1E1E1E1E1E1E1E1E1E1E1E1E1E1E1E1E1E1E1E1E1E1E1E1E1E1E1E1E1E1E1E1E1E1E1E1E1BEE1E1E1E1E1E1E1BEBEE1E1E1E1E1E1E1E1E1E1E1E1E1E1E1E1E1E1E1E1E1E1E1E1E1E1E1E1E1E1E1E1E1E1E1E1E1E1E1E1E1E1E1E1E1E1E1E1E1E1E1E1
310
E1E1E1E1E1E1E1E1E1E1E1E1E1E1E1BEE1E1E1E1E1E1E1E1E1E1E1E1E1E1E1E1E1E1E1E1E1E1E1E1E1E1E1E1E1E1E1E1E1E1E1E1E1E1E1E1E1E1E1E1E1E1E1E1E1E1E1E1E1E1E1E1E1E1E1E1E1E1E1E1E1E1E1E1E1E1E1E1E1E1E1E1E1E1E1E1E1E1E1E1E1E1E1E1E1E1E1E1E1E1E1E1E1E1E1E1E1E1E1E1E1E1E1E1E1E1E1
310
28E1BEE1E1E1E1E1E1E1E1E1E1E1E1E1E1E1E1E1E1E1E1E1E1E1E1E1E1E1E1E1E1E1E1E1E1E1E1E1E1E1E1E1E1E1E1E1E1E1E1E1E1E1E1E1E1E1E1E1E1E1E1E1E1E1E1BEE1E1E1E1E1E1E1BE28E1E1E1E1E1E1E1E1E1E1E1E1E1E1E1E1E1E1E1E1E1E1E1E1E1E1E1E1E1E1E1E1E1E1E1E1E1E1E1E1E1E1E1E1E1E1E1E1E1E1
310
E1E1E1E1E1E1E1E2E2E2E2E2E2E2E2E2E2E2E2E2E2E2E2E2E2E2E2E2E1E1E1E1E1E1E1E1E1E1E1E1E1E1E1E1E1E1E1E1E1E1E1E1E1E1E1E1E1E1E1E1E1E1E1E1E1E1E1E1E1E1E1E1E1E1E1E1E1E1E1E1E1E1E1E1E1E1E1E1E1E1E1E1E1E1E1E1E1E1E1E1E1E1E1E1E1E1E1E1E1E1E1E1E1E1E1E1E1E1E1E1E1E1E1E1E1E1E1
310
E1E128E1BEE1E1E1E1E1E1E1E1E1E1E1E1E1E1E1E1E1E1E1E1E1E1E1E1E1E1E1E1E1E1E1E1E1E1E1E1E1E1E1E1E1E1E1E1E1E1E1E1E1E1E1E1E1E1E1E1E1E1E1E1E1E1E1E1BEE1E1E1E1E1E1E1BE28E1E1E1E1E1E1E1E1E1E1E1E1E1E1E1E1E1E1E1E1E1E1E1E1E1E1E1E1E1E1E1E1E1E1E1E1E1E1E1E1E1E1E1E1E1E1E1E1
310
E1E1E1E1E1BEE2BEBEBEBEE2E2E2E2E2E2E2E2BEE2E2E2E2E2E2E2E2E20FE1E1E1E1E1E1E1E1E1E1E1E1E1E1E1E1E1E1E1E1E1E1E1E1E1E1E1E1E1E1E1E1E1E1E1E1E1E1E1E1E1E1E1E1E1E1E1E1E1E1E1E1E1E1E1E1E1E1E1E1E1E1E1E1E1E1E1E1E1E1E1E1E1E1E1E1E1E1E1E1E1E1E1E1E1E1E1E1E1E1E1E1E1E1E1E1E1
310
E1E1E1E128E1BEE1E1E1E1E1E1E1E1E1E1E1E1E1E1E1E1E1E1E1E1E1E1E1E1E1E1E1E1E1E1E1E1E1E1E1E1E1E1E1E1E1E1E1E1E1E1E1E1E1E1E1E1E1E1E1E1E1E1E1E1E1E1E1E1BEE1E1E1E1E1E1E1BEBEE1E1E1E1E1E1E1E1E1E1E1E1E1E1E1E1E1E1E1E1E1E1E1E1E1E1E1E1E1E1E1E1E1E1E1E1E1E1E1E1E1E1E1E1E1E1
310
E1E1E1E1E1E1E10FBEE1E10F0FE2E1E1E1E1E1E1E1BEE1E1E1E1E1E1E1E2E20FE1E1E1E1E1E1E1E1E1E1E1E1E1E1E1E1E1E1E1E1E1E1E1E1E1E1E1E1E1E1E1E1E1E1E1E1E1E1E1E1E1E1E1E1E1E1E1E1E1E1E1E1E1E1E1E1E1E1E1E1E1E1E1E1E1E1E1E1E1E1E1E1E1E1E1E1E1E1E1E1E1E1E1E1E1E1E1E1E1E1E1E1E1E1E1
310
E1E1E1E1E1E128E1BEE1E1E1E1E1E1E1E1E1E1E1E1E1E1E1E1E1E1E1E1E1E1E1E1E1E1E1E1E1E1E1E1E1E1E1E1E1E1E1E1E1E1E1E1E1E1E1E1E1E1E1E1E1E1E1E1E1E1E1E1E1E1E1E1BEE1E1E1E1E1E1E1BEBEE1E1E1E1E1E1E1E1E1E1E1E1E1E1E1E1E1E1E1E1E1E1E1E1E1E1E1E1E1E1E1E1E1E1E1E1E1E1E1E1E1E1E1E1
310
E1E1E1E1E1E1E1E1E10F0FE1E1BEE2E2E1E1E1E1E1E1E1BEE1E1E1E1E1E1E1E2E2BEE1E1E1E1E1E1E1E1E1E1E1E1E1E1E1E1E1E1E1E1E1E1E1E1E1E1E1E1E1E1E1E1E1E1E1E1E1E1E1E1E1E1E1E1E1E1E1E1E1E1E1E1E1E1E1E1E1E1E1E1E1E1E1E1E1E1E1E1E1E1E1E1E1E1E1E1E1E1E1E1E1E1E1E1E1E1E1E1E1E1E1E1E1
310
E1E1E1E1E1E1E1E128E1BEE1E1E1E1E1E1E1E1E1E1E1E1E1E1E1E1E1E1E1E1E1E1E1E1E1E1E1E1E1E1E1E1E1E1E1E1E1E1E1E1E1E1E1E1E1E1E1E1E1E1E1E1E1E1E1E1E1E1E1E1E1E1E1E1BEE1E1E1E1E1E1E1BEBEE1E1E1E1E1E1E1E1E1E1E1E1E1E1E1E1E1E1E1E1E1E1E1E1E1E1E1E1E1E1E1E1E1E1E1E1E1E1E1E1E1E1
310
E1E1E1E1E1E1E1E1E1E1E10FBEE1E1BEBEBEBEBEBEBEBEBEBEBEE1BEBEBEBEBEBEBEBEBEBEE1E1E1E1E1E1E1E1E1E1E1E1E1E1E1E1E1E1E1E1E1E1E1E1E1E1E1E1E1E1E1E1E1E1E1E1E1E1E1E1E1E1E1E1E1E1E1E1E1E1E1E1E1E1E1E1E1E1E1E1E1E1E1E1E1E1E1E1E1E1E1E1E1E1E1E1E1E1E1E1E1E1E1E1E1E1E1E1E1E1
310
E1E1E1E1E1E1E1E1E1E128E1BEE1E1E1E1E1E1E1E1E1E1E1E1E1E1E1E1E1E1E1E1E1E1E1E1E1E1E1E1E1E1E1E1E1E1E1E1E1E1E1E1E1E1E1E1E1E1E1E1E1E1E1E1E1E1E1E1E1E1E1E1E1E1E1E1BEE1E1E1E1E1E1E1BEBEE1E1E1E1E1E1E1E1E1E1E1E1E1E1E1E1E1E1E1E1E1E1E1E1E1E1E1E1E1E1E1E1E1E1E1E1E1E1E1E1
310
E1E1E1E1E1E1E1E1E1E1E1E1E10FBEE1E1BEE2E2E1E1E1E1E1E1E1BEE1E1E1E1E1E1E1E2E2BEE1E1E1E1E1E1E1E1E1E1E1E1E1E1E1E1E1E1E1E1E1E1E1E1E1E1E1E1E1E1E1E1E1E1E1E1E1E1E1E1E1E1E1E1E1E1E1E1E1E1E1E1E1E1E1E1E1E1E1E1E1E1E1E1E1E1E1E1E1E1E1E1E1E1E1E1E1E1E1E1E1E1E1E1E1E1E1E1E1
310
E1E1E1E1E1E1E1E1E1E1E1E128E1BEE1E1E1E1E1E1E1E1E1E1E1E1E1E1E1E1E1E1E1E1E1E1E1E1E1E1E1E1E1E1E1E1E1E1E1E1E1E1E1E1E1E1E1E1E1E1E1E1E1E1E1E1E1E1E1E1E1E1E1E1E1E1E1E1BEE1E1E1E1E1E1E1BEBEE1E1E1E1E1E1E1E1E1E1E1E1E1E1E1E1E1E1E1E1E1E1E1E1E1E1E1E1E1E1E1E1E1E1E1E1E1E1
310
E1E1E1E1E1E1E1E1E1E1E1E1E1E1E10FBEE1E1BEE2E2E1E1E1E1E1E1E1BEE1E1E1E1E1E1E1E2E20FE1E1E1E1E1E1E1E1E1E1E1E1E1E1E1E1E1E1E1E1E1E1E1E1E1E1E1E1E1E1E1E1E1E1E1E1E1E1E1E1E1E1E1E1E1E1E1E1E1E1E1E1E1E1E1E1E1E1E1E1E1E1E1E1E1E1E1E1E1E1E1E1E1E1E1E1E1E1E1E1E1E1E1E1E1E1E1
310
E1E1E1E1E1E1E1E1E1E1E1E1E1E128E1BEE1E1E1E1E1E1E1E1E1E1E1E1E1E1E1E1E1E1E1E1E1E1E1E1E1E1E1E1E1E1E1E1E1E1E1E1E1E1E1E1E1E1E1E1E1E1E1E1E1E1E1E1E1E1E1E1E1E1E1E1E1E1E1E1BEE1E1E1E1E1E1E1BEBEE1E1E1E1E1E1E1E1E1E1E1E1E1E1E1E1E1E1E1E1E1E1E1E1E1E1E1E1E1E1E1E1E1E1E1E1
310
E1E1E1E1E1E1E1E1E1E1E1E1E1E1E1E1E1BEBEBEBEBEBEE2E2E2E2E2E2E2E2BEE2E2E2E2E2E2E2E2E20FE1E1E1E1E1E1E1E1E1E1E1E1E1E1E1E1E1E1E1E1E1E1E1E1E1E1E1E1E1E1E1E1E1E1E1E1E1E1E1E1E1E1E1E1E1E1E1E1E1E1E1E1E1E1E1E1E1E1E1E1E1E1E1E1E1E1E1E1E1E1E1E1E1E1E1E1E1E1E1E1E1E1E1E1E1
310
E1E1E1E1E1E1E1E1E1E1E1E1E1E1E1E128E1BEE1E1E1E1E1E1E1E1E1E1E1E1E1E1E1E1E1E1E1E1E1E1E1E1E1E1E1E1E1E1E1E1E1E1E1E1E1E1E1E1E1E1E1E1E1E1E1E1E1E1E1E1E1E1E1E1E1E1E1E1E1E1E1E1BEE1E1E1E1E1E1E1BEBEE1E1E1E1E1E1E1E1E1E1E1E1E1E1E1E1E1E1E1E1E1E1E1E1E1E1E1E1E1E1E1E1E1E1
310
E1E1E1E1E1E1E1E1E1E1E1E1E1E1E1E1E1E1E1E1E1E1E1E2E2BEE2E2E2E2E2E2E2BEE2E2E2E2E2E2E2BEE2E2E1E1E1E1E1E1E1E1E1E1E1E1E1E1E1E1E1E1E1E1E1E1E1E1E1E1E1E1E1E1E1E1E1E1E1E1E1E1E1E1E1E1E1E1E1E1E1E1E1E1E1E1E1E1E1E1E1E1E1E1E1E1E1E1E1E1E1E1E1E1E1E1E1E1E1E1E1E1E1E1E1E1E1
310
E1E1E1E1E1E1E1E1E1E1E1E1E1E1E1E1E1E128E1BEE1E1E1E1E1E1E1E1E1E1E1E1E1E1E1E1E1E1E1E1E1E1E1E1E1E1E1E1E1E1E1E1E1E1E1E1E1E1E1E1E1E1E1E1E1E1E1E1E1E1E1E1E1E1E1E1E1E1E1E1E1E1E1E1BEE1E1E1E1E1E1E1BEBEE1E1E1E1E1E1E1E1E1E1E1E1E1E1E1E1E1E1E1E1E1E1E1E1E1E1E1E1E1E1E1E1
310
E1E1E1E1E1E1E1E1E1E1E1E1E1E1E1E1E1E1E1E1E1E1E1E1E1E1E1BEE1E1E1E1E1E1E1BEE1E1E1E1E1E1E1BEE1E1E1E1E1E1E1E1E1E1E1E1E1E1E1E1E1E1E1E1E1E1E1E1E1E1E1E1E1E1E1E1E1E1E1E1E1E1E1E1E1E1E1E1E1E1E1E1E1E1E1E1E1E1E1E1E1E1E1E1E1E1E1E1E1E1E1E1E1E1E1E1E1E1E1E1E1E1E1E1E1E1E1
310
E1E1E1E1E1E1E1E1E1E1E1E1E1E1E1E1E1E1E1E128E1BEE1E1E1E1E1E1E1E1E1E1E1E1E1E1E1E1E1E1E1E1E1E1E1E1E1E1E1E1E1E1E1E1E1E1E1E1E1E1E1E1E1E1E1E1E1E1E1E1E1E1E1E1E1E1E1E1E1E1E1E1E1E1E1E1BEE1E1E1E1E1E1E1BEBEE1E1E1E1E1E1E1E1E1E1E1E1E1E1E1E1E1E1E1E1E1E1E1E1E1E1E1E1E1E1
310
E1E1E1E1E1E1E1E1E1E1E1E1E1E1E1E1E1E1E1E1E1E1E1E1E1E1E1E1E1BEE1E1E1E1E1E1E1E1E1E1E1E1E1E1E1BEE1E1E1E1E1E1E1E1E1E1E1E1E1E1E1E1E1E1E1E1E1E1E1E1E1E1E1E1E1E1E1E1E1E1E1E1E1E1E1E1E1E1E1E1E1E1E1E1E1E1E1E1E1E1E1E1E1E1E1E1E1E1E1E1E1E1E1E1E1E1E1E1E1E1E1E1E1E1E1E1E1
310
E1E1E1E1E1E1E1E1E1E1E1E1E1E1E1E1E1E1E1E1E1E128E1BEE1E1E1E1E1E1E1E1E1E1E1E1E1E1E1E1E1E1E1E1E1E1E1E1E1E1E1E1E1E1E1E1E1E1E1E1E1E1E1E1E1E1E1E1E1E1E1E1E1E1E1E1E1E1E1E1E1E1E1E1E1E1E1E1BEE1E1E1E1E1E1E1BEBEE1E1E1E1E1E1E1E1E1E1E1E1E1E1E1E1E1E1E1E1E1E1E1E1E1E1E1E1
310
E1E1E1E1E1E1E1E1E1E1E1E1E1E1E1E1E1E1E1E1E1E1E1E1E1E1E1E1E1E1E1BEBEBEBEBEBEBEBEBEBEBEBEBEBEBEBEE2E1E1E1E1E1E1E1E1E1E1E1E1E1E1E1E1E1E1E1E1E1E1E1E1E1E1E1E1E1E1E1E1E1E1E1E1E1E1E1E1E1E1E1E1E1E1E1E1E1E1E1E1E1E1E1E1E1E1E1E1E1E1E1E1E1E1E1E1E1E1E1E1E1E1E1E1E1E1E1
310
E1E1E1E1E1E1E1E1E1E1E1E1E1E1E1E1E1E1E1E1E1E1E1E128E1BEE1E1E1E1E1E1E1E1E1E1E1E1E1E1E1E1E1E1E1E1E1E1E1E1E1E1E1E1E1E1E1E1E1E1E1E1E1E1E1E1E1E1E1E1E1E1E1E1E1E1E1E1E1E1E1E1E1E1E1E1E1E1E1E1BEE1E1E1E1E1E1E1BEBEE1E1E1E1E1E1E1E1E1E1E1E1E1E1E1E1E1E1E1E1E1E1E1E1E1E1
310
E1E1E1E1E1E1E1E1E1E1E1E1E1E1E1E1E1E1E1E1E1E1E1E1E1E1E1E1E1E1E1E1E1BEE1E1E1E1E10F0F0F0F0FE1E1E1E1E1BEE1E1E1E1E1E1E1E1E1E1E1E1E1E1E1E1E1E1E1E1E1E1E1E1E1E1E1E1E1E1E1E1E1E1E1E1E1E1E1E1E1E1E1E1E1E1E1E1E1E1E1E1E1E1E1E1E1E1E1E1E1E1E1E1E1E1E1E1E1E1E1E1E1E1E1E1E1
310
E1E1E1E1E1E1E1E1E1E1E1E1E1E1E1E1E1E1E1E1E1E1E1E1E1E128E1BEE1E1E1E1E1E1E1E1E1E1E1E1E1E1E1E1E1E1E1E1E1E1E1E1E1E1E1E1E1E1E1E1E1E1E1E1E1E1E1E1E1E1E1E1E1E1E1E1E1E1E1E1E1E1E1E1E1E1E1E1E1E1E1E1BEE1E1E1E1E1E1E1BEBEE1E1E1E1E1E1E1E1E1E1E1E1E1E1E1E1E1E1E1E1E1E1E1E1
310
E1E1E1E1E1E1E1E1E1E1E1E1E1E1E1E1E1E1E1E1E1E1E1E1E1E1E1E1E1E1E1E1E1E1E1E1E1E1E1E1E10F0F0F0F0FE1E1E1E1E1E1E1E1E1E1E1E1E1E1E1E1E1E1E1E1E1E1E1E1E1E1E1E1E1E1E1E1E1E1E1E1E1E1E1E1E1E1E1E1E1E1E1E1E1E1E1E1E1E1E1E1E1E1E1E1E1E1E1E1E1E1E1E1E1E1E1E1E1E1E1E1E1E1E1E1E1
310
E1E1E1E1E1E1E1E1E1E1E1E1E1E1E1E1E1E1E1E1E1E1E1E1E1E1E1E128E1BEE1E1E1E1E1E1E1E1E1E1E1E1E1E1E1E1E1E1E1E1E1E1E1E1E1E1E1E1E1E1E1E1E1E1E1E1E1E1E1E1E1E1E1E1E1E1E1E1E1E1E1E1E1E1E1E1E1E1E1E1E1E1E1E1BEE1E1E1E1E1E1E1BEBEE1E1E1E1E1E1E1E1E1E1E1E1E1E1E1E1E1E1E1E1E1E1
310
E1E1E1E1E1E1E1E1E1E1E1E1E1E1E1E1E1E1E1E1E1E1E1E1E1E1E1E1E1E1E1E1E1E1E1E1E1E1E1E1E1E1E1E1E1E1E1E1E1E1E1E1E1E1E1E1E1E1E1E1E1E1E1E1E1E1E1E1E1E1E1E1E1E1E1E1E1E1E1E1E1E1E1E1E1E1E1E1E1E1E1E1E1E1E1E1E1E1E1E1E1E1E1E1E1E1E1E1E1E1E1E1E1E1E1E1E1E1E1E1E1E1E1E1E1E1E1
310
E1E1E1E1E1E1E1E1E1E1E1E1E1E1E1E1E1E1E1E1E1E1E1E1E1E1E1E1E1E128E1BEE1E1E1E1E1E1E1E1E1E1E1E1E1E1E1E1E1E1E1E1E1E1E1E1E1E1E1E1E1E1E1E1E1E1E1E1E1E1E1E1E1E1E1E1E1E1E1E1E1E1E1E1E1E1E1E1E1E1E1E1E1E1E1E1BEE1E1E1E1E1E1E1BEBEE1E1E1E1E1E1E1E1E1E1E1E1E1E1E1E1E1E1E1E1
310
E1E1E1E1E1E1E1E1E1E1E1E1E1E1E1E1E1E1E1E1E1E1E1E1E1E1E1E1E1E1E1E1E1E1E1E1E1E1E1E1E1E1E1E1E1E1E1E1E1E1E1E1E1E1E1E1E1E1E1E1E1E1E1E1E1E1E1E1E1E1E1E1E1E1E1E1E1E1E1E1E1E1E1E1E1E1E1E1E1E1E1E1E1E1E1E1E1E1E1E1E1E1E1E1E1E1E1E1E1E1E1E1E1E1E1E1E1E1E1E1E1E1E1E1E1E1E1
310
E1E1E1E1E1E1E1E1E1E1E1E1E1E1E1E1E1E1E1E1E1E1E1E1E1E1E1E1E1E1E1E128E1BEE1E1E1E1E1E1E1E1E1E1E1E1E1E1E1E1E1E1E1E1E1E1E1E1E1E1E1E1E1E1E1E1E1E1E1E1E1E1E1E1E1E1E1E1E1E1E1E1E1E1E1E1E1E1E1E1E1E1E1E1E1E1E1E1BEE1E1E1E1E1E1E1BEBEE1E1E1E1E1E1E1E1E1E1E1E1E1E1E1E1E1E1
310
E1E1E1E1E1E1E1E1E1E1E1E1E1E1E1E1E1E1E1E1E1E1E1E1E1E1E1E1E1E1E1E1E1E1E1E1E1E1E1E1E1BEBEBEBEBEBEBE0F0F0FBEBEBEBEBEBEE2E1E1E10FE1BEE1E1E1E1E1E1E1E1E1E1E1E1E1E1E1E1E1E1E1E1E1E1E1E1E1E1E1E1E1E1E1E1E1E1E1E1E1E1E1E1E1E1E1E1E1E1E1E1E1E1E1E1E1E1E1E1E1E1E1E1E1E1E1
310
E1E1E1E1E1E1E1E1E1E1E1E1E1E1E1E1E1E1E1E1E1E1E1E1E1E1E1E1E1E1E1E1E1E128E1BEE1E1E1E1E1E1E1E1E1E1E1E1E1E1E1E1E1E1E1E1E1E1E1E1E1E1E1E1E1E1E1E1E1E1E1E1E1E1E1E1E1E1E1E1E1E1E1E1E1E1E1E1E1E1E1E1E1E1E1E1E1E1E1E1BEE1E1E1E1E1E1E1BEBEE1E1E1E1E1E1E1E1E1E1E1E1E1E1E1E1
310
E1E1E1E1E1E1E1E1E1E1E1E1E1E1E1E1E1E1E1E1E1E1E1E1E1E1E1E1E1E1E1E10F0FBEE1E1E1E1E1E1E1E1BEE1E1E1E1E1E10F0F0F0FE1E10FE1E1BEE1E1E10F0FBEE1E1E1E1E1E1E1E1E1E1E1E1E1E1E1E1E1E1E1E1E1E1E1E1E1E1E1E1E1E1E1E1E1E1E1E1E1E1E1E1E1E1E1E1E1E1E1E1E1E1E1E1E1E1E1E1E1E1E1E1E1
310
E1E1E1E1E1E1E1E1E1E1E1E1E1E1E1E1E1E1E1E1E1E1E1E1E1E1E1E1E1E1E1E1E1E1E1E128E1BEE1E1E1E1E1E1E1E1E1E1E1E1E1E1E1E1E1E1E1E1E1E1E1E1E1E1E1E1E1E1E1E1E1E1E1E1E1E1E1E1E1E1E1E1E1E1E1E1E1E1E1E1E1E1E1E1E1E1E1E1E1E1E1E1BEE1E1E1E1E1E1E1BEBEE1E1E1E1E1E1E1E1E1E1E1E1E1E1
310
E1E1E1E1E1E1E1E1E1E1E1E1E1E1E1E1E1E1E1E1E1E1E1E1E1E1E1E1E1E1E1E1E1E10F0FBEE1E1E1E1E1E1E1E1BEE1E1E1E1E1E10F0F0F0FE10F0F0FE1BEE1E1E10F0FBEE1E1E1E1E1E1E1E1E1E1E1E1E1E1E1E1E1E1E1E1E1E1E1E1E1E1E1E1E1E1E1E1E1E1E1E1E1E1E1E1E1E1E1E1E1E1E1E1E1E1E1E1E1E1E1E1E1E1E1
310
E1E1E1E1E1E1E1E1E1E1E1E1E1E1E1E1E1E1E1E1E1E1E1E1E1E1E1E1E1E1E1E1E1E1E1E1E1E128E1BEE1E1E1E1E1E1E1E1E1E1E1E1E1E1E1E1E1E1E1E1E1E1E1E1E1E1E1E1E1E1E1E1E1E1E1E1E1E1E1E1E1E1E1E1E1E1E1E1E1E1E1E1E1E1E1E1E1E1E1E1E1E1E1E1BEE1E1E1E1E1E1E1BEBEE1E1E1E1E1E1E1E1E1E1E1E1
310
E1E1E1E1E1E1E1E1E1E1E1E1E1E1E1E1E1E1E1E1E1E1E1E1E1E1E1E1E1E1E1E1E1E1E1E10F0FBEE1E1E1E1E1E1E1E1BEE1E1E1E1E1E1E1E1E1E1E1E10F0FE1BEE1E1E1E1E1BEE1E1E1E1E1E1E1E1E1E1E1E1E1E1E1E1E1E1E1E1E1E1E1E1E1E1E1E1E1E1E1E1E1E1E1E1E1E1E1E1E1E1E1E1E1E1E1E1E1E1E1E1E1E1E1E1E1
310
E1E1E1E1E1E1E1E1E1E1E1E1E1E1E1E1E1E1E1E1E1E1E1E1E1E1E1E1E1E1E1E1E1E1E1E1E1E1E1E128E1BEE1E1E1E1E1E1E1E1E1E1E1E1E1E1E1E1E1E1E1E1E1E1E1E1E1E1E1E1E1E1E1E1E1E1E1E1E1E1E1E1E1E1E1E1E1E1E1E1E1E1E1E1E1E1E1E1E1E1E1E1E1E1E1E1BEE1E1E1E1E1E1E1BEBEE1E1E1E1E1E1E1E1E1E1
310
E1E1E1E1E1E1E1E1E1E1E1E1E1E1E1E1E1E1E1E1E1E1E1E1E1E1E1E1E1E1E1E1E1E1E1E1E1E1E1E1BEE1E1E1E1E1E1E1E1BEE1E1E1E1E1E1E1E1E1E1E1E10F0FBEBEE1E1E1E1BEBEE1E1E1E1E1E1E1E1E1E1E1E1E1E1E1E1E1E1E1E1E1E1E1E1E1E1E1E1E1E1E1E1E1E1E1E1E1E1E1E1E1E1E1E1E1E1E1E1E1E1E1E1E1E1E1
310
E1E1E1E1E1E1E1E1E1E1E1E1E1E1E1E1E1E1E1E1E1E1E1E1E1E1E1E1E1E1E1E1E1E1E1E1E1E1E1E1E1E128E1BEE1E1E1E1E1E1E1E1E1E1E1E1E1E1E1E1E1E1E1E1E1E1E1E1E1E1E1E1E1E1E1E1E1E1E1E1E1E1E1E1E1E1E1E1E1E1E1E1E1E1E1E1E1E1E1E1E1E1E1E1E1E1E1E1BEE1E1E1E1E1E1E1BEBEE1E1E1E1E1E1E1E1
310
E1E1E1E1E1E1E1E1E1E1E1E1E1E1E1E1E1E1E1E1E1E1E1E1E1E1E1E1E1E1E1E1E1E1E1E1E1E1E1E1E1BEBEE1BEE1BEE1E1E1E1BEE1E1E1E1E1E1E1BEE1E1E1E1E1E1BEBEE1E1E1E1E1BEE1BEE1E1E1E1E1E1E1E1E1E1E1E1E1E1E1E1E1E1E1E1E1E1E1E1E1E1E1E1E1E1E1E1E1E1E1E1E1E1E1E1E1E1E1E1E1E1E1E1E1E1E1
310
E1E1E1E1E1E1E1E1E1E1E1E1E1E1E1E1E1E1E1E1E1E1E1E1E1E1E1E1E1E1E1E1E1E1E1E1E1E1E1E1E1E1E1E128E1BEE1E1E1E1E1E1E1E1E1E1E1E1E1E1E1E1E1E1E1E1E1E1E1E1E1E1E1E1E1E1E1E1E1E1E1E1E1E1E1E1E1E1E1E1E1E1E1E1E1E1E1E1E1E1E1E1E1E1E1E1E1E1E1E1BEE1E1E1E1E1E1E1BEBEE1E1E1E1E1E1
310
E1E1E1E1E1E1E1E1E1E1E1E1E1E1E1E1E1E1E1E1E1E1E1E1E1E1E1E1E1E1E1E1E1E1E1E1E1E1E1E1E1E1E1BEE2BEBEBEBEBEBEE2E2BEE2E2E2E2E2E2E2E2E2E2E2E2E2E2E2BEBEE2BEBEBEE2E1BEE1E1E1E1E1E1E1E1E1E1E1E1E1E1E1E1E1E1E1E1E1E1E1E1E1E1E1E1E1E1E1E1E1E1E1E1E1E1E1E1E1E1E1E1E1E1E1E1E1
310
E1E1E1E1E1E1E1E1E1E1E1E1E1E1E1E1E1E1E1E1E1E1E1E1E1E1E1E1E1E1E1E1E1E1E1E1E1E1E1E1E1E1E1E1E1E128E1BEE1E1E1E1E1E1E1E1E1E1E1E1E1E1E1E1E1E1E1E1E1E1E1E1E1E1E1E1E1E1E1E1E1E1E1E1E1E1E1E1E1E1E1E1E1E1E1E1E1E1E1E1E1E1E1E1E1E1E1E1E1E1E1E1BEE1E1E1E1E1E1E1BEBEE1E1E1E1
310
E1E1E1E1E1E1E1E1E1E1E1E1E1E1E1E1E1E1E1E1E1E1E1E1E1E1E1E1E1E1E1E1E1E1E1E1E1E1E1E1E1E1E1E1E1E1BEE1BEE1BEE1E1E2BEBEE1E1E1E1E1E1E1BEE1E1E1E1E1E1E1BEBEE2E1E1E1BEE1BEE1E1E1E1E1E1E1E1E1E1E1E1E1E1E1E1E1E1E1E1E1E1E1E1E1E1E1E1E1E1E1E1E1E1E1E1E1E1E1E1E1E1E1E1E1E1E1
310
E1E1E1E1E1E1E1E1E1E1E1E1E1E1E1E1E1E1E1E1E1E1E1E1E1E1E1E1E1E1E1E1E1E1E1E1E1E1E1E1E1E1E1E1E1E1E1E128E1BEE1E1E1E1E1E1E1E1E1E1E1E1E1E1E1E1E1E1E1E1E1E1E1E1E1E1E1E1E1E1E1E1E1E1E1E1E1E1E1E1E1E1E1E1E1E1E1E1E1E1E1E1E1E1E1E1E1E1E1E1E1E1E1E1BEE1E1E1E1E1E1E1BEBEE1E1
310
E1E1E1E1E1E1E1E1E1E1E1E1E1E1E1E1E1E1E1E1E1E1E1E1E1E1E1E1E1E1E1E1E1E1E1E1E1E1E1E1E1E1E1E1E1E1E1BEBEBEE2BEBEBEBEBEBEE2BEBEBEBEBEBEBEBEBEBEBEBEBEBEBEE2BEE2E1E1BEBEE1BEE1E1E1E1E1E1E1E1E1E1E1E1E1E1E1E1E1E1E1E1E1E1E1E1E1E1E1E1E1E1E1E1E1E1E1E1E1E1E1E1E1E1E1E1E1
310
E1E1E1E1E1E1E1E1E1E1E1E1E1E1E1E1E1E1E1E1E1E1E1E1E1E1E1E1E1E1E1E1E1E1E1E1E1E1E1E1E1E1E1E1E1E1E1E1E1E128E1BEE1E1E1E1E1E1E1E1E1E1E1E1E1E1E1E1E1E1E1E1E1E1E1E1E1E1E1E1E1E1E1E1E1E1E1E1E1E1E1E1E1E1E1E1E1E1E1E1E1E1E1E1E1E1E1E1E1E1E1E1E1E1E1E1BEE1E1E1E1E1E1E1BEBE
310
E1E1E1E1E1E1E1E1E1E1E1E1E1E1E1E1E1E1E1E1E1E1E1E1E1E1E1E1E1E1E1E1E1E1E1E1E1E1E1E1E1E1E1E1E1E1E1E1E1E1BEBEBEBEE2BEBEBEBEE2BEBEBEBEBEBEBEE2BEBEBEBEBEBEBEE2BEBEBEBEBEBEBEE2E1E1E1E1E1E1E1E1E1E1E1E1E1E1E1E1E1E1E1E1E1E1E1E1E1E1E1E1E1E1E1E1E1E1E1E1E1E1E1E1E1E1E1
310
E1E1E1E1E1E1E1E1E1E1E1E1E1E1E1E1E1E1E1E1E1E1E1E1E1E1E1E1E1E1E1E1E1E1E1E1E1E1E1E1E1E1E1E1E1E1E1E1E1E1E1E128E1BEE1E1E1E1E1E1E1E1E1E1E1E1E1E1E1E1E1E1E1E1E1E1E1E1E1E1E1E1E1E1E1E1E1E1E1E1E1E1E1E1E1E1E1E1E1E1E1E1E1E1E1E1E1E1E1E1E1E1E1E1E1E1E1E1BEE1E1E1E1E1E1E1
310
BEBEE1E1E1E1E1E1E1E1E1E1E1E1E1E1E1E1E1E1E1E1E1E1E1E1E1E1E1E1E1E1E1E1E1E1E1E1E1E1E1E1E1E1E1E1E1E1E1E1E1BEBEE1BEE1BEE1E1E1E1E1E1E1E1E1E1E1E1BEE1E1E1E1E1E1E1E1E1E1E1E1E1BEE1BEE1E1E1E1E1E1E1E1E1E1E1E1E1E1E1E1E1E1E1E1E1E1E1E1E1E1E1E1E1E1E1E1E1E1E1E1E1E1E1E1E1
310
E1E1E1E1E1E1E1E1E1E1E1E1E1E1E1E1E1E1E1E1E1E1E1E1E1E1E1E1E1E1E1E1E1E1E1E1E1E1E1E1E1E1E1E1E1E1E1E1E1E1E1E1E1E128E1BEE1E1E1E1E1E1E1E1E1E1E1E1E1E1E1E1E1E1E1E1E1E1E1E1E1E1E1E1E1E1E1E1E1E1E1E1E1E1E1E1E1E1E1E1E1E1E1E1E1E1E1E1E1E1E1E1E1E1E1E1E1E1E1E1BEE1E1E1E1E1
310
E1E1BEBEE1E1E1E1E1E1E1E1E1E1E1E1E1E1E1E1E1E1E1E1E1E1E1E1E1E1E1E1E1E1E1E1E1E1E1E1E1E1E1E1E1E1E1E1E1E1E1E1E1E1BEE1BEE1BEE1E1E1E1E1E1E1E1E1E1E1E1E1E1E1E1E1E1E1E1E1E1E1E1E1E1E1E1BEE1E1E1E1E1E1E1E1E1E1E1E1E1E1E1E1E1E1E1E1E1E1E1E1E1E1E1E1E1E1E1E1E1E1E1E1E1E1E1
310
E1E1E1E1E1E1E1E1E1E1E1E1E1E1E1E1E1E1E1E1E1E1E1E1E1E1E1E1E1E1E1E1E1E1E1E1E1E1E1E1E1E1E1E1E1E1E1E1E1E1E1E1E1E1E1E128E1BEE1E1E1E1E1E1E1E1E1E1E1E1E1E1E1E1E1E1E1E1E1E1E1E1E1E1E1E1E1E1E1E1E1E1E1E1E1E1E1E1E1E1E1E1E1E1E1E1E1E1E1E1E1E1E1E1E1E1E1E1E1E1E1E1BEE1E1E1
310
E1E1E1E1BEBEE1E1E1E1E1E1E1E1E1E1E1E1E1E1E1E1E1E1E1E1E1E1E1E1E1E1E1E1E1E1E1E1E1E1E1E1E1E1E1E1E1E1E1E1E1E1E1E1E1E10F0F0FE1BEE1E1E1E1E1E1E1E1E1E1E1E1E1E1E1E1E1E1E1E1E1E1E1E1E1E1E1E1BEE1E1E1E1E1E1E1E1E1E1E1E1E1E1E1E1E1E1E1E1E1E1E1E1E1E1E1E1E1E1E1E1E1E1E1E1E1
310
E1E1E1E1E1E1E1E1E1E1E1E1E1E1E1E1E1E1E1E1E1E1E1E1E1E1E1E1E1E1E1E1E1E1E1E1E1E1E1E1E1E1E1E1E1E1E1E1E1E1E1E1E1E1E1E1E1E128E1BEE1E1E1E1E1E1E1E1E1E1E1E1E1E1E1E1E1E1E1E1E1E1E1E1E1E1E1E1E1E1E1E1E1E1E1E1E1E1E1E1E1E1E1E1E1E1E1E1E1E1E1E1E1E1E1E1E1E1E1E1E1E1E1E1BEE1
310
E1E1E1E1E1E1BEBEE1E1E1E1E1E1E1E1E1E1E1E1E1E1E1E1E1E1E1E1E1E1E1E1E1E1E1E1E1E1E1E1E1E1E1E1E1E1E1E1E1E1E1E1E1E1E1E1E1E10F0F0F0F0FE1E1E1E1E1E1E1E1E1E1E1E1E1E1E1E1E1E1E1E1E1E1E1E1E1E10F0FBEE1E1E1E1E1E1E1E1E1E1E1E1E1E1E1E1E1E1E1E1E1E1E1E1E1E1E1E1E1E1E1E1E1E1E1
310
E1E1E1E1E1E1E1E1E1E1E1E1E1E1E1E1E1E1E1E1E1E1E1E1E1E1E1E1E1E1E1E1E1E1E1E1E1E1E1E1E1E1E1E1E1E1E1E1E1E1E1E1E1E1E1E1E1E1E1E128E1BEE1E1E1E1E1E1E1E1E1E1E1E1E1E1E1E1E1E1E1E1E1E1E1E1E1E1E1E1E1E1E1E1E1E1E1E1E1E1E1E1E1E1E1E1E1E1E1E1E1E1E1E1E1E1E1E1E1E1E1E1E1E1E1E1
310
BEE1E1E1E1E1E1E1BEBEE1E1E1E1E1E1E1E1E1E1E1E1E1E1E1E1E1E1E1E1E1E1E1E1E1E1E1E1E1E1E1E1E1E1E1E1E1E1E1E1E1E1E1E1E1E1E1E1E1E10F0FBE0F0FE1E1E1E1E1E1E1E1E1E1E1E1E1E1E1E1E1E1E1E1E1E1E1E1E1E10F0FBEE1E1E1E1E1E1E1E1E1E1E1E1E1E1E1E1E1E1E1E1E1E1E1E1E1E1E1E1E1E1E1E1E1
310
E1E1E1E1E1E1E1E1E1E1E1E1E1E1E1E1E1E1E1E1E1E1E1E1E1E1E1E1E1E1E1E1E1E1E1E1E1E1E1E1E1E1E1E1E1E1E1E1E1E1E1E1E1E1E1E1E1E1E1E1E1E128E1BEE1E1E1E1E1E1E1E1E1E1E1E1E1E1E1E1E1E1E1E1E1E1E1E1E1E1E1E1E1E1E1E1E1E1E1E1E1E1E1E1E1E1E1E1E1E1E1E1E1E1E1E1E1E1E1E1E1E1E1E1E1E1
310
E1E1BEE1E1E1E1E1E1E1BEBEE1E1E1E1E1E1E1E1E1E1E1E1E1E1E1E1E1E1E1E1E1E1E1E1E1E1E1E1E1E1E1E1E1E1E1E1E1E1E1E1E1E1E1E1E1E1E1E1E1E1E1E1E1E1BEE1E1E1E1E1E1E1E1E1E1E1E1E1E1E1E1E1E1E1E1E1E1E1E1E1E1E1E1BEE1E1E1E1E1E1E1E1E1E1E1E1E1E1E1E1E1E1E1E1E1E1E1E1E1E1E1E1E1E1E1
310
E1E1E1E1E1E1E1E1E1E1E1E1E1E1E1E1E1E1E1E1E1E1E1E1E1E1E1E1E1E1E1E1E1E1E1E1E1E1E1E1E1E1E1E1E1E1E1E1E1E1E1E1E1E1E1E1E1E1E1E1E1E1E1E128E1BEE1E1E1E1E1E1E1E1E1E1E1E1E1E1E1E1E1E1E1E1E1E1E1E1E1E1E1E1E1E1E1E1E1E1E1E1E1E1E1E1E1E1E1E1E1E1E1E1E1E1E1E1E1E1E1E1E1E1E1E1
310
E1E1E1E1BEE1E1E1E1E1E1E1BEBEE1E1E1E1E1E1E1E1E1E1E1E1E1E1E1E1E1E1E1E1E1E1E1E1E1E1E1E1E1E1E1E1E1E1E1E1E1E1E1E1E1E1E1E1E1E1E1E1E1E1E1E1E1E1E1E1E1E1E1E1E1E1E1E1E1E1E1E1E1E1E1E1E1E1E1E1E1E1E1E1E1E1E1E1E1E1E1E1E1E1E1E1E1E1E1E1E1E1E1E1E1E1E1E1E1E1E1E1E1E1E1E1E1
310
E1E1E1E1E1E1E1E1E1E1E1E1E1E1E1E1E1E1E1E1E1E1E1E1E1E1E1E1E1E1E1E1E1E1E1E1E1E1E1E1E1E1E1E1E1E1E1E1E1E1E1E1E1E1E1E1E1E1E1E1E1E1E1E1E1E128E1BEE1E1E1E1E1E1E1E1E1E1E1E1E1E1E1E1E1E1E1E1E1E1E1E1E1E1E1E1E1E1E1E1E1E1E1E1E1E1E1E1E1E1E1E1E1E1E1E1E1E1E1E1E1E1E1E1E1E1
310
E1E1E1E1E1E1BEE1E1E1E1E1E1E1BEBEE1E1E1E1E1E1E1E1E1E1E1E1E1E1E1E1E1E1E1E1E1E1E1E1E1E1E1E1E1E1E1E1E1E1E1E1E1E1E1E1E1E1E1E1E1E1E1E1E1E1E1E1E1E1E1E1E1E1E1E1E1E1E1E1E1E1E1BEE1E1E1E1E1E1E1E1E1E1E1E1E1E1E1E1E1E1E1E1E1E1E1E1E1E1E1E1E1E1E1E1E1E1E1E1E1E1E1E1E1E1E1
310
E1E1E1E1E1E1E1E1E1E1E1E1E1E1E1E1E1E1E1E1E1E1E1E1E1E1E1E1E1E1E1E1E1E1E1E1E1E1E1E1E1E1E1E1E1E1E1E1E1E1E1E1E1E1E1E1E1E1E1E1E1E1E1E1E1E1E1E128E1BEE1E1E1E1E1E1E1E1E1E1E1E1E1E1E1E1E1E1E1E1E1E1E1E1E1E1E1E1E1E1E1E1E1E1E1E1E1E1E1E1E1E1E1E1E1E1E1E1E1E1E1E1E1E1E1E1
310
E1E1E1E1E1E1E1E1BEE1E1E1E1E1E1E1BEBEE1E1E1E1E1E1E1E1E1E1E1E1E1E1E1E1E1E1E1E1E1E1E1E1E1E1E1E1E1E1E1E1E1E1E1E1E1E1E1E1E1E1E1E1E1E1E1E1E1E1E1E1E1E1E1E1E1E1BEE2E2E2E2E2E2E2E2E2E2E2E2E2E2E2E2E2BEE2E1E1E1E1E1E1E1E1E1E1E1BEBEBEE2E1E1E1E1E1E1E1E1E1E1E1E1E1E1E1E1
310
E1E1E1E1E1E1E1E1E1E1E1E1E1E1E1E1E1E1E1E1E1E1E1E1E1E1E1E1E1E1E1E1E1E1E1E1E1E1E1E1E1E1E1E1E1E1E1E1E1E1E1E1E1E1E1E1E1E1E1E1E1E1E1E1E1E1E1E1E1E128E1BEE1E1E1E1E1E1E1E1E1E1E1E1E1E1E1E1E1E1E1E1E1E1E1E1E1E1E1E1E1E1E1E1E1E1E1E1E1E1E1E1E1E1E1E1E1E1E1E1E1E1E1E1E1E1
310
E1E1E1E1E1E1E1E1E1E1BEE1E1E1E1E1E1E1BE28E1E1E1E1E1E1E1E1E1E1E1E1E1E1E1E1E1E1E1E1E1E1E1E1E1E1E1E1E1E1E1E1E1E1E1E1E1E1E1E1E1E1E1E1E1E1E1E1E1E1E1E1E1E1E1E1E1E2BEBEE2E2E2E2E2E2E2BEE2E2E2E2E2E2E2BEBEE2E1E1E1E1E1E1E1E1E1E1E1BEE2BEBEBEBEE2BEE1E1E1E1E1E1E1E1E1E1
310
E1E1E1E1E1E1E1E1E1E1E1E1E1E1E1E1E1E1E1E1E1E1E1E1E1E1E1E1E1E1E1E1E1E1E1E1E1E1E1E1E1E1E1E1E1E1E1E1E1E1E1E1E1E1E1E1E1E1E1E1E1E1E1E1E1E1E1E1E1E1E1E128E1BEE1E1E1E1E1E1E1E1E1E1E1E1E1E1E1E1E1E1E1E1E1E1E1E1E1E1E1E1E1E1E1E1E1E1E1E1E1E1E1E1E1E1E1E1E1E1E1E1E1E1E1E1
310
E1E1E1E1E1E1E1E1E1E1E1E1BEE1E1E1E1E1E1E1BEBEE1E1E1E1E1E1E1E1E1E1E1E1E1E1E1E1E1E1E1E1E1E1E1E1E1E1E1E1E1E1E1E1E1E1E1E1E1E1E1E1E1E1E1E1E1E1E1E1E1E1E1E1E1E1E1E1E10F0F0FE1E1E1E1E1E1E1BEE1E1E1E1E1E1E1E20FE2E1E1E1E1E1E1E1E1E1E1E1BEBEE1E2E1E1BEE1E1E1E1E1E1E1E1E1
310
E1E1E1E1E1E1E1E1E1E1E1E1E1E1E1E1E1E1E1E1E1E1E1E1E1E1E1E1E1E1E1E1E1E1E1E1E1E1E1E1E1E1E1E1E1E1E1E1E1E1E1E1E1E1E1E1E1E1E1E1E1E1E1E1E1E1E1E1E1E1E1E1E1E128E1BEE1E1E1E1E1E1E1E1E1E1E1E1E1E1E1E1E1E1E1E1E1E1E1E1E1E1E1E1E1E1E1E1E1E1E1E1E1E1E1E1E1E1E1E1E1E1E1E1E1E1
310
E1E1E1E1E1E1E1E1E1E1E1E1E1E1BEE1E1E1E1E1E1E1BEBEE1E1E1E1E1E1E1E1E1E1E1E1E1E1E1E1E1E1E1E1E1E1E1E1E1E1E1E1E1E1E1E1E1E1E1E1E1E1E1E1E1E1E1E1E1E1E1E1E1E1E1E1E1E1E1E1E1E1E2E2E1E1E1E1E1E1E1BEE1E1E1E1E1E1E1E2E2E1E1E1E1E1E1E1E1E1E1E1E1BEBEE1E2E10F0FE1E1E1E1E1E1E1
310
E1E1E1E1E1E1E1E1E1E1E1E1E1E1E1E1E1E1E1E1E1E1E1E1E1E1E1E1E1E1E1E1E1E1E1E1E1E1E1E1E1E1E1E1E1E1E1E1E1E1E1E1E1E1E1E1E1E1E1E1E1E1E1E1E1E1E1E1E1E1E1E1E1E1E1E128E1BEE1E1E1E1E1E1E1E1E1E1E1E1E1E1E1E1E1E1E1E1E1E1E1E1E1E1E1E1E1E1E1E1E1E1E1E1E1E1E1E1E1E1E1E1E1E1E1E1
310
E1E1E1E1E1E1E1E1E1E1E1E1E1E1E1E1BEE1E1E1E1E1E1E1BEBEE1E1E1E1E1E1E1E1E1E1E1E1E1E1E1E1E1E1E1E1E1E1E1E1E1E1E1E1E1E1E1E1E1E1E1E1E1E1E1E1E1E1E1E1E1E1E1E1E1E1E1E1E1E1E1E1E1BEE2E2BEBEBEBEBEBEBEBEE1BEBEBEBEBEBEE2E2BEBEE1E1E1E1E1E1E1E1E1BEBEBEBEE2BE0F0FE1E1E1E1E1
310
E1E1E1E1E1E1E1E1E1E1E1E1E1E1E1E1E1E1E1E1E1E1E1E1E1E1E1E1E1E1E1E1E1E1E1E1E1E1E1E1E1E1E1E1E1E1E1E1E1E1E1E1E1E1E1E1E1E1E1E1E1E1E1E1E1E1E1E1E1E1E1E1E1E1E1E1E1E128E1BEE1E1E1E1E1E1E1E1E1E1E1E1E1E1E1E1E1E1E1E1E1E1E1E1E1E1E1E1E1E1E1E1E1E1E1E1E1E1E1E1E1E1E1E1E1E1
310
E1E1E1E1E1E1E1E1E1E1E1E1E1E1E1E1E1E1BEE1E1E1E1E1E1E1BE28E1E1E1E1E1E1E1E1E1E1E1E1E1E1E1E1E1E1E1E1E1E1E1E1E1E1E1E1E1E1E1E1E1E1E1E1E1E1E1E1E1E1E1E1E1E1E1E1E1E1E1E1E1E1E1E1E1E1E2E2E1E1E1E1E1E1E1BEE1E1E1E1E1E1E1E2E2E1E1E1E1E1E1E1E1E1E1E1E1BEBEE1E2E10F0FE1E1E1
310
E1E1E1E1E1E1E1E1E1E1E1E1E1E1E1E1E1E1E1E1E1E1E1E1E1E1E1E1E1E1E1E1E1E1E1E1E1E1E1E1E1E1E1E1E1E1E1E1E1E1E1E1E1E1E1E1E1E1E1E1E1E1E1E1E1E1E1E1E1E1E1E1E1E1E1E1E1E1E1E128E1BEE1E1E1E1E1E1E1E1E1E1E1E1E1E1E1E1E1E1E1E1E1E1E1E1E1E1E1E1E1E1E1E1E1E1E1E1E1E1E1E1E1E1E1E1
310
E1E1E1E1E1E1E1E1E1E1E1E1E1E1E1E1E1E1E1E1BEE1E1E1E1E1E1E1BE28E1E1E1E1E1E1E1E1E1E1E1E1E1E1E1E1E1E1E1E1E1E1E1E1E1E1E1E1E1E1E1E1E1E1E1E1E1E1E1E1E1E1E1E1E1E1E1E1E1E1E1E1E1E1E1E1E1E1E2E2E1E1E1E1E1E1E1BEE1E1E1E1E1E1E1E2E2E1E1E1E1E1E1E1E1E1E1E1E1BEBEE1E2E10FBEE1
310
E1E1E1E1E1E1E1E1E1E1E1E1E1E1E1E1E1E1E1E1E1E1E1E1E1E1E1E1E1E1E1E1E1E1E1E1E1E1E1E1E1E1E1E1E1E1E1E1E1E1E1E1E1E1E1E1E1E1E1E1E1E1E1E1E1E1E1E1E1E1E1E1E1E1E1E1E1E1E1E1E1E128E1BEE1E1E1E1E1E1E1E1E1E1E1E1E1E1E1E1E1E1E1E1E1E1E1E1E1E1E1E1E1E1E1E1E1E1E1E1E1E1E1E1E1E1
310
E1E1E1E1E1E1E1E1E1E1E1E1E1E1E1E1E1E1E1E1E1E1BEE1E1E1E1E1E1E1E128E1E1E1E1E1E1E1E1E1E1E1E1E1E1E1E1E1E1E1E1E1E1E1E1E1E1E1E1E1E1E1E1E1E1E1E1E1E1E1E1E1E1E1E1E1E1E1E1E1E1E1E1E1E1E1E1E10F0F0FE2E2E2E2E2E2E2BEE2E2E2E2E2E2E2BE0F0FE1E1E1E1E1E1E1E1E1E1E1E2E2BEBEBEBE
310
BEBEE1E1E1E1E1E1E1E1E1E1E1E1E1E1E1E1E1E1E1E1E1E1E1E1E1E1E1E1E1E1E1E1E1E1E1E1E1E1E1E1E1E1E1E1E1E1E1E1E1E1E1E1E1E1E1E1E1E1E1E1E1E1E1E1E1E1E1E1E1E1E1E1E1E1E1E1E1E1E1E1E1E128E1BEE1E1E1E1E1E1E1E1E1E1E1E1E1E1E1E1E1E1E1E1E1E1E1E1E1E1E1E1E1E1E1E1E1E1E1E1E1E1E1E1
310
E1E1E1E1E1E1E1E1E1E1E1E1E1E1E1E1E1E1E1E1E1E1E1E1BEE1E1E1E1E1E1E1E128E1E1E1E1E1E1E1E1E1E1E1E1E1E1E1E1E1E1E1E1E1E1E1E1E1E1E1E1E1E1E1E1E1E1E1E1E1E1E1E1E1E1E1E1E1E1E1E1E1E1E1E1E1E1E1E1E1E2BEE2E2E2E2E2E2E2E2BEE2E2E2E2E2E2E2E2BEE2E1E1E1E1E1E1E1E1E1E1E1BEBEBEBE
310
E1E1E1E1E1E1E1E1E1E1E1E1E1E1E1E1E1E1E1E1E1E1E1E1E1E1E1E1E1E1E1E1E1E1E1E1E1E1E1E1E1E1E1E1E1E1E1E1E1E1E1E1E1E1E1E1E1E1E1E1E1E1E1E1E1E1E1E1E1E1E1E1E1E1E1E1E1E1E1E1E1E1E1E1E1E128E1BEE1E1E1E1E1E1E1E1E1E1E1E1E1E1E1E1E1E1E1E1E1E1E1E1E1E1E1E1E1E1E1E1E1E1E1E1E1E1
310
E1E1E1E1E1E1E1E1E1E1E1E1E1E1E1E1E1E1E1E1E1E1E1E1E1E1BEE1E1E1E1E1E1E1E128E1E1E1E1E1E1E1E1E1E1E1E1E1E1E1E1E1E1E1E1E1E1E1E1E1E1E1E1E1E1E1E1E1E1E1E1E1E1E1E1E1E1E1E1E1E1E1E1E1E1E1E1E1E1E1E1E1E1E1E1E1E1E1E1E1E1E1BEE1E1E1E1E1E1E1E1E1E1E1E1E1E1E1E1E1E1E1E1E1E1E1
310
E1E1E1E1E1E1E1E1E1E1E1E1E1E1E1E1E1E1E1E1E1E1E1E1E1E1E1E1E1E1E1E1E1E1E1E1E1E1E1E1E1E1E1E1E1E1E1E1E1E1E1E1E1E1E1E1E1E1E1E1E1E1E1E1E1E1E1E1E1E1E1E1E1E1E1E1E1E1E1E1E1E1E1E1E1E1E1E128E1BEE1E1E1E1E1E1E1E1E1E1E1E1E1E1E1E1E1E1E1E1E1E1E1E1E1E1E1E1E1E1E1E1E1E1E1E1
310
E1E1E1E1E1E1E1E1E1E1E1E1E1E1E1E1E1E1E1E1E1E1E1E1E1E1E1E1BEE1E1E1E1E1E1E1E128E1E1E1E1E1E1E1E1E1E1E1E1E1E1E1E1E1E1E1E1E1E1E1E1E1E1E1E1E1E1E1E1E1E1E1E1E1E1E1E1E1E1E1E1E1E1E1E1E1E1E1E1E1E1E1E1E1E1E1E1E1E1E1E1E1E1E1E1E1E1E1E1E1E1E1E1E1E1E1E1E1E1E1E1E1E1E1E1E1
310
E1E1E1E1E1E1E1E1E1E1E1E1E1E1E1E1E1E1E1E1E1E1E1E1E1E1E1E1E1E1E1E1E1E1E1E1E1E1E1E1E1E1E1E1E1E1E1E1E1E1E1E1E1E1E1E1E1E1E1E1E1E1E1E1E1E1E1E1E1E1E1E1E1E1E1E1E1E1E1E1E1E1E1E1E1E1E1E1E1E128E1BEE1E1E1E1E1E1E1E1E1E1E1E1E1E1E1E1E1E1E1E1E1E1E1E1E1E1E1E1E1E1E1E1E1E1
310
E1E1E1E1E1E1E1E1E1E1E1E1E1E1E1E1E1E1E1E1E1E1E1E1E1E1E1E1E1E1BEE1E1E1E1E1E1E1E128E1E1E1E1E1E1E1E1E1E1E1E1E1E1E1E1E1E1E1E1E1E1E1E1E1E1E1E1E1E1E1E1E1E1E1E1E1E1E1E1E1E1E1E1E1E1E1E1E1E1E1E1E1E1E1E1E1E1E1E1E1E1E1E1E1E1E1E1E1E1E1E1E1E1E1E1E1E1E1E1E1E1E1E1E1E1E1
310
E1E1E1E1E1E1E1E1E1E1E1E1E1E1E1E1E1E1E1E1E1E1E1E1E1E1E1E1E1E1E1E1E1E1E1E1E1E1E1E1E1E1E1E1E1E1E1E1E1E1E1E1E1E1E1E1E1E1E1E1E1E1E1E1E1E1E1E1E1E1E1E1E1E1E1E1E1E1E1E1E1E1E1E1E1E1E1E1E1E1E1E128E1BEE1E1E1E1E1E1E1E1E1E1E1E1E1E1E1E1E1E1E1E1E1E1E1E1E1E1E1E1E1E1E1E1
310
E1E1E1E1E1E1E1E1E1E1E1E1E1E1E1E1E1E1E1E1E1E1E1E1E1E1E1E1E1E1E1E1BEE1E1E1E1E1E1E1E128E1E1E1E1E1E1E1E1E1E1E1E1E1E1E1E1E1E1E1E1E1E1E1E1E1E1E1E1E1E1E1E1E1E1E1E1E1E1E1E1E1E1E1E1E1E1E1E1E1E1E1E1E1E1E1E1E1E1E1E1E1E1E1E1E1E1E1E1E1E1E1E1E1E1E1E1E1E1E1E1E1E1E1E1E1
310
E1E1E1E1E1E1E1E1E1E1E1E1E1E1E1E1E1E1E1E1E1E1E1E1E1E1E1E1E1E1E1E1E1E1E1E1E1E1E1E1E1E1E1E1E1E1E1E1E1E1E1E1E1E1E1E1E1E1E1E1E1E1E1E1E1E1E1E1E1E1E1E1E1E1E1E1E1E1E1E1E1E1E1E1E1E1E1E1E1E1E1E1E1E128E1BEE1E1E1E1E1E1E1E1E1E1E1E1E1E1E1E1E1E1E1E1E1E1E1E1E1E1E1E1E1E1
310
E1E1E1E1E1E1E1E1E1E1E1E1E1E1E1E1E1E1E1E1E1E1E1E1E1E1E1E1E1E1E1E1E1E1BEE1E1E1E1E1E1E1E128E1E1E1E1E1E1E1E1E1E1E1E1E1E1E1E1E1E1E1E1E1E1E1E1E1E1E1E1E1E1E1E1E1E1E1E1E1E1E1E1E1E1E1E1E1E1E1E1E1E1E1E1E1E1E1E1E1E1E1E1E1E1E1E1E1E1E1E1E1E1E1E1E1E1E1E1E1E1E1E1E1E1E1
310
E1E1E1E1E1E1E1E1E1E1E1E1E1E1E1E1E1E1E1E1E1E1E1E1E1E1E1E1E1E1E1E1E1E1E1E1E1E1E1E1E1E1E1E1E1E1E1E1E1E1E1E1E1E1E1E1E1E1E1E1E1E1E1E1E1E1E1E1E1E1E1E1E1E1E1E1E1E1E1E1E1E1E1E1E1E1E1E1E1E1E1E1E1E1E1E128E1BEE1E1E1E1E1E1E1E1E1E1E1E1E1E1E1E1E1E1E1E1E1E1E1E1E1E1E1E1
310
E1E1E1E1E1E1E1E1E1E1E1E1E1E1E1E1E1E1E1E1E1E1E1E1E1E1E1E1E1E1E1E1E1E1E1E1BEE1E1E1E1E1E1E1E128E1E1E1E1E1E1E1E1E1E1E1E1E1E1E1E1E1E1E1E1E1E1E1E1E1E1E1E1E1E1E1E1E1E1E1E1E1E1E1E1E1E1E1E1E1E1E1E1E1E1E1E1E1E1E1E1E1E1E1E1E1E1E1E1E1E1E1E1E1E1E1E1E1E1E1E1E1E1E1E1E1
310
E1E1E1E1E1E1E1E1E1E1E1E1E1E1E1E1E1E1E1E1E1E1E1E1E1E1E1E1E1E1E1E1E1E1E1E1E1E1E1E1E1E1E1E1E1E1E1E1E1E1E1E1E1E1E1E1E1E1E1E1E1E1E1E1E1E1E1E1E1E1E1E1E1E1E1E1E1E1E1E1E1E1E1E1E1E1E1E1E1E1E1E1E1E1E1E1E1E128E1BEE1E1E1E1E1E1E1E1E1E1E1E1E1E1E1E1E1E1E1E1E1E1E1E1E1E1
310
E1E1E1E1E1E1E1E1E1E1E1E1E1E1E1E1E1E1E1E1E1E1E1E1E1E1E1E1E1E1E1E1E1E1E1E1E1E1BEE1E1E1E1E1E1E1E128E1E1E1E1E1E1E1E1E1E1E1E1E1E1E1E1E1E1E1E1E1E1E1E1E1E1E1E1E1E1E1E1E1E1E1E1E1E1E1E1E1E1E1E1E1E1E1E1E1E1E1E1E1E1E1E1E1E1E1E1E1E1E1E1E1E1E1E1E1E1E1E1E1E1E1E1E1E1E1
310
E1E1E1E1E1E1E1E1E1E1E1E1E1E1E1E1E1E1E1E1E1E1E1E1E1E1E1E1E1E1E1E1E1E1E1E1E1E1E1E1E1E1E1E1E1E1E1E1E1E1E1E1E1E1E1E1E1E1E1E1E1E1E1E1E1E1E1E1E1E1E1E1E1E1E1E1E1E1E1E1E1E1E1E1E1E1E1E1E1E1E1E1E1E1E1E1E1E1E1E128E1BEE1E1E1E1E1E1E1E1E1E1E1E1E1E1E1E1E1E1E1E1E1E1E1E1
310
E1E1E1E1E1E1E1E1E1E1E1E1E1E1E1E1E1E1E1E1E1E1E1E1E1E1E1E1E1E1E1E1E1E1E1E1E1E1E1E1BEE1E1E1E1E1E1E1E128E1E1E1E1E1E1E1E1E1E1E1E1E1E1E1E1E1E1E1E1E1E1E1E1E1E1E1E1E1E1E1E1E1E1E1E1E1E1E1E1E1E1E1E1E1E1E1E1E1E1E1E1E1E1E1E1E1E1E1E1E1E1E1E1E1E1E1E1E1E1E1E1E1E1E1E1E1
310
E1E1E1E1E1E1E1E1E1E1E1E1E1E1E1E1E1E1E1E1E1E1E1E1E1E1E1E1E1E1E1E1E1E1E1E1E1E1E1E1E1E1E1E1E1E1E1E1E1E1E1E1E1E1E1E1E1E1E1E1E1E1E1E1E1E1E1E1E1E1E1E1E1E1E1E1E1E1E1E1E1E1E1E1E1E1E1E1E1E1E1E1E1E1E1E1E1E1E1E1E1E128E1BEE1E1E1E1E1E1E1E1E1E1E1E1E1E1E1E1E1E1E1E1E1E1
310
E1E1E1E1E1E1E1E1E1E1E1E1E1E1E1E1E1E1E1E1E1E1E1E1E1E1E1E1E1E1E1E1E1E1E1E1E1E1E1E1E1E1BEE1E1E1E1E1E1E1E128E1E1E1E1E1E1E1E1E1E1E1E1E1E1E1E1E1E1E1E1E1E1E1E1E1E1E1E1E1E1E1E1E1E1E1E1E1E1E1E1E1E1E1E1E1E1E1E1E1E1E1E1E1E1E1E1E1E1E1E1E1E1E1E1E1E1E1E1E1E1E1E1E1E1E1
310
E1E1E1E1E1E1E1E1E1E1E1E1E1E1E1E1E1E1E1E1E1E1E1E1E1E1E1E1E1E1E1E1E1E1E1E1E1E1E1E1E1E1E1E1E1E1E1E1E1E1E1E1E1E1E1E1E1E1E1E1E1E1E1E1E1E1E1E1E1E1E1E1E1E1E1E1E1E1E1E1E1E1E1E1E1E1E1E1E1E1E1E1E1E1E1E1E1E1E1E1E1E1E1E128E1BEE1E1E1E1E1E1E1E1E1E1E1E1E1E1E1E1E1E1E1E1
310
E1E1E1E1E1E1E1E1E1E1E1E1E1E1E1E1E1E1E1E1E1E1E1E1E1E1E1E1E1E1E1E1E1E1E1E1E1E1E1E1E1E1E1E1BEE1E1E1E1E1E1E1E128E1E1E1E1E1E1E1E1E1E1E1E1E1E1E1E1E1E1E1E1E1E1E1E1E1E1E1E1E1E1E1E1E1E1E1E1E1E1E1E1E1E1E1E1E1E1E1E1E1E1E1E1E1E1E1E1E1E1E1E1E1E1E1E1E1E1E1E1E1E1E1E1E1
310
E1E1E1E1E1E1E1E1E1E1E1E1E1E1E1E1E1E1E1E1E1E1E1E1E1E1E1E1E1E1E1E1E1E1E1E1E1E1E1E1E1E1E1E1E1E1E1E1E1E1E1E1E1E1E1E1E1E1E1E1E1E1E1E1E1E1E1E1E1E1E1E1E1E1E1E1E1E1E1E1E1E1E1E1E1E1E1E1E1E1E1E1E1E1E1E1E1E1E1E1E1E1E1E1E1E128E1BEE1E1E1E1E1E1E1E1E1E1E1E1E1E1E1E1E1E1
310
E1E1E1E1E1E1E1E1E1E1E1E1E1E1E1E1E1E1E1E1E1E1E1E1E1E1E1E1E1E1E1E1E1E1E1E1E1E1E1E1E1E1E1E1E1E1BEE1E1E1E1E1E1E1E128E1E1E1E1E1E1E1E1E1E1E1E1E1E1E1E1E1E1E1E1E1E1E1E1E1E1E1E1E1E1E1E1E1E1E1E1E1E1E1E1E1E1E1E1E1E1E1E1E1E1E1E1E1E1E1E1E1E1E1E1E1E1E1E1E1E1E1E1E1E1E1
310
E1E1E1E1E1E1E1E1E1E1E1E1E1E1E1E1E1E1E1E1E1E1E1E1E1E1E1E1E1E1E1E1E1E1E1E1E1E1E1E1E1E1E1E1E1E1E1E1E1E1E1E1E1E1E1E1E1E1E1E1E1E1E1E1E1E1E1E1E1E1E1E1E1E1E1E1E1E1E1E1E1E1E1E1E1E1E1E1E1E1E1E1E1E1E1E1E1E1E1E1E1E1E1E1E1E1E1E128E1BEE1E1E1E1E1E1E1E1E1E1E1E1E1E1E1E1
310
E1E1E1E1E1E1E1E1E1E1E1E1E1E1E1E1E1E1E1E1E1E1E1E1E1E1E1E1E1E1E1E1E1E1E1E1E1E1E1E1E1E1E1E1E1E1E1E1BEE1E1E1E1E1E1E1E128E1E1E1E1E1E1E1E1E1E1E1E1E1E1E1E1E1E1E1E1E1E1E1E1E1E1E1E1E1E1E1E1E1E1E1E1E1E1E1E1E1E1E1E1E1E1E1E1E1E1E1E1E1E1E1E1E1E1E1E1E1E1E1E1E1E1E1E1E1
310
E1E1E1E1E1E1E1E1E1E1E1E1E1E1E1E1E1E1E1E1E1E1E1E1E1E1E1E1E1E1E1E1E1E1E1E1E1E1E1E1E1E1E1E1E1E1E1E1E1E1E1E1E1E1E1E1E1E1E1E1E1E1E1E1E1E1E1E1E1E1E1E1E1E1E1E1E1E1E1E1E1E1E1E1E1E1E1E1E1E1E1E1E1E1E1E1E1E1E1E1E1E1E1E1E1E1E1E1E1E128E1BEE1E1E1E1E1E1E1E1E1E1E1E1E1E1
310
E1E1E1E1E1E1E1E1E1E1E1E1E1E1E1E1E1E1E1E1E1E1E1E1E1E1E1E1E1E1E1E1E1E1E1E1E1E1E1E1E1E1E1E1E1E1E1E1E1E1BEE1E1E1E1E1E1E1E128E1E1E1E1E1E1E1E1E1E1E1E1E1E1E1E1E1E1E1E1E1E1E1E1E1E1E1E1E1E1E1E1E1E1E1E1E1E1E1E1E1E1E1E1E1E1E1E1E1E1E1E1E1E1E1E1E1E1E1E1E1E1E1E1E1E1E1
310
E1E1E1E1E1E1E1E1E1E1E1E1E1E1E1E1E1E1E1E1E1E1E1E1E1E1E1E1E1E1E1E1E1E1E1E1E1E1E1E1E1E1E1E1E1E1E1E1E1E1E1E1E1E1E1E1E1E1E1E1E1E1E1E1E1E1E1E1E1E1E1E1E1E1E1E1E1E1E1E1E1E1E1E1E1E1E1E1E1E1E1E1E1E1E1E1E1E1E1E1E1E1E1E1E1E1E1E1E1E1E1E128E1BEE1E1E1E1E1E1E1E1E1E1E1E1
310
E1E1E1E1E1E1E1E1E1E1E1E1E1E1E1E1E1E1E1E1E1E1E1E1E1E1E1E1E1E1E1E1E1E1E1E1E1E1E1E1E1E1E1E1E1E1E1E1E1E1E1E1BEE1E1E1E1E1E1E1E128E1E1E1E1E1E1E1E1E1E1E1E1E1E1E1E1E1E1E1E1E1E1E1E1E1E1E1E1E1E1E1E1E1E1E1E1E1E1E1E1E1E1E1E1E1E1E1E1E1E1E1E1E1E1E1E1E1E1E1E1E1E1E1E1E1
310
E1E1E1E1E1E1E1E1E1E1E1E1E1E1E1E1E1E1E1E1E1E1E1E1E1E1E1E1E1E1E1E1E1E1E1E1E1E1E1E1E1E1E1E1E1E1E1E1E1E1E1E1E1E1E1E1E1E1E1E1E1E1E1E1E1E1E1E1E1E1E1E1E1E1E1E1E1E1E1E1E1E1E1E1E1E1E1E1E1E1E1E1E1E1E1E1E1E1E1E1E1E1E1E1E1E1E1E1E1E1E1E1E1E128E1BEE1E1E1E1E1E1E1E1E1E1
310
E1E1E1E1E1E1E1E1E1E1E1E1E1E1E1E1E1E1E1E1E1E1E1E1E1E1E1E1E1E1E1E1E1E1E1E1E1E1E1E1E1E1E1E1E1E1E1E1E1E1E1E1E1E1BEE1E1E1E1E1E1E1E128E1E1E1E1E1E1E1E1E1E1E1E1E1E1E1E1E1E1E1E1E1E1E1E1E1E1E1E1E1E1E1E1E1E1E1E1E1E1E1E1E1E1E1E1E1E1E1E1E1E1E1E1E1E1E1E1E1E1E1E1E1E1E1
310
E1E1E1E1E1E1E1E1E1E1E1E1E1E1E1E1E1E1E1E1E1E1E1E1E1E1E1E1E1E1E1E1E1E1E1E1E1E1E1E1E1E1E1E1E1E1E1E1E1E1E1E1E1E1E1E1E1E1E1E1E1E1E1E1E1E1E1E1E1E1E1E1E1E1E1E1E1E1E1E1E1E1E1E1E1E1E1E1E1E1E1E1E1E1E1E1E1E1E1E1E1E1E1E1E1E1E1E1E1E1E1E1E1E1E1E128E1BEE1E1E1E1E1E1E1E1
310
E1E1E1E1E1E1E1E1E1E1E1E1E1E1E1E1E1E1E1E1E1E1E1E1E1E1E1E1E1E1E1E1E1E1E1E1E1E1E1E1E1E1E1E1E1E1E1E1E1E1E1E1E1E1E1E1BEE1E1E1E1E1E1E1E128E1E1E1E1E1E1E1E1E1E1E1E1E1E1E1E1E1E1E1E1E1E1E1E1E1E1E1E1E1E1E1E1E1E1E1E1E1E1E1E1E1E1E1E1E1E1E1E1E1E1E1E1E1E1E1E1E1E1E1E1E1
310
E1E1E1E1E1E1E1E1E1E1E1E1E1E1E1E1E1E1E1E1E1E1E1E1E1E1E1E1E1E1E1E1E1E1E1E1E1E1E1E1E1E1E1E1E1E1E1E1E1E1E1E1E1E1E1E1E1E1E1E1E1E1E1E1E1E1E1E1E1E1E1E1E1E1E1E1E1E1E1E1E1E1E1E1E1E1E1E1E1E1E1E1E1E1E1E1E1E1E1E1E1E1E1E1E1E1E1E1E1E1E1E1E1E1E1E1E1E128E1BEE1E1E1E1E1E1
310
E1E1E1E1E1E1E1E1E1E1E1E1E1E1E1E1E1E1E1E1E1E1E1E1E1E1E1E1E1E1E1E1E1E1E1E1E1E1E1E1E1E1E1E1E1E1E1E1E1E1E1E1E1E1E1E1E1E1BEE1E1E1E1E1E1E1E128E1E1E1E1E1E1E1E1E1E1E1E1E1E1E1E1E1E1E1E1E1E1E1E1E1E1E1E1E1E1E1E1E1E1E1E1E1E1E1E1E1E1E1E1E1E1E1E1E1E1E1E1E1E1E1E1E1E1E1
310
E1E1E1E1E1E1E1E1E1E1E1E1E1E1E1E1E1E1E1E1E1E1E1E1E1E1E1E1E1E1E1E1E1E1E1E1E1E1E1E1E1E1E1E1E1E1E1E1E1E1E1E1E1E1E1E1E1E1E1E1E1E1E1E1E1E1E1E1E1E1E1E1E1E1E1E1E1E1E1E1E1E1E1E1E1E1E1E1E1E1E1E1E1E1E1E1E1E1E1E1E1E1E1E1E1E1E1E1E1E1E1E1E1E1E1E1E1E1E1E128E1BEE1E1E1E1
310
E1E1E1E1E1E1E1E1E1E1E1E1E1E1E1E1E1E1E1E1E1E1E1E1E1E1E1E1E1E1E1E1E1E1E1E1E1E1E1E1E1E1E1E1E1E1E1E1E1E1E1E1E1E1E1E1E1E1E1E1BEE1E1E1E1E1E1E1E128E1E1E1E1E1E1E1E1E1E1E1E1E1E1E1E1E1E1E1E1E1E1E1E1E1E1E1E1E1E1E1E1E1E1E1E1E1E1E1E1E1E1E1E1E1E1E1E1E1E1E1E1E1E1E1E1E1
310
E1E1E1E1E1E1E1E1E1E1E1E1E1E1E1E1E1E1E1E1E1E1E1E1E1E1E1E1E1E1E1E1E1E1E1E1E1E1E1E1E1E1E1E1E1E1E1E1E1E1E1E1E1E1E1E1E1E1E1E1E1E1E1E1E1E1E1E1E1E1E1E1E1E1E1E1E1E1E1E1E1E1E1E1E1E1E1E1E1E1E1E1E1E1E1E1E1E1E1E1E1E1E1E1E1E1E1E1E1E1E1E1E1E1E1E1E1E1E1E1E1E128E1BEE1E1
310
E1E1E1E1E1E1E1E1E1E1E1E1E1E1E1E1E1E1E1E1E1E1E1E1E1E1E1E1E1E1E1E1E1E1E1E1E1E1E1E1E1E1E1E1E1E1E1E1E1E1E1E1E1E1E1E1E1E1E1E1E1E1BEE1E1E1E1E1E1E1E128E1E1E1E1E1E1E1E1E1E1E1E1E1E1E1E1E1E1E1E1E1E1E1E1E1E1E1E1E1E1E1E1E1E1E1E1E1E1E1E1E1E1E1E1E1E1E1E1E1E1E1E1E1E1E1
310
E1E1E1E1E1E1E1E1E1E1E1E1E1E1E1E1E1E1E1E1E1E1E1E1E1E1E1E1E1E1E1E1E1E1E1E1E1E1E1E1E1E1E1E1E1E1E1E1E1E1E1E1E1E1E1E1E1E1E1E1E1E1E1E1E1E1E1E1E1E1E1E1E1E1E1E1E1E1E1E1E1E1E1E1E1E1E1E1E1E1E1E1E1E1E1E1E1E1E1E1E1E1E1E1E1E1E1E1E1E1E1E1E1E1E1E1E1E1E1E1E1E1E1E128E1BE
310
E1E1E1E1E1E1E1E1E1E1E1E1E1E1E1E1E1E1E1E1E1E1E1E1E1E1E1E1E1E1E1E1E1E1E1E1E1E1E1E1E1E1E1E1E1E1E1E1E1E1E1E1E1E1E1E1E1E1E1E1E1E1E1E1BEE1E1E1E1E1E1E1E128E1E1E1E1E1E1E1E1E1E1E1E1E1E1E1E1E1E1E1E1E1E1E1E1E1E1E1E1E1E1E1E1E1E1E1E1E1E1E1E1E1E1E1E1E1E1E1E1E1E1E1E1E1
310
E1E1E1E1E1E1E1E1E1E1E1E1E1E1E1E1E1E1E1E1E1E1E1E1E1E1E1E1E1E1E1E1E1E1E1E1E1E1E1E1E1E1E1E1E1E1E1E1E1E1E1E1E1E1E1E1E1E1E1E1E1E1E1E1E1E1E1E1E1E1E1E1E1E1E1E1E1E1E1E1E1E1E1E1E1E1E1E1E1E1E1E1E1E1E1E1E1E1E1E1E1E1E1E1E1E1E1E1E1E1E1E1E1E1E1E1E1E1E1E1E1E1E1E1E1E128
310
E1BEE1E1E1E1E1E1E1E1E1E1E1E1E1E1E1E1E1E1E1E1E1E1E1E1E1E1E1E1E1E1E1E1E1E1E1E1E1E1E1E1E1E1E1E1E1E1E1E1E1E1E1E1E1E1E1E1E1E1E1E1E1E1E1E1BEE1E1E1E1E1E1E1E128E1E1E1E1E1E1E1E1E1E1E1E1E1E1E1E1E1E1E1E1E1E1E1E1E1E1E1E1E1E1E1E1E1E1E1E1E1E1E1E1E1E1E1E1E1E1E1E1E1E1E1
310
E1E1E1E1E1E1E1E1E1E1E1E1E1E1E1E1E1E1E1E1E1E1E1E1E1E1E1E1E1E1E1E1E1E1E1E1E1E1E1E1E1E1E1E1E1E1E1E1E1E1E1E1E1E1E1E1E1E1E1E1E1E1E1E1E1E1E1E1E1E1E1E1E1E1E1E1E1E1E1E1E1E1E1E1E1E1E1E1E1E1E1E1E1E1E1E1E1E1E1E1E1E1E1E1E1E1E1E1E1E1E1E1E1E1E1E1E1E1E1E1E1E1E1E1E1E1E1
310
E128E1BEE1E1E1E1E1E1E1E1E1E1E1E1E1E1E1E1E1E1E1E1E1E1E1E1E1E1E1E1E1E1E1E1E1E1E1E1E1E1E1E1E1E1E1E1E1E1E1E1E1E1E1E1E1E1E1E1E1E1E1E1E1E1E1E1BEE1E1E1E1E1E1E1E128E1E1E1E1E1E1E1E1E1E1E1E1E1E1E1E1E1E1E1E1E1E1E1E1E1E1E1E1E1E1E1E1E1E1E1E1E1E1E1E1E1E1E1E1E1E1E1E1E1
310
E1E1E1E1E1E1E1E1E1E1E1E1E1E1E1E1E1E1E1E1E1E1E1E1E1E1E1E1E1E1E1E1E1E1E1E1E1E1E1E1E1E1E1E1E1E1E1E1E1E1E1E1E1E1E1E1E1E1E1E1E1E1E1E1E1E1E1E1E1E1E1E1E1E1E1E1E1E1E1E1E1E1E1E1E1E1E1E1E1E1E1E1E1E1E1E1E1E1E1E1E1E1E1E1E1E1E1E1E1E1E1E1E1E1E1E1E1E1E1E1E1E1E1E1E1E1E1
310
E1E1E128E1BEE1E1E1E1E1E1E1E1E1E1E1E1E1E1E1E1E1E1E1E1E1E1E1E1E1E1E1E1E1E1E1E1E1E1E1E1E1E1E1E1E1E1E1E1E1E1E1E1E1E1E1E1E1E1E1E1E1E1E1E1E1E1E1E1BEE1E1E1E1E1E1E1E128E1E1E1E1E1E1E1E1E1E1E1E1E1E1E1E1E1E1E1E1E1E1E1E1E1E1E1E1E1E1E1E1E1E1E1E1E1E1E1E1E1E1E1E1E1E1E1
310
E1E1E1E1E1E1E1E1E1E1E1E1E1E1E1E1E1E1E1E1E1E1E1E1E1E1E1E1E1E1E1E1E1E1E1E1E1E1E1E1E1E1E1E1E1E1E1E1E1E1E1E1E1E1E1E1E1E1E1E1E1E1E1E1E1E1E1E1E1E1E1E1E1E1E1E1E1E1E1E1E1E1E1E1E1E1E1E1E1E1E1E1E1E1E1E1E1E1E1E1E1E1E1E1E1E1E1E1E1E1E1E1E1E1E1E1E1E1E1E1E1E1E1E1E1E1E1
310
E1E1E1E1E128E1BEE1E1E1E1E1E1E1E1E1E1E1E1E1E1E1E1E1E1E1E1E1E1E1E1E1E1E1E1E1E1E1E1E1E1E1E1E1E1E1E1E1E1E1E1E1E1E1E1E1E1E1E1E1E1E1E1E1E1E1E1E1E1E1E1BEE1E1E1E1E1E1E1E128E1E1E1E1E1E1E1E1E1E1E1E1E1E1E1E1E1E1E1E1E1E1E1E1E1E1E1E1E1E1E1E1E1E1E1E1E1E1E1E1E1E1E1E1E1
310
E1E1E1E1E1E1E1E1E1E1E1E1E1E1E1E1E1E1E1E1E1E1E1E1E1E1E1E1E1E1E1E1E1E1E1E1E1E1E1E1E1E1E1E1E1E1E1E1E1E1E1E1E1E1E1E1E1E1E1E1E1E1E1E1E1E1E1E1E1E1E1E1E1E1E1E1E1E1E1E1E1E1E1E1E1E1E1E1E1E1E1E1E1E1E1E1E1E1E1E1E1E1E1E1E1E1E1E1E1E1E1E1E1E1E1E1E1E1E1E1E1E1E1E1E1E1E1
310
E1E1E1E1E1E1E128E1BEE1E1E1E1E1E1E1E1E1E1E1E1E1E1E1E1E1E1E1E1E1E1E1E1E1E1E1E1E1E1E1E1E1E1E1E1E1E1E1E1E1E1E1E1E1E1E1E1E1E1E1E1E1E1E1E1E1E1E1E1E1E1E1E1BEE1E1E1E1E1E1E1E128E1E1E1E1E1E1E1E1E1E1E1E1E1E1E1E1E1E1E1E1E1E1E1E1E1E1E1E1E1E1E1E1E1E1E1E1E1E1E1E1E1E1E1
310
E1E1E1E1E1E1E1E1E1E1E1E1E1E1E1E1E1E1E1E1E1E1E1E1E1E1E1E1E1E1E1E1E1E1E1E1E1E1E1E1E1E1E1E1E1E1E1E1E1E1E1E1E1E1E1E1E1E1E1E1E1E1E1E1E1E1E1E1E1E1E1E1E1E1E1E1E1E1E1E1E1E1E1E1E1E1E1E1E1E1E1E1E1E1E1E1E1E1E1E1E1E1E1E1E1E1E1E1E1E1E1E1E1E1E1E1E1E1E1E1E1E1E1E1E1E1E1
310
E1E1E1E1E1E1E1E1E128E1BEE1E1E1E1E1E1E1E1E1E1E1E1E1E1E1E1E1E1E1E1E1E1E1E1E1E1E1E1E1E1E1E1E1E1E1E1E1E1E1E1E1E1E1E1E1E1E1E1E1E1E1E1E1E1E1E1E1E1E1E1E1E1E1E1BEE1E1E1E1E1E1E1E128E1E1E1E1E1E1E1E1E1E1E1E1E1E1E1E1E1E1E1E1E1E1E1E1E1E1E1E1E1E1E1E1E1E1E1E1E1E1E1E1E1
310
E1E1E1E1E1E1E1E1E1E1E1E1E1E1E1E1E1E1E1E1E1E1E1E1E1E1E1E1E1E1E1E1E1E1E1E1E1E1E1E1E1E1E1E1E1E1E1E1E1E1E1E1E1E1E1E1E1E1E1E1E1E1E1E1E1E1E1E1E1E1E1E1E1E1E1E1E1E1E1E1E1E1E1E1E1E1E1E1E1E1E1E1E1E1E1E1E1E1E1E1E1E1E1E1E1E1E1E1E1E1E1E1E1E1E1E1E1E1E1E1E1E1E1E1E1E1E1
310
E1E1E1E1E1E1E1E1E1E1E128E1BEE1E1E1E1E1E1E1E1E1E1E1E1E1E1E1E1E1E1E1E1E1E1E1E1E1E1E1E1E1E1E1E1E1E1E1E1E1E1E1E1E1E1E1E1E1E1E1E1E1E1E1E1E1E1E1E1E1E1E1E1E1E1E1E1BEE1E1E1E1E1E1E1E128E1E1E1E1E1E1E1E1E1E1E1E1E1E1E1E1E1E1E1E1E1E1E1E1E1E1E1E1E1E1E1E1E1E1E1E1E1E1E1
310
E1E1E1E1E1E1E1E1E1E1E1E1E1E1E1E1E1E1E1E1E1E1E1E1E1E1E1E1E1E1E1E1E1E1E1E1E1E1E1E1E1E1E1E1E1E1E1E1E1E1E1E1E1E1E1E1E1E1E1E1E1E1E1E1E1E1E1E1E1E1E1E1E1E1E1E1E1E1E1E1E1E1E1E1E1E1E1E1E1E1E1E1E1E1E1E1E1E1E1E1E1E1E1E1E1E1E1E1E1E1E1E1E1E1E1E1E1E1E1E1E1E1E1E1E1E1E1
310
E1E1E1E1E1E1E1E1E1E1E1E1E128E1BEE1E1E1E1E1E1E1E1E1E1E1E1E1E1E1E1E1E1E1E1E1E1E1E1E1E1E1E1E1E1E1E1E1E1E1E1E1E1E1E1E1E1E1E1E1E1E1E1E1E1E1E1E1E1E1E1E1E1E1E1E1E1E1E1BEE1E1E1E1E1E1E1E128E1E1E1E1E1E1E1E1E1E1E1E1E1E1E1E1E1E1E1E1E1E1E1E1E1E1E1E1E1E1E1E1E1E1E1E1E1
310
E1E1E1E1E1E1E1E1E1E1E1E1E1E1E1E1E1E1E1E1E1E1E1E1E1E1E1E1E1E1E1E1E1E1E1E1E1E1E1E1E1E1E1E1E1E1E1E1E1E1E1E1E1E1E1E1E1E1E1E1E1E1E1E1E1E1E1E1E1E1E1E1E1E1E1E1E1E1E1E1E1E1E1E1E1E1E1E1E1E1E1E1E1E1E1E1E1E1E1E1E1E1E1E1E1E1E1E1E1E1E1E1E1E1E1E1E1E1E1E1E1E1E1E1E1E1E1
310
E1E1E1E1E1E1E1E1E1E1E1E1E1E1E128E1BEE1E1E1E1E1E1E1E1E1E1E1E1E1E1E1E1E1E1E1E1E1E1E1E1E1E1E1E1E1E1E1E1E1E1E1E1E1E1E1E1E1E1E1E1E1E1E1E1E1E1E1E1E1E1E1E1E1E1E1E1E1E1E1E1BEE1E1E1E1E1E1E1E128E1E1E1E1E1E1E1E1E1E1E1E1E1E1E1E1E1E1E1E1E1E1E1E1E1E1E1E1E1E1E1E1E1E1E1
310
E1E1E1E1E1E1E1E1E1E1E1E1E1E1E1E1E1E1E1E1E1E1E1E1E1E1E1E1E1E1E1E1E1E1E1E1E1E1E1E1E1E1E1E1E1E1E1E1E1E1E1E1E1E1E1E1E1E1E1E1E1E1E1E1E1E1E1E1E1E1E1E1E1E1E1E1E1E1E1E1E1E1E1E1E1E1E1E1E1E1E1E1E1E1E1E1E1E1E1E1E1E1E1E1E1E1E1E1E1E1E1E1E1E1E1E1E1E1E1E1E1E1E1E1E1E1E1
310
E1E1E1E1E1E1E1E1E1E1E1E1E1E1E1E1E128E1BEE1E1E1E1E1E1E1E1E1E1E1E1E1E1E1E1E1E1E1E1E1E1E1E1E1E1E1E1E1E1E1E1E1E1E1E1E1E1E1E1E1E1E1E1E1E1E1E1E1E1E1E1E1E1E1E1E1E1E1E1E1E1E1E1BEE1E1E1E1E1E1E1E128E1E1E1E1E1E1E1E1E1E1E1E1E1E1E1E1E1E1E1E1E1E1E1E1E1E1E1E1E1E1E1E1E1
310
E1E1E1E1E1E1E1E1E1E1E1E1E1E1E1E1E1E1E1E1E1E1E1E1E1E1E1E1E1E1E1E1E1E1E1E1E1E1E1E1E1E1E1E1E1E1E1E1E1E1E1E1E1E1E1E1E1E1E1E1E1E1E1E1E1E1E1E1E1E1E1E1E1E1E1E1E1E1E1E1E1E1E1E1E1E1E1E1E1E1E1E1E1E1E1E1E1E1E1E1E1E1E1E1E1E1E1E1E1E1E1E1E1E1E1E1E1E1E1E1E1E1E1E1E1E1E1
310
E1E1E1E1E1E1E1E1E1E1E1E1E1E1E1E1E1E1E128E1BEE1E1E1E1E1E1E1E1E1E1E1E1E1E1E1E1E1E1E1E1E1E1E1E1E1E1E1E1E1E1E1E1E1E1E1E1E1E1E1E1E1E1E1E1E1E1E1E1E1E1E1E1E1E1E1E1E1E1E1E1E1E1E1E1BEE1E1E1E1E1E1E1E128E1E1E1E1E1E1E1E1E1E1E1E1E1E1E1E1E1E1E1E1E1E1E1E1E1E1E1E1E1E1E1
310
E1E1E1E1E1E1E1E1E1E1E1E1E1E1E1E1E1E1E1E1E1E1E1E1E1E1E1E1E1E1E1E1E1E1E1E1E1E1E1E1E1E1E1E1E1E1E1E1E1E1E1E1E1E1E1E1E1E1E1E1E1E1E1E1E1E1E1E1E1E1E1E1E1E1E1E1E1E1E1E1E1E1E1E1E1E1E1E1E1E1E1E1E1E1E1E1E1E1E1E1E1E1E1E1E1E1E1E1E1E1E1E1E1E1E1E1E1E1E1E1E1E1E1E1E1E1E1
310
E1E1E1E1E1E1E1E1E1E1E1E1E1E1E1E1E1E1E1E1E128E1BEE1E1E1E1E1E1E1E1E1E1E1E1E1E1E1E1E1E1E1E1E1E1E1E1E1E1E1E1E1E1E1E1E1E1E1E1E1E1E1E1E1E1E1E1E1E1E1E1E1E1E1E1E1E1E1E1E1E1E1E1E1E1E1E1BEE1E1E1E1E1E1E1E128E1E1E1E1E1E1E1E1E1E1E1E1E1E1E1E1E1E1E1E1E1E1E1E1E1E1E1E1E1
310
E1E1E1E1E1E1E1E1E1E1E1E1E1E1E1E1E1E1E1E1E1E1E1E1E1E1E1E1E1E1E1E1E1E1E1E1E1E1E1E1E1E1E1E1E1E1E1E1E1E1E1E1E1E1E1E1E1E1E1E1E1E1E1E1E1E1E1E1E1E1E1E1E1E1E1E1E1E1E1E1E1E1E1E1E1E1E1E1E1E1E1E1E1E1E1E1E1E1E1E1E1E1E1E1E1E1E1E1E1E1E1E1E1E1E1E1E1E1E1E1E1E1E1E1E1E1E1
310
E1E1E1E1E1E1E1E1E1E1E1E1E1E1E1E1E1E1E1E1E1E1E128E1BEE1E1E1E1E1E1E1E1E1E1E1E1E1E1E1E1E1E1E1E1E1E1E1E1E1E1E1E1E1E1E1E1E1E1E1E1E1E1E1E1E1E1E1E1E1E1E1E1E1E1E1E1E1E1E1E1E1E1E1E1E1E1E1E1BEE1E1E1E1E1E1E1E128282828282828282828282828282828282828282828282828282828
310
28282828282828282828282828282828282828282828282828282828282828282828282828282828282828282828282828282828282828282828282828282828282828282828282828282828282828282828282828282828282828282828282828282828282828282828282828282828282828282828282828282828282828
310
2828282828282828282828282828282828282828282828282828E1BEE1E1E1E1E1E1E1E1E1E1E1E1E1E1E1E1E1E1E1E1E1E1E1E1E1E1E1E1E1E1E1E1E1E1E1E1E1E1E1E1E1E1E1E1E1E1E1E1E1E1E1E1E1E1E1E1E1E1E1E1E1E1E1E1BEE1E1E1E1E1E1E1E1E1E1E1E1E1E1E1E1E1E1E1E1E1E1E1E1E1E1E1E1E1E1E1E1E1E1
310
E1E1E1E1E1E1E1E1E1E1E1E1E1E1E1E1E1E1E1E1E1E1BEE1E1E1E1E1E1E1E1E1E1E1E1E1E1E1E1E1E1E1E1E1E1E1E1E1E1E1E1E1E1E1E1E1E1E1E1E1E1E1E1E1E1E1E1E1E1E1BEE1E1E1E1E1E1E1E1E1E1E1E1E1E1E1E1E1E1E1E1E1E1E1E1E1E1E1E1E1E1E1E1E1E1E1E1E1E1E1E1E1E1E1E1E1E1E1E1E1E1E1E1E1E1E1E1
310
E1E1E1E1E1E1E1E1E1E1E1E1E1E1E1E1E1E1E1E1E1E1E1E1E1E1E1E1E1BEE1E1E1E1E1E1E1E1E1E1E1E1E1E1E1E1E1E1E1E1E1E1E1E1E1E1E1E1E1E1E1E1E1E1E1E1E1E1E1E1E1E1E1E1E1E1E1E1E1E1E1E1E1E1E1E1E1E1E1E1E1E1E1E1BEBEBEBEBEBEBEBEBEBEBEBEBEBEBEBEBEBEBEBEBEBEBEBEBEBEBEBEBEBEBEBEBE
310
BEBEBEBEBEBEBEBEBEBEBEBEBEBEBEBEBEBEBEBEBEBEBEBEBEBEBEBEBEBEBEBEBEBEBEBEBEBEBEBEBEBEBEBEBEBEBEBEBEBEBEBEBEBEBEBEBEBEBEBEBEBEBEBEBEBEBEBEBEBEBEBEBEBEBEBEBEBEBEBEBEBEBEBEBEBEBEBEBEBEBEBEBEBEBEBEBEBEBEBEBEBEBEBEBEBEBEBEBEBEBEBEBEBEBEBEBEBEBEBEBEBEBEBEBEBEBE
310
BEBEBEBEBEBEBEBEBEBEBEBEBEBEBEBEBEBEBEBEBEBEBEBEBEBEBEBEBEBEBEBEE1E1E1E1E1E1E1E1E1E1E1E1E1E1E1E1E1E1E1E1E1E1E1E1E1E1E1E1E1E1E1E1
  0
XRECORD
  5
15D94
102
{ACAD_REACTORS
330
15ACC
102
}
330
15ACC
100
AcDbXrecord
280
     1
102
MATERIAL
148
0.0
149
0.0
149
0.0
 93
        0
 94
      127
282
     0
 72
     0
 77
     0
171
     0
175
     0
179
     0
273
     0
  0
XRECORD
  5
15ACE
102
{ACAD_REACTORS
330
15ACC
102
}
330
15ACC
100
AcDbXrecord
280
     1
270
     1
271
     1
  0
XRECORD
  5
15ACD
102
{ACAD_REACTORS
330
15ACC
102
}
330
15ACC
100
AcDbXrecord
280
     1
270
     1
271
     1
  0
XRECORD
  5
15AD1
102
{ACAD_REACTORS
330
15ACC
102
}
330
15ACC
100
AcDbXrecord
280
     1
270
     1
271
     1
  0
XRECORD
  5
15AD0
102
{ACAD_REACTORS
330
15ACC
102
}
330
15ACC
100
AcDbXrecord
280
     1
270
     1
271
     1
  0
XRECORD
  5
15AD2
102
{ACAD_REACTORS
330
15ACC
102
}
330
15ACC
100
AcDbXrecord
280
     1
270
     1
271
     1
  0
XRECORD
  5
15ACF
102
{ACAD_REACTORS
330
15ACC
102
}
330
15ACC
100
AcDbXrecord
280
     1
270
     1
271
     1
  0
XRECORD
  5
15D93
102
{ACAD_REACTORS
330
15AC4
102
}
330
15AC4
100
AcDbXrecord
280
     1
102
MATERIAL
148
0.0
149
0.0
149
0.0
 93
        0
 94
      127
282
     0
 72
     0
 77
     0
171
     0
175
     0
179
     0
273
     0
  0
XRECORD
  5
15AC6
102
{ACAD_REACTORS
330
15AC4
102
}
330
15AC4
100
AcDbXrecord
280
     1
270
     1
271
     1
  0
XRECORD
  5
15AC5
102
{ACAD_REACTORS
330
15AC4
102
}
330
15AC4
100
AcDbXrecord
280
     1
270
     1
271
     1
  0
XRECORD
  5
15AC9
102
{ACAD_REACTORS
330
15AC4
102
}
330
15AC4
100
AcDbXrecord
280
     1
270
     1
271
     1
  0
XRECORD
  5
15AC8
102
{ACAD_REACTORS
330
15AC4
102
}
330
15AC4
100
AcDbXrecord
280
     1
270
     1
271
     1
  0
XRECORD
  5
15ACA
102
{ACAD_REACTORS
330
15AC4
102
}
330
15AC4
100
AcDbXrecord
280
     1
270
     1
271
     1
  0
XRECORD
  5
15AC7
102
{ACAD_REACTORS
330
15AC4
102
}
330
15AC4
100
AcDbXrecord
280
     1
270
     1
271
     1
  0
XRECORD
  5
15D95
102
{ACAD_REACTORS
330
15AD4
102
}
330
15AD4
100
AcDbXrecord
280
     1
102
MATERIAL
148
0.0
149
0.0
149
0.0
 93
        0
 94
      127
282
     0
 72
     0
 77
     0
171
     0
175
     0
179
     0
273
     0
  0
XRECORD
  5
15AD6
102
{ACAD_REACTORS
330
15AD4
102
}
330
15AD4
100
AcDbXrecord
280
     1
270
     1
271
     1
  0
XRECORD
  5
15AD5
102
{ACAD_REACTORS
330
15AD4
102
}
330
15AD4
100
AcDbXrecord
280
     1
270
     1
271
     1
  0
XRECORD
  5
15AD9
102
{ACAD_REACTORS
330
15AD4
102
}
330
15AD4
100
AcDbXrecord
280
     1
270
     1
271
     1
  0
XRECORD
  5
15AD8
102
{ACAD_REACTORS
330
15AD4
102
}
330
15AD4
100
AcDbXrecord
280
     1
270
     1
271
     1
  0
XRECORD
  5
15ADA
102
{ACAD_REACTORS
330
15AD4
102
}
330
15AD4
100
AcDbXrecord
280
     1
270
     1
271
     1
  0
XRECORD
  5
15AD7
102
{ACAD_REACTORS
330
15AD4
102
}
330
15AD4
100
AcDbXrecord
280
     1
270
     1
271
     1
  0
XRECORD
  5
15D92
102
{ACAD_REACTORS
330
15D91
102
}
330
15D91
100
AcDbXrecord
280
     1
102
SHADEPLOT
 70
     1
102
SHADEPLOTRESLEVEL
 70
     2
102
SHADEPLOTCUSTOMDPI
 70
   300
  0
CELLSTYLEMAP
  5
15D86
102
{ACAD_REACTORS
330
15D85
102
}
330
15D85
100
AcDbCellStyleMap
 90
        3
300
CELLSTYLE
  1
TABLEFORMAT_BEGIN
 90
        5
170
     1
 91
        0
 92
    32768
 62
   257
 93
        1
300
CONTENTFORMAT
  1
CONTENTFORMAT_BEGIN
 90
        0
 91
        0
 92
        4
 93
        0
300

 40
0.0
140
1.0
 94
        5
 62
     0
340
11
144
6.0
309
CONTENTFORMAT_END
171
     1
301
MARGIN
  1
CELLMARGIN_BEGIN
 40
1.5
 40
1.5
 40
1.5
 40
1.5
 40
0.18
 40
0.18
309
CELLMARGIN_END
 94
        6
 95
        1
302
GRIDFORMAT
  1
GRIDFORMAT_BEGIN
 90
        0
 91
        1
 62
     0
 92
       -2
340
0
 93
        0
 40
0.045
309
GRIDFORMAT_END
 95
        2
302
GRIDFORMAT
  1
GRIDFORMAT_BEGIN
 90
        0
 91
        1
 62
     0
 92
       -2
340
0
 93
        0
 40
0.045
309
GRIDFORMAT_END
 95
        4
302
GRIDFORMAT
  1
GRIDFORMAT_BEGIN
 90
        0
 91
        1
 62
     0
 92
       -2
340
0
 93
        0
 40
0.045
309
GRIDFORMAT_END
 95
        8
302
GRIDFORMAT
  1
GRIDFORMAT_BEGIN
 90
        0
 91
        1
 62
     0
 92
       -2
340
0
 93
        0
 40
0.045
309
GRIDFORMAT_END
 95
       16
302
GRIDFORMAT
  1
GRIDFORMAT_BEGIN
 90
        0
 91
        1
 62
     0
 92
       -2
340
0
 93
        0
 40
0.045
309
GRIDFORMAT_END
 95
       32
302
GRIDFORMAT
  1
GRIDFORMAT_BEGIN
 90
        0
 91
        1
 62
     0
 92
       -2
340
0
 93
        0
 40
0.045
309
GRIDFORMAT_END
309
TABLEFORMAT_END
  1
CELLSTYLE_BEGIN
 90
        1
 91
        1
300
_TITLE
309
CELLSTYLE_END
300
CELLSTYLE
  1
TABLEFORMAT_BEGIN
 90
        5
170
     1
 91
        0
 92
        0
 62
   257
 93
        1
300
CONTENTFORMAT
  1
CONTENTFORMAT_BEGIN
 90
        0
 91
        0
 92
        4
 93
        0
300

 40
0.0
140
1.0
 94
        5
 62
     0
340
11
144
4.5
309
CONTENTFORMAT_END
171
     1
301
MARGIN
  1
CELLMARGIN_BEGIN
 40
1.5
 40
1.5
 40
1.5
 40
1.5
 40
0.18
 40
0.18
309
CELLMARGIN_END
 94
        6
 95
        1
302
GRIDFORMAT
  1
GRIDFORMAT_BEGIN
 90
        0
 91
        1
 62
     0
 92
       -2
340
0
 93
        0
 40
0.045
309
GRIDFORMAT_END
 95
        2
302
GRIDFORMAT
  1
GRIDFORMAT_BEGIN
 90
        0
 91
        1
 62
     0
 92
       -2
340
0
 93
        0
 40
0.045
309
GRIDFORMAT_END
 95
        4
302
GRIDFORMAT
  1
GRIDFORMAT_BEGIN
 90
        0
 91
        1
 62
     0
 92
       -2
340
0
 93
        0
 40
0.045
309
GRIDFORMAT_END
 95
        8
302
GRIDFORMAT
  1
GRIDFORMAT_BEGIN
 90
        0
 91
        1
 62
     0
 92
       -2
340
0
 93
        0
 40
0.045
309
GRIDFORMAT_END
 95
       16
302
GRIDFORMAT
  1
GRIDFORMAT_BEGIN
 90
        0
 91
        1
 62
     0
 92
       -2
340
0
 93
        0
 40
0.045
309
GRIDFORMAT_END
 95
       32
302
GRIDFORMAT
  1
GRIDFORMAT_BEGIN
 90
        0
 91
        1
 62
     0
 92
       -2
340
0
 93
        0
 40
0.045
309
GRIDFORMAT_END
309
TABLEFORMAT_END
  1
CELLSTYLE_BEGIN
 90
        2
 91
        1
300
_HEADER
309
CELLSTYLE_END
300
CELLSTYLE
  1
TABLEFORMAT_BEGIN
 90
        5
170
     1
 91
        0
 92
        0
 62
   257
 93
        1
300
CONTENTFORMAT
  1
CONTENTFORMAT_BEGIN
 90
        0
 91
        0
 92
        4
 93
        0
300

 40
0.0
140
1.0
 94
        2
 62
     0
340
11
144
4.5
309
CONTENTFORMAT_END
171
     1
301
MARGIN
  1
CELLMARGIN_BEGIN
 40
1.5
 40
1.5
 40
1.5
 40
1.5
 40
0.18
 40
0.18
309
CELLMARGIN_END
 94
        6
 95
        1
302
GRIDFORMAT
  1
GRIDFORMAT_BEGIN
 90
        0
 91
        1
 62
     0
 92
       -2
340
0
 93
        0
 40
0.045
309
GRIDFORMAT_END
 95
        2
302
GRIDFORMAT
  1
GRIDFORMAT_BEGIN
 90
        0
 91
        1
 62
     0
 92
       -2
340
0
 93
        0
 40
0.045
309
GRIDFORMAT_END
 95
        4
302
GRIDFORMAT
  1
GRIDFORMAT_BEGIN
 90
        0
 91
        1
 62
     0
 92
       -2
340
0
 93
        0
 40
0.045
309
GRIDFORMAT_END
 95
        8
302
GRIDFORMAT
  1
GRIDFORMAT_BEGIN
 90
        0
 91
        1
 62
     0
 92
       -2
340
0
 93
        0
 40
0.045
309
GRIDFORMAT_END
 95
       16
302
GRIDFORMAT
  1
GRIDFORMAT_BEGIN
 90
        0
 91
        1
 62
     0
 92
       -2
340
0
 93
        0
 40
0.045
309
GRIDFORMAT_END
 95
       32
302
GRIDFORMAT
  1
GRIDFORMAT_BEGIN
 90
        0
 91
        1
 62
     0
 92
       -2
340
0
 93
        0
 40
0.045
309
GRIDFORMAT_END
309
TABLEFORMAT_END
  1
CELLSTYLE_BEGIN
 90
        3
 91
        2
300
_DATA
309
CELLSTYLE_END
  0
XRECORD
  5
15D90
102
{ACAD_REACTORS
330
15D85
102
}
330
15D85
100
AcDbXrecord
280
     1
102
ACAD_ROUNDTRIP_PRE2007_TABLESTYLE
 90
        4
 91
        0
  1

 92
        4
 93
        0
  2

 94
        4
 95
        0
  3

  0
XRECORD
  5
15DA1
102
{ACAD_REACTORS
330
15DA0
102
}
330
15DA0
100
AcDbXrecord
280
     1
102
RTVSPropertyOp0
 70
     1
102
RTVSPropertyOp1
 70
     1
102
RTVSPropertyOp2
 70
     1
102
RTVSPropertyOp3
 70
     1
102
RTVSPropertyOp4
 70
     1
102
RTVSPropertyOp5
 70
     1
102
RTVSPropertyOp6
 70
     1
102
RTVSPropertyOp7
 70
     1
102
RTVSPropertyOp8
 70
     1
102
RTVSPropertyOp9
 70
     1
102
RTVSPropertyOp10
 70
     1
102
RTVSPropertyOp11
 70
     1
102
RTVSPropertyOp12
 70
     1
102
RTVSPropertyOp13
 70
     1
102
RTVSPropertyOp14
 70
     1
102
RTVSPropertyOp15
 70
     1
102
RTVSPropertyOp16
 70
     1
102
RTVSPropertyOp17
 70
     1
102
RTVSPropertyOp18
 70
     1
102
RTVSPropertyOp19
 70
     1
102
RTVSPropertyOp20
 70
     1
102
RTVSPropertyOp21
 70
     1
102
RTVSPropertyOp22
 70
     1
102
RTVSPropertyOp23
 70
     1
102
RTVSPropertyOp24
 70
     1
102
RTVSPropertyOp25
 70
     1
102
RTVSPropertyOp26
 70
     1
102
RTVSPropertyOp27
 70
     1
  0
XRECORD
  5
15DA5
102
{ACAD_REACTORS
330
15DA4
102
}
330
15DA4
100
AcDbXrecord
280
     1
102
RTVSPropertyOp0
 70
     1
102
RTVSPropertyOp1
 70
     1
102
RTVSPropertyOp2
 70
     1
102
RTVSPropertyOp3
 70
     1
102
RTVSPropertyOp4
 70
     1
102
RTVSPropertyOp5
 70
     1
102
RTVSPropertyOp6
 70
     1
102
RTVSPropertyOp7
 70
     1
102
RTVSPropertyOp8
 70
     1
102
RTVSPropertyOp9
 70
     1
102
RTVSPropertyOp10
 70
     1
102
RTVSPropertyOp11
 70
     1
102
RTVSPropertyOp12
 70
     1
102
RTVSPropertyOp13
 70
     1
102
RTVSPropertyOp14
 70
     1
102
RTVSPropertyOp15
 70
     1
102
RTVSPropertyOp16
 70
     1
102
RTVSPropertyOp17
 70
     1
102
RTVSPropertyOp18
 70
     1
102
RTVSPropertyOp19
 70
     1
102
RTVSPropertyOp20
 70
     1
102
RTVSPropertyOp21
 70
     1
102
RTVSPropertyOp22
 70
     1
102
RTVSPropertyOp23
 70
     1
102
RTVSPropertyOp24
 70
     1
102
RTVSPropertyOp25
 70
     1
102
RTVSPropertyOp26
 70
     1
102
RTVSPropertyOp27
 70
     1
  0
XRECORD
  5
15DA3
102
{ACAD_REACTORS
330
15DA2
102
}
330
15DA2
100
AcDbXrecord
280
     1
102
RTVSPropertyOp0
 70
     1
102
RTVSPropertyOp1
 70
     1
102
RTVSPropertyOp2
 70
     1
102
RTVSPropertyOp3
 70
     1
102
RTVSPropertyOp4
 70
     1
102
RTVSPropertyOp5
 70
     1
102
RTVSPropertyOp6
 70
     1
102
RTVSPropertyOp7
 70
     1
102
RTVSPropertyOp8
 70
     1
102
RTVSPropertyOp9
 70
     1
102
RTVSPropertyOp10
 70
     1
102
RTVSPropertyOp11
 70
     1
102
RTVSPropertyOp12
 70
     1
102
RTVSPropertyOp13
 70
     1
102
RTVSPropertyOp14
 70
     1
102
RTVSPropertyOp15
 70
     1
102
RTVSPropertyOp16
 70
     1
102
RTVSPropertyOp17
 70
     1
102
RTVSPropertyOp18
 70
     1
102
RTVSPropertyOp19
 70
     1
102
RTVSPropertyOp20
 70
     1
102
RTVSPropertyOp21
 70
     1
102
RTVSPropertyOp22
 70
     1
102
RTVSPropertyOp23
 70
     1
102
RTVSPropertyOp24
 70
     1
102
RTVSPropertyOp25
 70
     1
102
RTVSPropertyOp26
 70
     1
102
RTVSPropertyOp27
 70
     1
  0
XRECORD
  5
15D9F
102
{ACAD_REACTORS
330
15D9E
102
}
330
15D9E
100
AcDbXrecord
280
     1
102
RTVSPropertyOp0
 70
     1
102
RTVSPropertyOp1
 70
     1
102
RTVSPropertyOp2
 70
     1
102
RTVSPropertyOp3
 70
     1
102
RTVSPropertyOp4
 70
     1
102
RTVSPropertyOp5
 70
     1
102
RTVSPropertyOp6
 70
     1
102
RTVSPropertyOp7
 70
     1
102
RTVSPropertyOp8
 70
     1
102
RTVSPropertyOp9
 70
     1
102
RTVSPropertyOp10
 70
     1
102
RTVSPropertyOp11
 70
     1
102
RTVSPropertyOp12
 70
     1
102
RTVSPropertyOp13
 70
     1
102
RTVSPropertyOp14
 70
     1
102
RTVSPropertyOp15
 70
     1
102
RTVSPropertyOp16
 70
     1
102
RTVSPropertyOp17
 70
     1
102
RTVSPropertyOp18
 70
     1
102
RTVSPropertyOp19
 70
     1
102
RTVSPropertyOp20
 70
     1
102
RTVSPropertyOp21
 70
     1
102
RTVSPropertyOp22
 70
     1
102
RTVSPropertyOp23
 70
     1
102
RTVSPropertyOp24
 70
     1
102
RTVSPropertyOp25
 70
     1
102
RTVSPropertyOp26
 70
     1
102
RTVSPropertyOp27
 70
     1
  0
XRECORD
  5
15DAD
102
{ACAD_REACTORS
330
15DAC
102
}
330
15DAC
100
AcDbXrecord
280
     1
102
RTVSPropertyOp0
 70
     1
102
RTVSPropertyOp1
 70
     1
102
RTVSPropertyOp2
 70
     1
102
RTVSPropertyOp3
 70
     1
102
RTVSPropertyOp4
 70
     1
102
RTVSPropertyOp5
 70
     1
102
RTVSPropertyOp6
 70
     1
102
RTVSPropertyOp7
 70
     1
102
RTVSPropertyOp8
 70
     1
102
RTVSPropertyOp9
 70
     1
102
RTVSPropertyOp10
 70
     1
102
RTVSPropertyOp11
 70
     1
102
RTVSPropertyOp12
 70
     1
102
RTVSPropertyOp13
 70
     1
102
RTVSPropertyOp14
 70
     1
102
RTVSPropertyOp15
 70
     1
102
RTVSPropertyOp16
 70
     1
102
RTVSPropertyOp17
 70
     1
102
RTVSPropertyOp18
 70
     1
102
RTVSPropertyOp19
 70
     1
102
RTVSPropertyOp20
 70
     1
102
RTVSPropertyOp21
 70
     1
102
RTVSPropertyOp22
 70
     1
102
RTVSPropertyOp23
 70
     1
102
RTVSPropertyOp24
 70
     1
102
RTVSPropertyOp25
 70
     1
102
RTVSPropertyOp26
 70
     1
102
RTVSPropertyOp27
 70
     1
  0
XRECORD
  5
15DB5
102
{ACAD_REACTORS
330
15DB4
102
}
330
15DB4
100
AcDbXrecord
280
     1
102
RTVSPropertyOp0
 70
     1
102
RTVSPropertyOp1
 70
     1
102
RTVSPropertyOp2
 70
     1
102
RTVSPropertyOp3
 70
     1
102
RTVSPropertyOp4
 70
     1
102
RTVSPropertyOp5
 70
     1
102
RTVSPropertyOp6
 70
     1
102
RTVSPropertyOp7
 70
     1
102
RTVSPropertyOp8
 70
     1
102
RTVSPropertyOp9
 70
     1
102
RTVSPropertyOp10
 70
     1
102
RTVSPropertyOp11
 70
     1
102
RTVSPropertyOp12
 70
     1
102
RTVSPropertyOp13
 70
     1
102
RTVSPropertyOp14
 70
     1
102
RTVSPropertyOp15
 70
     1
102
RTVSPropertyOp16
 70
     1
102
RTVSPropertyOp17
 70
     1
102
RTVSPropertyOp18
 70
     1
102
RTVSPropertyOp19
 70
     1
102
RTVSPropertyOp20
 70
     1
102
RTVSPropertyOp21
 70
     1
102
RTVSPropertyOp22
 70
     1
102
RTVSPropertyOp23
 70
     1
102
RTVSPropertyOp24
 70
     1
102
RTVSPropertyOp25
 70
     1
102
RTVSPropertyOp26
 70
     1
102
RTVSPropertyOp27
 70
     1
  0
XRECORD
  5
15DA7
102
{ACAD_REACTORS
330
15DA6
102
}
330
15DA6
100
AcDbXrecord
280
     1
102
RTVSPropertyOp0
 70
     1
102
RTVSPropertyOp1
 70
     1
102
RTVSPropertyOp2
 70
     1
102
RTVSPropertyOp3
 70
     1
102
RTVSPropertyOp4
 70
     1
102
RTVSPropertyOp5
 70
     1
102
RTVSPropertyOp6
 70
     1
102
RTVSPropertyOp7
 70
     1
102
RTVSPropertyOp8
 70
     1
102
RTVSPropertyOp9
 70
     1
102
RTVSPropertyOp10
 70
     1
102
RTVSPropertyOp11
 70
     1
102
RTVSPropertyOp12
 70
     1
102
RTVSPropertyOp13
 70
     1
102
RTVSPropertyOp14
 70
     1
102
RTVSPropertyOp15
 70
     1
102
RTVSPropertyOp16
 70
     1
102
RTVSPropertyOp17
 70
     1
102
RTVSPropertyOp18
 70
     1
102
RTVSPropertyOp19
 70
     1
102
RTVSPropertyOp20
 70
     1
102
RTVSPropertyOp21
 70
     1
102
RTVSPropertyOp22
 70
     1
102
RTVSPropertyOp23
 70
     1
102
RTVSPropertyOp24
 70
     1
102
RTVSPropertyOp25
 70
     1
102
RTVSPropertyOp26
 70
     1
102
RTVSPropertyOp27
 70
     1
  0
XRECORD
  5
15DAB
102
{ACAD_REACTORS
330
15DAA
102
}
330
15DAA
100
AcDbXrecord
280
     1
102
RTVSPropertyOp0
 70
     1
102
RTVSPropertyOp1
 70
     1
102
RTVSPropertyOp2
 70
     1
102
RTVSPropertyOp3
 70
     1
102
RTVSPropertyOp4
 70
     1
102
RTVSPropertyOp5
 70
     1
102
RTVSPropertyOp6
 70
     1
102
RTVSPropertyOp7
 70
     1
102
RTVSPropertyOp8
 70
     1
102
RTVSPropertyOp9
 70
     1
102
RTVSPropertyOp10
 70
     1
102
RTVSPropertyOp11
 70
     1
102
RTVSPropertyOp12
 70
     1
102
RTVSPropertyOp13
 70
     1
102
RTVSPropertyOp14
 70
     1
102
RTVSPropertyOp15
 70
     1
102
RTVSPropertyOp16
 70
     1
102
RTVSPropertyOp17
 70
     1
102
RTVSPropertyOp18
 70
     1
102
RTVSPropertyOp19
 70
     1
102
RTVSPropertyOp20
 70
     1
102
RTVSPropertyOp21
 70
     1
102
RTVSPropertyOp22
 70
     1
102
RTVSPropertyOp23
 70
     1
102
RTVSPropertyOp24
 70
     1
102
RTVSPropertyOp25
 70
     1
102
RTVSPropertyOp26
 70
     1
102
RTVSPropertyOp27
 70
     1
  0
XRECORD
  5
15DBB
102
{ACAD_REACTORS
330
15DBA
102
}
330
15DBA
100
AcDbXrecord
280
     1
102
RTVSPropertyOp0
 70
     0
102
RTVSPropertyOp1
 70
     0
102
RTVSPropertyOp2
 70
     0
102
RTVSPropertyOp3
 70
     0
102
RTVSPropertyOp4
 70
     0
102
RTVSPropertyOp5
 70
     0
102
RTVSPropertyOp6
 70
     0
102
RTVSPropertyOp7
 70
     0
102
RTVSPropertyOp8
 70
     0
102
RTVSPropertyOp9
 70
     0
102
RTVSPropertyOp10
 70
     0
102
RTVSPropertyOp11
 70
     0
102
RTVSPropertyOp12
 70
     0
102
RTVSPropertyOp13
 70
     0
102
RTVSPropertyOp14
 70
     2
102
RTVSPropertyOp15
 70
     0
102
RTVSPropertyOp16
 70
     0
102
RTVSPropertyOp17
 70
     0
102
RTVSPropertyOp18
 70
     0
102
RTVSPropertyOp19
 70
     0
102
RTVSPropertyOp20
 70
     0
102
RTVSPropertyOp21
 70
     0
102
RTVSPropertyOp22
 70
     0
102
RTVSPropertyOp23
 70
     0
102
RTVSPropertyOp24
 70
     0
102
RTVSPropertyOp25
 70
     0
102
RTVSPropertyOp26
 70
     0
102
RTVSPropertyOp27
 70
     0
  0
XRECORD
  5
15DB3
102
{ACAD_REACTORS
330
15DB2
102
}
330
15DB2
100
AcDbXrecord
280
     1
102
RTVSPropertyOp0
 70
     1
102
RTVSPropertyOp1
 70
     1
102
RTVSPropertyOp2
 70
     1
102
RTVSPropertyOp3
 70
     1
102
RTVSPropertyOp4
 70
     1
102
RTVSPropertyOp5
 70
     1
102
RTVSPropertyOp6
 70
     1
102
RTVSPropertyOp7
 70
     1
102
RTVSPropertyOp8
 70
     1
102
RTVSPropertyOp9
 70
     1
102
RTVSPropertyOp10
 70
     1
102
RTVSPropertyOp11
 70
     1
102
RTVSPropertyOp12
 70
     1
102
RTVSPropertyOp13
 70
     1
102
RTVSPropertyOp14
 70
     1
102
RTVSPropertyOp15
 70
     1
102
RTVSPropertyOp16
 70
     1
102
RTVSPropertyOp17
 70
     1
102
RTVSPropertyOp18
 70
     1
102
RTVSPropertyOp19
 70
     1
102
RTVSPropertyOp20
 70
     1
102
RTVSPropertyOp21
 70
     1
102
RTVSPropertyOp22
 70
     1
102
RTVSPropertyOp23
 70
     1
102
RTVSPropertyOp24
 70
     1
102
RTVSPropertyOp25
 70
     1
102
RTVSPropertyOp26
 70
     1
102
RTVSPropertyOp27
 70
     1
  0
XRECORD
  5
15D97
102
{ACAD_REACTORS
330
15D96
102
}
330
15D96
100
AcDbXrecord
280
     1
102
RTVSPropertyOp0
 70
     1
102
RTVSPropertyOp1
 70
     1
102
RTVSPropertyOp2
 70
     1
102
RTVSPropertyOp3
 70
     1
102
RTVSPropertyOp4
 70
     1
102
RTVSPropertyOp5
 70
     1
102
RTVSPropertyOp6
 70
     1
102
RTVSPropertyOp7
 70
     1
102
RTVSPropertyOp8
 70
     1
102
RTVSPropertyOp9
 70
     1
102
RTVSPropertyOp10
 70
     1
102
RTVSPropertyOp11
 70
     1
102
RTVSPropertyOp12
 70
     1
102
RTVSPropertyOp13
 70
     1
102
RTVSPropertyOp14
 70
     1
102
RTVSPropertyOp15
 70
     1
102
RTVSPropertyOp16
 70
     1
102
RTVSPropertyOp17
 70
     1
102
RTVSPropertyOp18
 70
     1
102
RTVSPropertyOp19
 70
     1
102
RTVSPropertyOp20
 70
     1
102
RTVSPropertyOp21
 70
     1
102
RTVSPropertyOp22
 70
     1
102
RTVSPropertyOp23
 70
     1
102
RTVSPropertyOp24
 70
     1
102
RTVSPropertyOp25
 70
     1
102
RTVSPropertyOp26
 70
     1
102
RTVSPropertyOp27
 70
     1
  0
XRECORD
  5
15D99
102
{ACAD_REACTORS
330
15D98
102
}
330
15D98
100
AcDbXrecord
280
     1
102
RTVSPropertyOp0
 70
     1
102
RTVSPropertyOp1
 70
     1
102
RTVSPropertyOp2
 70
     1
102
RTVSPropertyOp3
 70
     1
102
RTVSPropertyOp4
 70
     1
102
RTVSPropertyOp5
 70
     1
102
RTVSPropertyOp6
 70
     1
102
RTVSPropertyOp7
 70
     1
102
RTVSPropertyOp8
 70
     1
102
RTVSPropertyOp9
 70
     1
102
RTVSPropertyOp10
 70
     1
102
RTVSPropertyOp11
 70
     1
102
RTVSPropertyOp12
 70
     1
102
RTVSPropertyOp13
 70
     1
102
RTVSPropertyOp14
 70
     1
102
RTVSPropertyOp15
 70
     1
102
RTVSPropertyOp16
 70
     1
102
RTVSPropertyOp17
 70
     1
102
RTVSPropertyOp18
 70
     1
102
RTVSPropertyOp19
 70
     1
102
RTVSPropertyOp20
 70
     1
102
RTVSPropertyOp21
 70
     1
102
RTVSPropertyOp22
 70
     1
102
RTVSPropertyOp23
 70
     1
102
RTVSPropertyOp24
 70
     1
102
RTVSPropertyOp25
 70
     1
102
RTVSPropertyOp26
 70
     1
102
RTVSPropertyOp27
 70
     1
  0
XRECORD
  5
15D9B
102
{ACAD_REACTORS
330
15D9A
102
}
330
15D9A
100
AcDbXrecord
280
     1
102
RTVSPropertyOp0
 70
     1
102
RTVSPropertyOp1
 70
     1
102
RTVSPropertyOp2
 70
     1
102
RTVSPropertyOp3
 70
     1
102
RTVSPropertyOp4
 70
     1
102
RTVSPropertyOp5
 70
     1
102
RTVSPropertyOp6
 70
     1
102
RTVSPropertyOp7
 70
     1
102
RTVSPropertyOp8
 70
     1
102
RTVSPropertyOp9
 70
     1
102
RTVSPropertyOp10
 70
     1
102
RTVSPropertyOp11
 70
     1
102
RTVSPropertyOp12
 70
     1
102
RTVSPropertyOp13
 70
     1
102
RTVSPropertyOp14
 70
     1
102
RTVSPropertyOp15
 70
     1
102
RTVSPropertyOp16
 70
     1
102
RTVSPropertyOp17
 70
     1
102
RTVSPropertyOp18
 70
     1
102
RTVSPropertyOp19
 70
     1
102
RTVSPropertyOp20
 70
     1
102
RTVSPropertyOp21
 70
     1
102
RTVSPropertyOp22
 70
     1
102
RTVSPropertyOp23
 70
     1
102
RTVSPropertyOp24
 70
     1
102
RTVSPropertyOp25
 70
     1
102
RTVSPropertyOp26
 70
     1
102
RTVSPropertyOp27
 70
     1
  0
XRECORD
  5
15D9D
102
{ACAD_REACTORS
330
15D9C
102
}
330
15D9C
100
AcDbXrecord
280
     1
102
RTVSPropertyOp0
 70
     1
102
RTVSPropertyOp1
 70
     1
102
RTVSPropertyOp2
 70
     1
102
RTVSPropertyOp3
 70
     1
102
RTVSPropertyOp4
 70
     1
102
RTVSPropertyOp5
 70
     1
102
RTVSPropertyOp6
 70
     1
102
RTVSPropertyOp7
 70
     1
102
RTVSPropertyOp8
 70
     1
102
RTVSPropertyOp9
 70
     1
102
RTVSPropertyOp10
 70
     1
102
RTVSPropertyOp11
 70
     1
102
RTVSPropertyOp12
 70
     1
102
RTVSPropertyOp13
 70
     1
102
RTVSPropertyOp14
 70
     1
102
RTVSPropertyOp15
 70
     1
102
RTVSPropertyOp16
 70
     1
102
RTVSPropertyOp17
 70
     1
102
RTVSPropertyOp18
 70
     1
102
RTVSPropertyOp19
 70
     1
102
RTVSPropertyOp20
 70
     1
102
RTVSPropertyOp21
 70
     1
102
RTVSPropertyOp22
 70
     1
102
RTVSPropertyOp23
 70
     1
102
RTVSPropertyOp24
 70
     1
102
RTVSPropertyOp25
 70
     1
102
RTVSPropertyOp26
 70
     1
102
RTVSPropertyOp27
 70
     1
  0
XRECORD
  5
15DB7
102
{ACAD_REACTORS
330
15DB6
102
}
330
15DB6
100
AcDbXrecord
280
     1
102
RTVSPropertyOp0
 70
     0
102
RTVSPropertyOp1
 70
     0
102
RTVSPropertyOp2
 70
     0
102
RTVSPropertyOp3
 70
     0
102
RTVSPropertyOp4
 70
     0
102
RTVSPropertyOp5
 70
     0
102
RTVSPropertyOp6
 70
     0
102
RTVSPropertyOp7
 70
     0
102
RTVSPropertyOp8
 70
     0
102
RTVSPropertyOp9
 70
     0
102
RTVSPropertyOp10
 70
     0
102
RTVSPropertyOp11
 70
     0
102
RTVSPropertyOp12
 70
     0
102
RTVSPropertyOp13
 70
     0
102
RTVSPropertyOp14
 70
     2
102
RTVSPropertyOp15
 70
     0
102
RTVSPropertyOp16
 70
     0
102
RTVSPropertyOp17
 70
     0
102
RTVSPropertyOp18
 70
     0
102
RTVSPropertyOp19
 70
     0
102
RTVSPropertyOp20
 70
     0
102
RTVSPropertyOp21
 70
     0
102
RTVSPropertyOp22
 70
     0
102
RTVSPropertyOp23
 70
     0
102
RTVSPropertyOp24
 70
     0
102
RTVSPropertyOp25
 70
     0
102
RTVSPropertyOp26
 70
     0
102
RTVSPropertyOp27
 70
     0
  0
XRECORD
  5
15DB1
102
{ACAD_REACTORS
330
15DB0
102
}
330
15DB0
100
AcDbXrecord
280
     1
102
RTVSPropertyOp0
 70
     1
102
RTVSPropertyOp1
 70
     1
102
RTVSPropertyOp2
 70
     1
102
RTVSPropertyOp3
 70
     1
102
RTVSPropertyOp4
 70
     1
102
RTVSPropertyOp5
 70
     1
102
RTVSPropertyOp6
 70
     1
102
RTVSPropertyOp7
 70
     1
102
RTVSPropertyOp8
 70
     1
102
RTVSPropertyOp9
 70
     1
102
RTVSPropertyOp10
 70
     1
102
RTVSPropertyOp11
 70
     1
102
RTVSPropertyOp12
 70
     1
102
RTVSPropertyOp13
 70
     1
102
RTVSPropertyOp14
 70
     1
102
RTVSPropertyOp15
 70
     1
102
RTVSPropertyOp16
 70
     1
102
RTVSPropertyOp17
 70
     1
102
RTVSPropertyOp18
 70
     1
102
RTVSPropertyOp19
 70
     1
102
RTVSPropertyOp20
 70
     1
102
RTVSPropertyOp21
 70
     1
102
RTVSPropertyOp22
 70
     1
102
RTVSPropertyOp23
 70
     1
102
RTVSPropertyOp24
 70
     1
102
RTVSPropertyOp25
 70
     1
102
RTVSPropertyOp26
 70
     1
102
RTVSPropertyOp27
 70
     1
  0
XRECORD
  5
15DB9
102
{ACAD_REACTORS
330
15DB8
102
}
330
15DB8
100
AcDbXrecord
280
     1
102
RTVSPropertyOp0
 70
     0
102
RTVSPropertyOp1
 70
     0
102
RTVSPropertyOp2
 70
     0
102
RTVSPropertyOp3
 70
     0
102
RTVSPropertyOp4
 70
     0
102
RTVSPropertyOp5
 70
     0
102
RTVSPropertyOp6
 70
     0
102
RTVSPropertyOp7
 70
     0
102
RTVSPropertyOp8
 70
     0
102
RTVSPropertyOp9
 70
     0
102
RTVSPropertyOp10
 70
     0
102
RTVSPropertyOp11
 70
     0
102
RTVSPropertyOp12
 70
     0
102
RTVSPropertyOp13
 70
     0
102
RTVSPropertyOp14
 70
     2
102
RTVSPropertyOp15
 70
     0
102
RTVSPropertyOp16
 70
     0
102
RTVSPropertyOp17
 70
     0
102
RTVSPropertyOp18
 70
     0
102
RTVSPropertyOp19
 70
     0
102
RTVSPropertyOp20
 70
     0
102
RTVSPropertyOp21
 70
     0
102
RTVSPropertyOp22
 70
     0
102
RTVSPropertyOp23
 70
     0
102
RTVSPropertyOp24
 70
     0
102
RTVSPropertyOp25
 70
     0
102
RTVSPropertyOp26
 70
     0
102
RTVSPropertyOp27
 70
     0
  0
XRECORD
  5
15DA9
102
{ACAD_REACTORS
330
15DA8
102
}
330
15DA8
100
AcDbXrecord
280
     1
102
RTVSPropertyOp0
 70
     1
102
RTVSPropertyOp1
 70
     1
102
RTVSPropertyOp2
 70
     1
102
RTVSPropertyOp3
 70
     1
102
RTVSPropertyOp4
 70
     1
102
RTVSPropertyOp5
 70
     1
102
RTVSPropertyOp6
 70
     1
102
RTVSPropertyOp7
 70
     1
102
RTVSPropertyOp8
 70
     1
102
RTVSPropertyOp9
 70
     1
102
RTVSPropertyOp10
 70
     1
102
RTVSPropertyOp11
 70
     1
102
RTVSPropertyOp12
 70
     1
102
RTVSPropertyOp13
 70
     1
102
RTVSPropertyOp14
 70
     1
102
RTVSPropertyOp15
 70
     1
102
RTVSPropertyOp16
 70
     1
102
RTVSPropertyOp17
 70
     1
102
RTVSPropertyOp18
 70
     1
102
RTVSPropertyOp19
 70
     1
102
RTVSPropertyOp20
 70
     1
102
RTVSPropertyOp21
 70
     1
102
RTVSPropertyOp22
 70
     1
102
RTVSPropertyOp23
 70
     1
102
RTVSPropertyOp24
 70
     1
102
RTVSPropertyOp25
 70
     1
102
RTVSPropertyOp26
 70
     1
102
RTVSPropertyOp27
 70
     1
  0
XRECORD
  5
15DAF
102
{ACAD_REACTORS
330
15DAE
102
}
330
15DAE
100
AcDbXrecord
280
     1
102
RTVSPropertyOp0
 70
     1
102
RTVSPropertyOp1
 70
     1
102
RTVSPropertyOp2
 70
     1
102
RTVSPropertyOp3
 70
     1
102
RTVSPropertyOp4
 70
     1
102
RTVSPropertyOp5
 70
     1
102
RTVSPropertyOp6
 70
     1
102
RTVSPropertyOp7
 70
     1
102
RTVSPropertyOp8
 70
     1
102
RTVSPropertyOp9
 70
     1
102
RTVSPropertyOp10
 70
     1
102
RTVSPropertyOp11
 70
     1
102
RTVSPropertyOp12
 70
     1
102
RTVSPropertyOp13
 70
     1
102
RTVSPropertyOp14
 70
     1
102
RTVSPropertyOp15
 70
     1
102
RTVSPropertyOp16
 70
     1
102
RTVSPropertyOp17
 70
     1
102
RTVSPropertyOp18
 70
     1
102
RTVSPropertyOp19
 70
     1
102
RTVSPropertyOp20
 70
     1
102
RTVSPropertyOp21
 70
     1
102
RTVSPropertyOp22
 70
     1
102
RTVSPropertyOp23
 70
     1
102
RTVSPropertyOp24
 70
     1
102
RTVSPropertyOp25
 70
     1
102
RTVSPropertyOp26
 70
     1
102
RTVSPropertyOp27
 70
     1
  0
DICTIONARY
  5
15D3A
102
{ACAD_REACTORS
330
15D39
102
}
330
15D39
100
AcDbDictionary
280
     1
281
     1
  3
$PH$AAAA
360
15D3B
  3
PH_GRPMEMBERS
360
15D3D
  0
PH_GROUP
  5
15D3E
102
{ACAD_REACTORS
330
15D39
102
}
330
15D39
  0
DICTIONARY
  5
15D3B
102
{ACAD_REACTORS
330
15D3A
102
}
330
15D3A
100
AcDbDictionary
280
     1
281
     1
  3
PH_GRPMEMBERS
360
15D3C
  0
PH_GROUP
  5
15D3D
102
{ACAD_REACTORS
330
15D3A
102
}
330
15D3A
  0
PH_GROUP
  5
15D3C
102
{ACAD_REACTORS
330
15D3B
102
}
330
15D3B
  0
ENDSEC
  0
EOF
