  0
SECTION
  2
HEADER
  9
$ACADVER
  1
AC1015
  9
$ACADMAINTVER
 70
    20
  9
$DWGCODEPAGE
  3
ANSI_1252
  9
$INSBASE
 10
0.0
 20
0.0
 30
0.0
  9
$EXTMIN
 10
0.9047291722436057
 20
0.9353071988275587
 30
-0.0015258207003583
  9
$EXTMAX
 10
593.0467567563137
 20
419.0696138961593
 30
0.0000000349246037
  9
$LIMMIN
 10
0.0
 20
0.0
  9
$LIMMAX
 10
594.0
 20
420.0
  9
$ORTHOMODE
 70
     1
  9
$REGENMODE
 70
     1
  9
$FILLMODE
 70
     1
  9
$QTEXTMODE
 70
     0
  9
$MIRRTEXT
 70
     1
  9
$LTSCALE
 40
0.4
  9
$ATTMODE
 70
     1
  9
$TEXTSIZE
 40
2.5
  9
$TRACEWID
 40
1.0
  9
$TEXTSTYLE
  7
STANDARD
  9
$CLAYER
  8
0
  9
$CELTYPE
  6
CONTINUOUS
  9
$CECOLOR
 62
     7
  9
$CELTSCALE
 40
1.0
  9
$DISPSILH
 70
     0
  9
$DIMSCALE
 40
1.0
  9
$DIMASZ
 40
3.72
  9
$DIMEXO
 40
0.0
  9
$DIMDLI
 40
7.0
  9
$DIMRND
 40
0.0
  9
$DIMDLE
 40
0.0
  9
$DIMEXE
 40
1.5
  9
$DIMTP
 40
0.0
  9
$DIMTM
 40
0.0
  9
$DIMTXT
 40
3.5
  9
$DIMCEN
 40
0.0
  9
$DIMTSZ
 40
0.0
  9
$DIMTOL
 70
     0
  9
$DIMLIM
 70
     0
  9
$DIMTIH
 70
     0
  9
$DIMTOH
 70
     0
  9
$DIMSE1
 70
     0
  9
$DIMSE2
 70
     0
  9
$DIMTAD
 70
     1
  9
$DIMZIN
 70
     8
  9
$DIMBLK
  1

  9
$DIMASO
 70
     1
  9
$DIMSHO
 70
     1
  9
$DIMPOST
  1

  9
$DIMAPOST
  1
"
  9
$DIMALT
 70
     0
  9
$DIMALTD
 70
     2
  9
$DIMALTF
 40
0.0393700787401575
  9
$DIMLFAC
 40
1.0
  9
$DIMTOFL
 70
     1
  9
$DIMTVP
 40
0.0
  9
$DIMTIX
 70
     0
  9
$DIMSOXD
 70
     0
  9
$DIMSAH
 70
     1
  9
$DIMBLK1
  1
_OPEN15
  9
$DIMBLK2
  1
_OPEN15
  9
$DIMSTYLE
  2
PHOENIX
  9
$DIMCLRD
 70
     1
  9
$DIMCLRE
 70
     1
  9
$DIMCLRT
 70
     5
  9
$DIMTFAC
 40
0.6666666666666666
  9
$DIMGAP
 40
1.0
  9
$DIMJUST
 70
     0
  9
$DIMSD1
 70
     0
  9
$DIMSD2
 70
     0
  9
$DIMTOLJ
 70
     1
  9
$DIMTZIN
 70
     8
  9
$DIMALTZ
 70
     0
  9
$DIMALTTZ
 70
     0
  9
$DIMUPT
 70
     0
  9
$DIMDEC
 70
     6
  9
$DIMTDEC
 70
     6
  9
$DIMALTU
 70
     2
  9
$DIMALTTD
 70
     2
  9
$DIMTXSTY
  7
STANDARD
  9
$DIMAUNIT
 70
     0
  9
$DIMADEC
 70
     0
  9
$DIMALTRND
 40
0.0
  9
$DIMAZIN
 70
     0
  9
$DIMDSEP
 70
    46
  9
$DIMATFIT
 70
     0
  9
$DIMFRAC
 70
     0
  9
$DIMLDRBLK
  1
_OPEN15
  9
$DIMLUNIT
 70
     2
  9
$DIMLWD
 70
    -2
  9
$DIMLWE
 70
    -2
  9
$DIMTMOVE
 70
     0
  9
$LUNITS
 70
     2
  9
$LUPREC
 70
     4
  9
$SKETCHINC
 40
1.0
  9
$FILLETRAD
 40
0.0
  9
$AUNITS
 70
     0
  9
$AUPREC
 70
     0
  9
$MENU
  1
.
  9
$ELEVATION
 40
0.0
  9
$PELEVATION
 40
0.0
  9
$THICKNESS
 40
0.0
  9
$LIMCHECK
 70
     0
  9
$CHAMFERA
 40
10.0
  9
$CHAMFERB
 40
10.0
  9
$CHAMFERC
 40
0.0
  9
$CHAMFERD
 40
0.0
  9
$SKPOLY
 70
     0
  9
$TDCREATE
 40
2450973.315909248
  9
$TDUCREATE
 40
2450973.274242581
  9
$TDUPDATE
 40
2457331.586649618
  9
$TDUUPDATE
 40
2457331.544982952
  9
$TDINDWG
 40
0.0638259259
  9
$TDUSRTIMER
 40
0.0638259259
  9
$USRTIMER
 70
     1
  9
$ANGBASE
 50
0.0
  9
$ANGDIR
 70
     0
  9
$PDMODE
 70
    35
  9
$PDSIZE
 40
-2.0
  9
$PLINEWID
 40
0.0
  9
$SPLFRAME
 70
     0
  9
$SPLINETYPE
 70
     6
  9
$SPLINESEGS
 70
     8
  9
$HANDSEED
  5
38FB
  9
$SURFTAB1
 70
     6
  9
$SURFTAB2
 70
     6
  9
$SURFTYPE
 70
     6
  9
$SURFU
 70
     6
  9
$SURFV
 70
     6
  9
$UCSBASE
  2

  9
$UCSNAME
  2

  9
$UCSORG
 10
0.0
 20
0.0
 30
0.0
  9
$UCSXDIR
 10
1.0
 20
0.0
 30
0.0
  9
$UCSYDIR
 10
0.0
 20
1.0
 30
0.0
  9
$UCSORTHOREF
  2

  9
$UCSORTHOVIEW
 70
     0
  9
$UCSORGTOP
 10
0.0
 20
0.0
 30
0.0
  9
$UCSORGBOTTOM
 10
0.0
 20
0.0
 30
0.0
  9
$UCSORGLEFT
 10
0.0
 20
0.0
 30
0.0
  9
$UCSORGRIGHT
 10
0.0
 20
0.0
 30
0.0
  9
$UCSORGFRONT
 10
0.0
 20
0.0
 30
0.0
  9
$UCSORGBACK
 10
0.0
 20
0.0
 30
0.0
  9
$PUCSBASE
  2

  9
$PUCSNAME
  2

  9
$PUCSORG
 10
0.0
 20
0.0
 30
0.0
  9
$PUCSXDIR
 10
1.0
 20
0.0
 30
0.0
  9
$PUCSYDIR
 10
0.0
 20
1.0
 30
0.0
  9
$PUCSORTHOREF
  2

  9
$PUCSORTHOVIEW
 70
     0
  9
$PUCSORGTOP
 10
0.0
 20
0.0
 30
0.0
  9
$PUCSORGBOTTOM
 10
0.0
 20
0.0
 30
0.0
  9
$PUCSORGLEFT
 10
0.0
 20
0.0
 30
0.0
  9
$PUCSORGRIGHT
 10
0.0
 20
0.0
 30
0.0
  9
$PUCSORGFRONT
 10
0.0
 20
0.0
 30
0.0
  9
$PUCSORGBACK
 10
0.0
 20
0.0
 30
0.0
  9
$USERI1
 70
     0
  9
$USERI2
 70
     0
  9
$USERI3
 70
     0
  9
$USERI4
 70
     0
  9
$USERI5
 70
     0
  9
$USERR1
 40
0.0
  9
$USERR2
 40
0.0
  9
$USERR3
 40
0.0
  9
$USERR4
 40
0.0
  9
$USERR5
 40
0.0
  9
$WORLDVIEW
 70
     1
  9
$SHADEDGE
 70
     3
  9
$SHADEDIF
 70
    70
  9
$TILEMODE
 70
     1
  9
$MAXACTVP
 70
    16
  9
$PINSBASE
 10
0.0
 20
0.0
 30
0.0
  9
$PLIMCHECK
 70
     0
  9
$PEXTMIN
 10
1.000000000000000E+20
 20
1.000000000000000E+20
 30
1.000000000000000E+20
  9
$PEXTMAX
 10
-1.000000000000000E+20
 20
-1.000000000000000E+20
 30
-1.000000000000000E+20
  9
$PLIMMIN
 10
0.0
 20
0.0
  9
$PLIMMAX
 10
420.0
 20
297.0
  9
$UNITMODE
 70
     0
  9
$VISRETAIN
 70
     0
  9
$PLINEGEN
 70
     0
  9
$PSLTSCALE
 70
     1
  9
$TREEDEPTH
 70
  3020
  9
$CMLSTYLE
  2
STANDARD
  9
$CMLJUST
 70
     0
  9
$CMLSCALE
 40
1.0
  9
$PROXYGRAPHICS
 70
     1
  9
$MEASUREMENT
 70
     0
  9
$CELWEIGHT
370
    -1
  9
$ENDCAPS
280
     0
  9
$JOINSTYLE
280
     0
  9
$LWDISPLAY
290
     0
  9
$INSUNITS
 70
     0
  9
$HYPERLINKBASE
  1

  9
$STYLESHEET
  1
HP_SW.ctb
  9
$XEDIT
290
     1
  9
$CEPSNTYPE
380
     0
  9
$PSTYLEMODE
290
     1
  9
$FINGERPRINTGUID
  2
{EB9D7553-7481-4C65-A516-0E8D21F4D867}
  9
$VERSIONGUID
  2
{344A2734-18BF-48C6-B4D9-3FC276A5DC56}
  9
$EXTNAMES
290
     1
  9
$PSVPSCALE
 40
0.0
  9
$OLESTARTUP
290
     0
  0
ENDSEC
  0
SECTION
  2
CLASSES
  0
CLASS
  1
PH_VARS
  2
PhoenixVars
  3
PHOENIX7010
 90
        0
280
     0
281
     0
  0
CLASS
  1
ACMESCOPE
  2
AcMeScope
  3
ACME_MODULE_NAME
 90
        0
280
     0
281
     0
  0
CLASS
  1
ACMECOMMANDHISTORY
  2
AcMeCommandHistory
  3
ACME_MODULE_NAME
 90
        0
280
     0
281
     0
  0
CLASS
  1
AcRfInsAdjusterMgr
  2
AcRfInsAdjusterMgr
  3
ACME_MODULE_NAME
 90
    32768
280
     0
281
     0
  0
CLASS
  1
ACGREFMASTER
  2
AcGrefMaster
  3
"AcadRfServer"
 90
        0
280
     0
281
     0
  0
CLASS
  1
AmiMaster
  2
AmiMaster
  3
"AmiServices"
 90
        0
280
     0
281
     0
  0
CLASS
  1
ACASGREFMASTER
  2
AcAsGrefMaster
  3
"AutoSurfResolver"
 90
        0
280
     0
281
     0
  0
CLASS
  1
ADAPPL
  2
AcAdAppl
  3
DesignerServices
 90
        0
280
     0
281
     0
  0
CLASS
  1
DEPMGR
  2
AcAdDepMgr
  3
DesignerServices
 90
        0
280
     0
281
     0
  0
CLASS
  1
PARAMMGR
  2
AcAdParamMgr
  3
DesignerServices
 90
        0
280
     0
281
     0
  0
CLASS
  1
PARAMSCOPE
  2
AcAdParamScope
  3
DesignerServices
 90
        0
280
     0
281
     0
  0
CLASS
  1
"IM_SYSVAR_MAN"
  2
AcImSysVarManager
  3
"ADAM"
 90
        0
280
     0
281
     0
  0
CLASS
  1
SYSTEM_VAR_INT
  2
AcImIntSysVar
  3
"ADAM"
 90
        0
280
     0
281
     0
  0
CLASS
  1
SYSTEM_VAR_REAL
  2
AcImRealSysVar
  3
"ADAM"
 90
        0
280
     0
281
     0
  0
CLASS
  1
SYSTEM_VAR_STR
  2
AcImStrSysVar
  3
"ADAM"
 90
        0
280
     0
281
     0
  0
CLASS
  1
NAMEDAPPL
  2
AcAdNamedAppl
  3
DesignerServices
 90
        0
280
     0
281
     0
  0
CLASS
  1
ADPART
  2
AcAdPart
  3
DesignerServices
 90
    32768
280
     0
281
     1
  0
CLASS
  1
ADBASE
  2
AcAdBase
  3
DesignerServices
 90
        0
280
     0
281
     0
  0
CLASS
  1
BODYID
  2
AcAdBodyId
  3
DesignerServices
 90
        0
280
     0
281
     0
  0
CLASS
  1
WORKPLANEDISPLAYMGR
  2
AcAdDisplayMgr
  3
DesignerServices
 90
        0
280
     0
281
     0
  0
CLASS
  1
ADHNTMPLT
  2
AdHoleNoteTemplateMgr
  3
DesignerServices
 90
        0
280
     0
281
     0
  0
CLASS
  1
AM_HNTEMPLATE_MGR_NAME
  2
AdHoleNoteTemplateMgrName
  3
DesignerServices
 90
        0
280
     0
281
     0
  0
CLASS
  1
AcAdGrefModule
  2
AcAdGrefModule
  3
AD_GREF_SERVICES_NSTR
 90
        0
280
     0
281
     0
  0
CLASS
  1
AM_DRAWING_MGR
  2
AcDmDwgMgr
  3
AcMechDwgViewMgmt
 90
        0
280
     0
281
     0
  0
CLASS
  1
AM_DWG_DOCUMENT
  2
AcDmDwgDocument
  3
AcMechDwgViewMgmt
 90
        0
280
     0
281
     0
  0
CLASS
  1
AM_DWG_SHEET
  2
AcDmSheet
  3
AcMechDwgViewMgmt
 90
        0
280
     0
281
     0
  0
CLASS
  1
AM_VIEWDIMPARMAP
  2
AcDmViewDimParMap
  3
AcMechDwgViewMgmt
 90
        0
280
     0
281
     0
  0
CLASS
  1
AM_DWGMGR_NAME
  2
AcDmDwgMgrName
  3
AcMechDwgViewMgmt
 90
        0
280
     0
281
     0
  0
CLASS
  1
ACAMPROJECT
  2
AcAmProject
  3
DesignerAssemblies
 90
        0
280
     0
281
     0
  0
CLASS
  1
ACAMGRCOMPSET
  2
AcAmGrCompSet
  3
DesignerAssemblies
 90
    32768
280
     0
281
     0
  0
CLASS
  1
ACAMGRCOMPDEFSET
  2
AcAmGrCompDefSet
  3
DesignerAssemblies
 90
    32768
280
     0
281
     0
  0
CLASS
  1
ACAMGRCOMPDEF
  2
AcAmGrCompDef
  3
DesignerAssemblies
 90
        0
280
     0
281
     0
  0
CLASS
  1
ACAMCOMPDEF
  2
AcAmCompDef
  3
DesignerAssemblies
 90
        0
280
     0
281
     0
  0
CLASS
  1
ACAMCOMPDEFMGR
  2
AcAmCompDefMgr
  3
DesignerAssemblies
 90
        0
280
     0
281
     0
  0
CLASS
  1
AMCONTEXTMGR
  2
AcAmContextMgr
  3
DesignerAssemblies
 90
        0
280
     0
281
     0
  0
CLASS
  1
ACAMCONTEXTMODELER
  2
AcAmContextModeler
  3
DesignerAssemblies
 90
        0
280
     0
281
     0
  0
CLASS
  1
ACAMDRAWINGMAN
  2
AcAmDrawingMan
  3
DesignerAssemblies
 90
        0
280
     0
281
     0
  0
CLASS
  1
ACDMVIEWGEOM
  2
AcDmViewGeometry
  3
AcMechDwgViewMgmt
 90
    32768
280
     0
281
     1
  0
CLASS
  1
ASSYSVARS
  2
AcAsSysVars
  3
"AutoSurf"
 90
        0
280
     0
281
     0
  0
CLASS
  1
ASSTATICVARS
  2
AcAsStaticVars
  3
"AutoSurf"
 90
    32768
280
     0
281
     0
  0
CLASS
  1
ASAPP
  2
AcAsAppObject
  3
"AutoSurf"
 90
        0
280
     0
281
     0
  0
CLASS
  1
AGDICTIONARY
  2
AgDictionary
  3
"AccelView"
 90
        0
280
     0
281
     0
  0
CLASS
  1
PH_ENTDIMREACTOR
  2
EntDimReactor
  3
PHOENIX7010
 90
        0
280
     0
281
     0
  0
CLASS
  1
PH_DIMENTREACTOR
  2
DimEntReactor
  3
PHOENIX7010
 90
        0
280
     0
281
     0
  0
CLASS
  1
ACDBDICTIONARYWDFLT
  2
AcDbDictionaryWithDefault
  3
ObjectDBX Classes
 90
        0
280
     0
281
     0
  0
CLASS
  1
ACDBPLACEHOLDER
  2
AcDbPlaceHolder
  3
ObjectDBX Classes
 90
        0
280
     0
281
     0
  0
CLASS
  1
LAYOUT
  2
AcDbLayout
  3
ObjectDBX Classes
 90
        0
280
     0
281
     0
  0
CLASS
  1
PH_GROUP
  2
PhGroup
  3
PHOENIX7010
 90
        0
280
     0
281
     0
  0
CLASS
  1
DICTIONARYVAR
  2
AcDbDictionaryVar
  3
ObjectDBX Classes
 90
        0
280
     0
281
     0
  0
CLASS
  1
MATERIAL
  2
AcDbMaterial
  3
ObjectDBX Classes
 90
     1153
280
     0
281
     0
  0
CLASS
  1
VISUALSTYLE
  2
AcDbVisualStyle
  3
ObjectDBX Classes
 90
     4095
280
     0
281
     0
  0
CLASS
  1
TABLESTYLE
  2
AcDbTableStyle
  3
ObjectDBX Classes
 90
     4095
280
     0
281
     0
  0
CLASS
  1
SCALE
  2
AcDbScale
  3
ObjectDBX Classes
 90
     1153
280
     0
281
     0
  0
CLASS
  1
MLEADERSTYLE
  2
AcDbMLeaderStyle
  3
ACDB_MLEADERSTYLE_CLASS
 90
     4095
280
     0
281
     0
  0
CLASS
  1
CELLSTYLEMAP
  2
AcDbCellStyleMap
  3
ObjectDBX Classes
 90
     1152
280
     0
281
     0
  0
ENDSEC
  0
SECTION
  2
TABLES
  0
TABLE
  2
VPORT
  5
8
330
0
100
AcDbSymbolTable
 70
     1
  0
VPORT
  5
18C7
330
8
100
AcDbSymbolTableRecord
100
AcDbViewportTableRecord
  2
*Active
 70
     0
 10
0.0
 20
0.0
 11
1.0
 21
1.0
 12
297.0
 22
210.0
 13
0.0
 23
0.0
 14
10.0
 24
10.0
 15
10.0
 25
10.0
 16
0.0
 26
0.0
 36
1.0
 17
0.0
 27
0.0
 37
0.0
 40
420.9451493375252
 41
1.875878220140515
 42
50.0
 43
0.0
 44
0.0
 50
0.0
 51
0.0
 71
     0
 72
   800
 73
     1
 74
     3
 75
     0
 76
     0
 77
     0
 78
     0
281
     0
 65
     1
110
0.0
120
0.0
130
0.0
111
1.0
121
0.0
131
0.0
112
0.0
122
1.0
132
0.0
 79
     0
146
0.0
  0
ENDTAB
  0
TABLE
  2
LTYPE
  5
5
330
0
100
AcDbSymbolTable
 70
    10
  0
LTYPE
  5
14
330
5
100
AcDbSymbolTableRecord
100
AcDbLinetypeTableRecord
  2
BYBLOCK
 70
     0
  3

 72
    65
 73
     0
 40
0.0
  0
LTYPE
  5
15
330
5
100
AcDbSymbolTableRecord
100
AcDbLinetypeTableRecord
  2
BYLAYER
 70
     0
  3

 72
    65
 73
     0
 40
0.0
  0
LTYPE
  5
16
330
5
100
AcDbSymbolTableRecord
100
AcDbLinetypeTableRecord
  2
CONTINUOUS
 70
     0
  3
Solid line
 72
    65
 73
     0
 40
0.0
  0
LTYPE
  5
A8
330
5
100
AcDbSymbolTableRecord
100
AcDbLinetypeTableRecord
  2
PHANTOM2
 70
     0
  3
___ _ _ ___ _ _ ___ _ _ ___ _ _ ___ _ _ ___ _ _
 72
    65
 73
     6
 40
1.25
 49
0.625
 74
     0
 49
-0.125
 74
     0
 49
0.125
 74
     0
 49
-0.125
 74
     0
 49
0.125
 74
     0
 49
-0.125
 74
     0
  0
LTYPE
  5
D5
330
5
100
AcDbSymbolTableRecord
100
AcDbLinetypeTableRecord
  2
ASULTYPE
 70
     0
  3
Ausgezogene Linie
 72
    65
 73
     2
 40
3.0
 49
2.5
 74
     0
 49
0.5
 74
     0
  0
LTYPE
  5
D6
330
5
100
AcDbSymbolTableRecord
100
AcDbLinetypeTableRecord
  2
ASVLTYPE
 70
     0
  3
__ __ __ __ __ __ __ __ __ __ __ __ __ __ __ __ __ __ __ __ __
 72
    65
 73
     2
 40
0.75
 49
0.5
 74
     0
 49
-0.25
 74
     0
  0
LTYPE
  5
D8
330
5
100
AcDbSymbolTableRecord
100
AcDbLinetypeTableRecord
  2
VERDECKT
 70
     0
  3
__ __ __ __ __ __ __ __ __ __ __ __ __ __ __ __
 72
    65
 73
     2
 40
0.375
 49
0.25
 74
     0
 49
-0.125
 74
     0
  0
LTYPE
  5
D9
330
5
100
AcDbSymbolTableRecord
100
AcDbLinetypeTableRecord
  2
MITTE
 70
     0
  3
____ _ ____ _ ____ _ ____ _ ____ _ ____ _ ____ 
 72
    65
 73
     4
 40
2.0
 49
1.25
 74
     0
 49
-0.25
 74
     0
 49
0.25
 74
     0
 49
-0.25
 74
     0
  0
LTYPE
  5
684
330
5
100
AcDbSymbolTableRecord
100
AcDbLinetypeTableRecord
  2
ACAD_ISO02W100
 70
     0
  3
__ __ __ __ __ __ __ __ __ __ __ __ __ __ __ __
 72
    65
 73
     2
 40
15.0
 49
12.0
 74
     0
 49
-3.0
 74
     0
  0
LTYPE
  5
685
330
5
100
AcDbSymbolTableRecord
100
AcDbLinetypeTableRecord
  2
ACAD_ISO04W100
 70
     0
  3
____ . ____ . ____ . ____ . ____ . ____ . ____ 
 72
    65
 73
     4
 40
30.5
 49
24.0
 74
     0
 49
-3.0
 74
     0
 49
0.5
 74
     0
 49
-3.0
 74
     0
  0
LTYPE
  5
686
330
5
100
AcDbSymbolTableRecord
100
AcDbLinetypeTableRecord
  2
ACAD_ISO05W100
 70
     0
  3
____ .. ____ .. ____ .. ____ .. ____ .. ____ ..
 72
    65
 73
     6
 40
34.0
 49
24.0
 74
     0
 49
-3.0
 74
     0
 49
0.5
 74
     0
 49
-3.0
 74
     0
 49
0.5
 74
     0
 49
-3.0
 74
     0
  0
LTYPE
  5
687
330
5
100
AcDbSymbolTableRecord
100
AcDbLinetypeTableRecord
  2
ACAD_ISO07W100
 70
     0
  3
. . . . . . . . . . . . . . . . . . . . . . . .
 72
    65
 73
     2
 40
3.5
 49
0.5
 74
     0
 49
-3.0
 74
     0
  0
ENDTAB
  0
TABLE
  2
LAYER
  5
2
102
{ACAD_XDICTIONARY
360
38AA
102
}
330
0
100
AcDbSymbolTable
 70
    15
  0
LAYER
  5
F
102
{ACAD_XDICTIONARY
360
388B
102
}
330
2
100
AcDbSymbolTableRecord
100
AcDbLayerTableRecord
  2
0
 70
     0
 62
     7
  6
CONTINUOUS
370
    -3
390
A62
  0
LAYER
  5
44
102
{ACAD_XDICTIONARY
360
388D
102
}
330
2
100
AcDbSymbolTableRecord
100
AcDbLayerTableRecord
  2
4
 70
     0
 62
     7
  6
CONTINUOUS
370
    -3
390
A62
  0
LAYER
  5
48
102
{ACAD_XDICTIONARY
360
388F
102
}
330
2
100
AcDbSymbolTableRecord
100
AcDbLayerTableRecord
  2
2
 70
     0
 62
     7
  6
CONTINUOUS
370
    -3
390
A62
  0
LAYER
  5
4A
102
{ACAD_XDICTIONARY
360
3891
102
}
330
2
100
AcDbSymbolTableRecord
100
AcDbLayerTableRecord
  2
3
 70
     0
 62
     7
  6
CONTINUOUS
370
    -3
390
A62
  0
LAYER
  5
B6
102
{ACAD_XDICTIONARY
360
3893
102
}
330
2
100
AcDbSymbolTableRecord
100
AcDbLayerTableRecord
  2
AM_VIEWS
 70
     0
 62
    -7
  6
CONTINUOUS
370
    -3
390
A62
  0
LAYER
  5
B7
102
{ACAD_XDICTIONARY
360
3895
102
}
330
2
100
AcDbSymbolTableRecord
100
AcDbLayerTableRecord
  2
AM_PARDIM
 70
     0
 62
     3
  6
CONTINUOUS
370
    -3
390
A62
  0
LAYER
  5
B8
102
{ACAD_XDICTIONARY
360
3897
102
}
330
2
100
AcDbSymbolTableRecord
100
AcDbLayerTableRecord
  2
AM_REFDIM
 70
     0
 62
     4
  6
CONTINUOUS
370
    -3
390
A62
  0
LAYER
  5
B9
102
{ACAD_XDICTIONARY
360
3899
102
}
330
2
100
AcDbSymbolTableRecord
100
AcDbLayerTableRecord
  2
AM_VIS
 70
     0
 62
     7
  6
CONTINUOUS
370
    -3
390
A62
  0
LAYER
  5
BA
102
{ACAD_XDICTIONARY
360
389B
102
}
330
2
100
AcDbSymbolTableRecord
100
AcDbLayerTableRecord
  2
AM_HID
 70
     0
 62
     7
  6
VERDECKT
370
    -3
390
A62
  0
LAYER
  5
CB
102
{ACAD_XDICTIONARY
360
389D
102
}
330
2
100
AcDbSymbolTableRecord
100
AcDbLayerTableRecord
  2
AM_TR
 70
     0
 62
     7
  6
CONTINUOUS
370
    -3
390
A62
  0
LAYER
  5
CC
102
{ACAD_XDICTIONARY
360
389F
102
}
330
2
100
AcDbSymbolTableRecord
100
AcDbLayerTableRecord
  2
AM_BM
 70
     0
 62
     7
  6
CONTINUOUS
370
    -3
390
A62
  0
LAYER
  5
CD
102
{ACAD_XDICTIONARY
360
38A1
102
}
330
2
100
AcDbSymbolTableRecord
100
AcDbLayerTableRecord
  2
AM_BL
 70
     0
 62
     7
  6
CONTINUOUS
370
    -3
390
A62
  0
LAYER
  5
EB
330
2
100
AcDbSymbolTableRecord
100
AcDbLayerTableRecord
  2
DEFPOINTS
 70
     0
 62
     7
  6
CONTINUOUS
290
     0
370
    -3
390
A62
  0
LAYER
  5
68B
102
{ACAD_XDICTIONARY
360
38A3
102
}
330
2
100
AcDbSymbolTableRecord
100
AcDbLayerTableRecord
  2
HAUPTEBENE
 70
     0
 62
     7
  6
CONTINUOUS
370
    -3
390
A62
  0
LAYER
  5
E24
102
{ACAD_XDICTIONARY
360
38A5
102
}
330
2
100
AcDbSymbolTableRecord
100
AcDbLayerTableRecord
  2
PH_HILFSELEMENTE
 70
     0
 62
    -7
  6
CONTINUOUS
370
    -3
390
A62
  0
ENDTAB
  0
TABLE
  2
STYLE
  5
3
330
0
100
AcDbSymbolTable
 70
     4
  0
STYLE
  5
10
330
3
100
AcDbSymbolTableRecord
100
AcDbTextStyleTableRecord
  2
STANDARD
 70
     0
 40
0.0
 41
1.5
 50
0.0
 71
     0
 42
2.5
  3
ISOCP
  4

  0
STYLE
  5
68A
330
3
100
AcDbSymbolTableRecord
100
AcDbTextStyleTableRecord
  2
STD
 70
     0
 40
0.0
 41
1.0
 50
0.0
 71
     0
 42
0.0
  3
isoct.shx
  4

  0
STYLE
  5
7A6
330
3
100
AcDbSymbolTableRecord
100
AcDbTextStyleTableRecord
  2
TZZCHN
 70
     0
 40
0.0
 41
1.0
 50
0.0
 71
     0
 42
0.0
  3
isoct.shx
  4

  0
ENDTAB
  0
TABLE
  2
VIEW
  5
6
330
0
100
AcDbSymbolTable
 70
     1
  0
ENDTAB
  0
TABLE
  2
UCS
  5
7
330
0
100
AcDbSymbolTable
 70
     0
  0
ENDTAB
  0
TABLE
  2
APPID
  5
9
330
0
100
AcDbSymbolTable
 70
     8
  0
APPID
  5
11
330
9
100
AcDbSymbolTableRecord
100
AcDbRegAppTableRecord
  2
ACAD
 70
     0
  0
APPID
  5
32
330
9
100
AcDbSymbolTableRecord
100
AcDbRegAppTableRecord
  2
PHOENIX7010
 70
     0
  0
APPID
  5
B5
330
9
100
AcDbSymbolTableRecord
100
AcDbRegAppTableRecord
  2
AD_DRAW
 70
     0
  0
APPID
  5
CF
330
9
100
AcDbSymbolTableRecord
100
AcDbRegAppTableRecord
  2
DESIGNERASSEMBLIES
 70
     0
  0
APPID
  5
D1
330
9
100
AcDbSymbolTableRecord
100
AcDbRegAppTableRecord
  2
MCAD_NO_VIS
 70
     0
  0
APPID
  5
D7
330
9
100
AcDbSymbolTableRecord
100
AcDbRegAppTableRecord
  2
ASURF_PCURVE_APPNAME
 70
     0
  0
APPID
  5
38B9
330
9
100
AcDbSymbolTableRecord
100
AcDbRegAppTableRecord
  2
ACAD_PSEXT
 70
     0
  0
APPID
  5
38FA
330
9
100
AcDbSymbolTableRecord
100
AcDbRegAppTableRecord
  2
ACAD_MLEADERVER
 70
     0
  0
ENDTAB
  0
TABLE
  2
DIMSTYLE
  5
A
330
0
100
AcDbSymbolTable
 70
    11
100
AcDbDimStyleTable
 71
     1
340
33
  0
DIMSTYLE
105
1D
330
A
100
AcDbSymbolTableRecord
100
AcDbDimStyleTableRecord
  2
STANDARD
 70
     0
340
10
  0
DIMSTYLE
105
24
330
A
100
AcDbSymbolTableRecord
100
AcDbDimStyleTableRecord
  2
ISO-25
 70
     0
 41
2.5
 42
0.625
 43
3.75
 44
1.25
 74
     0
 77
     1
 78
     8
140
2.5
141
2.5
143
0.0394
145
1.0
147
0.625
172
     1
340
10
  0
DIMSTYLE
105
25
330
A
100
AcDbSymbolTableRecord
100
AcDbDimStyleTableRecord
  2
ISO-35
 70
     0
 41
3.5
 42
0.875
 43
5.25
 44
1.75
 74
     0
 77
     1
 78
     8
140
3.5
141
3.5
143
0.0394
145
1.399999999999999
147
0.875
172
     1
340
10
  0
DIMSTYLE
105
26
330
A
100
AcDbSymbolTableRecord
100
AcDbDimStyleTableRecord
  2
ISO-5
 70
     0
 41
5.0
 42
1.25
 43
7.5
 44
2.5
 74
     0
 77
     1
 78
     8
140
5.0
141
5.0
143
0.0394
145
2.0
147
1.25
172
     1
340
10
  0
DIMSTYLE
105
27
330
A
100
AcDbSymbolTableRecord
100
AcDbDimStyleTableRecord
  2
ISO-7
 70
     0
 41
7.0
 42
1.75
 43
10.5
 44
3.5
 74
     0
 77
     1
 78
     8
140
7.0
141
7.0
143
0.0394
145
2.799999999999999
147
1.75
172
     1
340
10
  0
DIMSTYLE
105
28
330
A
100
AcDbSymbolTableRecord
100
AcDbDimStyleTableRecord
  2
ISO1
 70
     0
 41
10.0
 42
2.5
 43
15.0
 44
5.0
 74
     0
 77
     1
 78
     8
140
10.0
141
10.0
143
0.0394
145
4.0
147
2.5
172
     1
340
10
  0
DIMSTYLE
105
29
330
A
100
AcDbSymbolTableRecord
100
AcDbDimStyleTableRecord
  2
ISO1-4
 70
     0
 41
14.0
 42
3.5
 43
21.0
 44
7.0
 74
     0
 77
     1
 78
     8
140
14.0
141
14.0
143
0.0394
145
5.599999999999999
147
3.5
172
     1
340
10
  0
DIMSTYLE
105
2A
330
A
100
AcDbSymbolTableRecord
100
AcDbDimStyleTableRecord
  2
ISO2
 70
     0
 41
20.0
 42
5.0
 43
30.0
 44
10.0
 74
     0
 77
     1
 78
     8
140
20.0
141
20.0
143
0.0394
145
8.0
147
5.0
172
     1
340
10
  0
DIMSTYLE
105
33
102
{ACAD_REACTORS
330
8C9
330
8A2
330
888
330
86E
330
854
330
838
330
81E
330
804
330
7E8
330
797
330
249B
330
2880
102
}
330
A
100
AcDbSymbolTableRecord
100
AcDbDimStyleTableRecord
  2
PHOENIX
 70
     0
  4
"
 41
3.72
 42
0.0
 43
7.0
 44
1.5
 73
     0
 74
     0
 77
     1
 78
     8
140
3.5
141
0.0
143
0.0393700787401575
146
0.6666666666666666
147
2.0
172
     1
173
     1
176
     1
177
     1
178
     5
271
     2
272
     2
284
     8
288
     1
289
     0
340
10
341
35
343
35
344
35
  0
DIMSTYLE
105
34
102
{ACAD_REACTORS
330
1C1C
102
}
330
A
100
AcDbSymbolTableRecord
100
AcDbDimStyleTableRecord
  2
PHOENIX$4
 70
     0
  4
"
 41
3.72
 42
0.0
 43
7.0
 44
1.5
 73
     0
 74
     0
 77
     1
 78
     8
140
3.5
141
0.0
143
0.0393700787401575
146
0.6666666666666666
147
2.0
173
     1
176
     1
177
     1
178
     5
271
     2
272
     2
281
     1
284
     8
288
     1
289
     0
340
10
341
35
343
35
344
35
  0
ENDTAB
  0
TABLE
  2
BLOCK_RECORD
  5
1
330
0
100
AcDbSymbolTable
 70
    35
  0
BLOCK_RECORD
  5
1A
330
1
100
AcDbSymbolTableRecord
100
AcDbBlockTableRecord
  2
*MODEL_SPACE
340
A65
  0
BLOCK_RECORD
  5
17
330
1
100
AcDbSymbolTableRecord
100
AcDbBlockTableRecord
  2
*PAPER_SPACE
340
A66
  0
BLOCK_RECORD
  5
35
330
1
100
AcDbSymbolTableRecord
100
AcDbBlockTableRecord
  2
_OPEN15
340
0
102
{BLKREFS
331
B86
331
B87
331
BCB
331
BCC
331
BD4
331
BD5
331
BDD
331
BDE
331
BE6
331
BE7
331
BEF
331
BF0
331
C15
331
C16
331
C1E
331
C1F
331
1F17
331
224C
331
224D
331
2489
331
248A
331
287A
331
287B
331
2B3F
331
2B40
331
2D25
331
2D26
331
2F61
331
2F62
331
3513
331
3514
331
3885
331
3886
102
}
  0
BLOCK_RECORD
  5
C3
330
1
100
AcDbSymbolTableRecord
100
AcDbBlockTableRecord
  2
*U1
340
0
  0
BLOCK_RECORD
  5
798
330
1
100
AcDbSymbolTableRecord
100
AcDbBlockTableRecord
  2
*D2
340
0
  0
BLOCK_RECORD
  5
7B5
330
1
100
AcDbSymbolTableRecord
100
AcDbBlockTableRecord
  2
*D3
340
0
  0
BLOCK_RECORD
  5
7CF
330
1
100
AcDbSymbolTableRecord
100
AcDbBlockTableRecord
  2
*D4
340
0
  0
BLOCK_RECORD
  5
7E9
330
1
100
AcDbSymbolTableRecord
100
AcDbBlockTableRecord
  2
*D5
340
0
  0
BLOCK_RECORD
  5
805
330
1
100
AcDbSymbolTableRecord
100
AcDbBlockTableRecord
  2
*D6
340
0
  0
BLOCK_RECORD
  5
81F
330
1
100
AcDbSymbolTableRecord
100
AcDbBlockTableRecord
  2
*D7
340
0
  0
BLOCK_RECORD
  5
839
330
1
100
AcDbSymbolTableRecord
100
AcDbBlockTableRecord
  2
*D8
340
0
  0
BLOCK_RECORD
  5
855
330
1
100
AcDbSymbolTableRecord
100
AcDbBlockTableRecord
  2
*D9
340
0
  0
BLOCK_RECORD
  5
86F
330
1
100
AcDbSymbolTableRecord
100
AcDbBlockTableRecord
  2
*D10
340
0
  0
BLOCK_RECORD
  5
889
330
1
100
AcDbSymbolTableRecord
100
AcDbBlockTableRecord
  2
*D11
340
0
  0
BLOCK_RECORD
  5
8A3
330
1
100
AcDbSymbolTableRecord
100
AcDbBlockTableRecord
  2
*D12
340
0
  0
BLOCK_RECORD
  5
8CA
330
1
100
AcDbSymbolTableRecord
100
AcDbBlockTableRecord
  2
*D13
340
0
  0
BLOCK_RECORD
  5
CF5
330
1
100
AcDbSymbolTableRecord
100
AcDbBlockTableRecord
  2
*X14
340
0
102
{BLKREFS
331
D9A
102
}
  0
BLOCK_RECORD
  5
D0E
330
1
100
AcDbSymbolTableRecord
100
AcDbBlockTableRecord
  2
*X15
340
0
102
{BLKREFS
331
D99
102
}
  0
BLOCK_RECORD
  5
D24
330
1
100
AcDbSymbolTableRecord
100
AcDbBlockTableRecord
  2
*X16
340
0
102
{BLKREFS
331
D95
102
}
  0
BLOCK_RECORD
  5
D39
330
1
100
AcDbSymbolTableRecord
100
AcDbBlockTableRecord
  2
*X17
340
0
102
{BLKREFS
331
DC2
102
}
  0
BLOCK_RECORD
  5
D48
330
1
100
AcDbSymbolTableRecord
100
AcDbBlockTableRecord
  2
*X18
340
0
102
{BLKREFS
331
DC1
102
}
  0
BLOCK_RECORD
  5
D5D
330
1
100
AcDbSymbolTableRecord
100
AcDbBlockTableRecord
  2
*X19
340
0
102
{BLKREFS
331
D94
102
}
  0
BLOCK_RECORD
  5
D7D
330
1
100
AcDbSymbolTableRecord
100
AcDbBlockTableRecord
  2
*X20
340
0
102
{BLKREFS
331
DBC
102
}
  0
BLOCK_RECORD
  5
1495
330
1
100
AcDbSymbolTableRecord
100
AcDbBlockTableRecord
  2
PH_GRPBLK
340
0
  0
BLOCK_RECORD
  5
1C1D
330
1
100
AcDbSymbolTableRecord
100
AcDbBlockTableRecord
  2
*D29
340
0
  0
BLOCK_RECORD
  5
1F1B
330
1
100
AcDbSymbolTableRecord
100
AcDbBlockTableRecord
  2
*D30
340
0
  0
BLOCK_RECORD
  5
2252
330
1
100
AcDbSymbolTableRecord
100
AcDbBlockTableRecord
  2
*D31
340
0
  0
BLOCK_RECORD
  5
249C
330
1
100
AcDbSymbolTableRecord
100
AcDbBlockTableRecord
  2
*D32
340
0
  0
BLOCK_RECORD
  5
2881
330
1
100
AcDbSymbolTableRecord
100
AcDbBlockTableRecord
  2
*D33
340
0
  0
ENDTAB
  0
ENDSEC
  0
SECTION
  2
BLOCKS
  0
BLOCK
  5
1B
330
1A
100
AcDbEntity
  8
0
100
AcDbBlockBegin
  2
*MODEL_SPACE
 70
     0
 10
0.0
 20
0.0
 30
0.0
  3
*MODEL_SPACE
  1

  0
ENDBLK
  5
1C
330
1A
100
AcDbEntity
  8
0
100
AcDbBlockEnd
  0
BLOCK
  5
18
330
17
100
AcDbEntity
 67
     1
  8
0
100
AcDbBlockBegin
  2
*PAPER_SPACE
 70
     0
 10
0.0
 20
0.0
 30
0.0
  3
*PAPER_SPACE
  1

  0
ENDBLK
  5
19
330
17
100
AcDbEntity
 67
     1
  8
0
100
AcDbBlockEnd
  0
BLOCK
  5
39
330
35
100
AcDbEntity
  8
0
 62
     7
100
AcDbBlockBegin
  2
_OPEN15
 70
     0
 10
1.0
 20
0.0
 30
0.0
  3
_OPEN15
  1

  0
LINE
  5
36
330
35
100
AcDbEntity
  8
0
  6
ByBlock
 62
     0
100
AcDbLine
 10
0.0
 20
0.0
 30
0.0
 11
1.0
 21
0.0
 31
0.0
  0
LINE
  5
37
330
35
100
AcDbEntity
  8
0
  6
ByBlock
 62
     0
100
AcDbLine
 10
1.0
 20
0.0
 30
0.0
 11
0.0
 21
0.1316524975873958
 31
0.0
  0
LINE
  5
38
330
35
100
AcDbEntity
  8
0
  6
ByBlock
 62
     0
100
AcDbLine
 10
1.0
 20
0.0
 30
0.0
 11
0.0
 21
-0.1316524975873958
 31
0.0
  0
ENDBLK
  5
3A
330
35
100
AcDbEntity
  8
0
 62
     7
100
AcDbBlockEnd
  0
BLOCK
  5
C4
330
C3
100
AcDbEntity
  8
0
 62
     7
100
AcDbBlockBegin
  2
*U1
 70
     1
 10
0.0
 20
0.0
 30
0.0
  3
*U1
  1

  0
ENDBLK
  5
C5
330
C3
100
AcDbEntity
  8
0
 62
     7
100
AcDbBlockEnd
  0
BLOCK
  5
8E8
330
798
100
AcDbEntity
  8
0
100
AcDbBlockBegin
  2
*D2
 70
     1
 10
0.0
 20
0.0
 30
0.0
  3
*D2
  1

  0
LINE
  5
2F5C
330
798
100
AcDbEntity
  8
HAUPTEBENE
  6
Continuous
 62
     1
370
    -2
100
AcDbLine
 10
174.3888429049865
 20
199.8545423807506
 30
0.0
 11
155.8888429049865
 21
199.8545423807506
 31
0.0
  0
LINE
  5
2F5D
330
798
100
AcDbEntity
  8
HAUPTEBENE
  6
Continuous
 62
     1
370
    -2
100
AcDbLine
 10
174.3888429049865
 20
203.8545576407507
 30
0.0
 11
155.8888429049865
 21
203.8545576407507
 31
0.0
  0
LINE
  5
2F5E
330
798
100
AcDbEntity
  8
HAUPTEBENE
  6
Continuous
 62
     1
370
    -2
100
AcDbLine
 10
157.3888429049866
 20
196.1345423807506
 30
0.0
 11
157.3888429049866
 21
192.4145423807506
 31
0.0
  0
LINE
  5
2F5F
330
798
100
AcDbEntity
  8
HAUPTEBENE
  6
Continuous
 62
     1
370
    -2
100
AcDbLine
 10
157.3888429049866
 20
207.5745576407507
 30
0.0
 11
157.3888429049866
 21
216.4195576407506
 31
0.0
  0
LINE
  5
2F60
330
798
100
AcDbEntity
  8
HAUPTEBENE
  6
Continuous
 62
     1
370
    -2
100
AcDbLine
 10
157.3888429049866
 20
199.8545423807506
 30
0.0
 11
157.3888429049866
 21
203.8545576407507
 31
0.0
  0
INSERT
  5
2F61
330
798
100
AcDbEntity
  8
HAUPTEBENE
  6
Continuous
 62
     1
370
    -2
100
AcDbBlockReference
  2
_OPEN15
 10
157.3888429049866
 20
199.8545423807506
 30
0.0
 41
3.72
 42
3.72
 43
3.72
 50
90.0
  0
INSERT
  5
2F62
330
798
100
AcDbEntity
  8
HAUPTEBENE
  6
Continuous
 62
     1
370
    -2
100
AcDbBlockReference
  2
_OPEN15
 10
157.3888429049866
 20
203.8545576407507
 30
0.0
 41
3.72
 42
3.72
 43
3.72
 50
270.0
  0
MTEXT
  5
2F63
330
798
100
AcDbEntity
  8
HAUPTEBENE
  6
Continuous
 62
     5
100
AcDbMText
 10
154.3888429049865
 20
213.8570576407507
 30
0.0
 40
3.5
 41
0.0
 71
     5
 72
     1
  1
\A1;4
 11
0.0000000000000001
 21
1.0
 31
0.0
 73
     1
 44
1.0
1001
ACAD
1000
MTEXTBEGIN
1070
    73
1070
     1
1070
    44
1040
1.0
1070
    74
1070
     0
1000
MTEXTEND
  0
POINT
  5
2F64
330
798
100
AcDbEntity
  8
DEFPOINTS
  6
Continuous
 62
     0
100
AcDbPoint
 10
174.3888429049865
 20
199.8545423807506
 30
0.0
  0
POINT
  5
2F65
330
798
100
AcDbEntity
  8
DEFPOINTS
  6
Continuous
 62
     0
100
AcDbPoint
 10
174.3888429049865
 20
203.8545576407507
 30
0.0
  0
POINT
  5
2F66
330
798
100
AcDbEntity
  8
DEFPOINTS
  6
Continuous
 62
     0
100
AcDbPoint
 10
157.3888429049866
 20
203.8545576407507
 30
0.0
  0
ENDBLK
  5
8F4
330
798
100
AcDbEntity
  8
0
100
AcDbBlockEnd
  0
BLOCK
  5
8F8
330
7B5
100
AcDbEntity
  8
0
100
AcDbBlockBegin
  2
*D3
 70
     1
 10
0.0
 20
0.0
 30
0.0
  3
*D3
  1

  0
LINE
  5
C1B
330
7B5
100
AcDbEntity
  8
HAUPTEBENE
  6
Continuous
 62
     1
370
    -2
100
AcDbLine
 10
172.7388795349866
 20
201.8545576407507
 30
0.0
 11
138.8888429049866
 21
201.8545576407507
 31
0.0
  0
LINE
  5
C1C
330
7B5
100
AcDbEntity
  8
HAUPTEBENE
  6
Continuous
 62
     1
370
    -2
100
AcDbLine
 10
172.7388795349866
 20
322.8545576407507
 30
0.0
 11
138.8888429049866
 21
322.8545576407507
 31
0.0
  0
LINE
  5
C1D
330
7B5
100
AcDbEntity
  8
HAUPTEBENE
  6
Continuous
 62
     1
370
    -2
100
AcDbLine
 10
140.3888429049866
 20
205.5745576407506
 30
0.0
 11
140.3888429049866
 21
319.1345576407507
 31
0.0
  0
INSERT
  5
C1E
330
7B5
100
AcDbEntity
  8
HAUPTEBENE
  6
Continuous
 62
     1
370
    -2
100
AcDbBlockReference
  2
_OPEN15
 10
140.3888429049866
 20
201.8545576407507
 30
0.0
 41
3.72
 42
3.72
 43
3.72
 50
270.0
  0
INSERT
  5
C1F
330
7B5
100
AcDbEntity
  8
HAUPTEBENE
  6
Continuous
 62
     1
370
    -2
100
AcDbBlockReference
  2
_OPEN15
 10
140.3888429049866
 20
322.8545576407507
 30
0.0
 41
3.72
 42
3.72
 43
3.72
 50
90.0
  0
MTEXT
  5
C20
330
7B5
100
AcDbEntity
  8
HAUPTEBENE
  6
Continuous
 62
     5
100
AcDbMText
 10
137.3884984167976
 20
253.2673106474207
 30
0.0
 40
3.5
 41
0.0
 71
     5
 72
     1
  1
\A1;121
 11
0.0000000000000001
 21
1.0
 31
0.0
 73
     1
 44
1.0
1001
ACAD
1000
MTEXTBEGIN
1070
    73
1070
     1
1070
    44
1040
1.0
1070
    74
1070
     0
1000
MTEXTEND
  0
POINT
  5
C21
330
7B5
100
AcDbEntity
  8
DEFPOINTS
  6
Continuous
 62
     0
100
AcDbPoint
 10
172.7388795349866
 20
201.8545576407507
 30
0.0
  0
POINT
  5
C22
330
7B5
100
AcDbEntity
  8
DEFPOINTS
  6
Continuous
 62
     0
100
AcDbPoint
 10
172.7388795349866
 20
322.8545576407507
 30
0.0
  0
POINT
  5
C23
330
7B5
100
AcDbEntity
  8
DEFPOINTS
  6
Continuous
 62
     0
100
AcDbPoint
 10
140.3888429049866
 20
322.8545576407507
 30
0.0
  0
ENDBLK
  5
902
330
7B5
100
AcDbEntity
  8
0
100
AcDbBlockEnd
  0
BLOCK
  5
906
330
7CF
100
AcDbEntity
  8
0
100
AcDbBlockBegin
  2
*D4
 70
     1
 10
0.0
 20
0.0
 30
0.0
  3
*D4
  1

  0
LINE
  5
C12
330
7CF
100
AcDbEntity
  8
HAUPTEBENE
  6
Continuous
 62
     1
370
    -2
100
AcDbLine
 10
164.3888429049866
 20
225.3545576407506
 30
0.0
 11
145.8888429049866
 21
225.3545576407506
 31
0.0
  0
LINE
  5
C13
330
7CF
100
AcDbEntity
  8
HAUPTEBENE
  6
Continuous
 62
     1
370
    -2
100
AcDbLine
 10
164.3888429049866
 20
299.3545576407507
 30
0.0
 11
145.8888429049866
 21
299.3545576407507
 31
0.0
  0
LINE
  5
C14
330
7CF
100
AcDbEntity
  8
HAUPTEBENE
  6
Continuous
 62
     1
370
    -2
100
AcDbLine
 10
147.3888429049866
 20
229.0745576407506
 30
0.0
 11
147.3888429049866
 21
295.6345576407506
 31
0.0
  0
INSERT
  5
C15
330
7CF
100
AcDbEntity
  8
HAUPTEBENE
  6
Continuous
 62
     1
370
    -2
100
AcDbBlockReference
  2
_OPEN15
 10
147.3888429049866
 20
225.3545576407506
 30
0.0
 41
3.72
 42
3.72
 43
3.72
 50
270.0
  0
INSERT
  5
C16
330
7CF
100
AcDbEntity
  8
HAUPTEBENE
  6
Continuous
 62
     1
370
    -2
100
AcDbBlockReference
  2
_OPEN15
 10
147.3888429049866
 20
299.3545576407507
 30
0.0
 41
3.72
 42
3.72
 43
3.72
 50
90.0
  0
MTEXT
  5
C17
330
7CF
100
AcDbEntity
  8
HAUPTEBENE
  6
Continuous
 62
     5
100
AcDbMText
 10
144.3888429049865
 20
252.2530001873441
 30
0.0
 40
3.5
 41
0.0
 71
     5
 72
     1
  1
\A1;74
 11
0.0000000000000001
 21
1.0
 31
0.0
 73
     1
 44
1.0
1001
ACAD
1000
MTEXTBEGIN
1070
    73
1070
     1
1070
    44
1040
1.0
1070
    74
1070
     0
1000
MTEXTEND
  0
POINT
  5
C18
330
7CF
100
AcDbEntity
  8
DEFPOINTS
  6
Continuous
 62
     0
100
AcDbPoint
 10
164.3888429049866
 20
225.3545576407506
 30
0.0
  0
POINT
  5
C19
330
7CF
100
AcDbEntity
  8
DEFPOINTS
  6
Continuous
 62
     0
100
AcDbPoint
 10
164.3888429049866
 20
299.3545576407507
 30
0.0
  0
POINT
  5
C1A
330
7CF
100
AcDbEntity
  8
DEFPOINTS
  6
Continuous
 62
     0
100
AcDbPoint
 10
147.3888429049866
 20
299.3545576407507
 30
0.0
  0
ENDBLK
  5
910
330
7CF
100
AcDbEntity
  8
0
100
AcDbBlockEnd
  0
BLOCK
  5
914
330
7E9
100
AcDbEntity
  8
0
100
AcDbBlockBegin
  2
*D5
 70
     1
 10
0.0
 20
0.0
 30
0.0
  3
*D5
  1

  0
LINE
  5
2D22
330
7E9
100
AcDbEntity
  8
HAUPTEBENE
  6
Continuous
 62
     1
370
    -2
100
AcDbLine
 10
164.3888429049866
 20
299.3545576407507
 30
0.0
 11
155.8888429049866
 21
299.3545576407507
 31
0.0
  0
LINE
  5
2D23
330
7E9
100
AcDbEntity
  8
HAUPTEBENE
  6
Continuous
 62
     1
370
    -2
100
AcDbLine
 10
174.3888429049865
 20
327.1045576407507
 30
0.0
 11
155.8888429049866
 21
327.1045576407507
 31
0.0
  0
LINE
  5
2D24
330
7E9
100
AcDbEntity
  8
HAUPTEBENE
  6
Continuous
 62
     1
370
    -2
100
AcDbLine
 10
157.3888429049866
 20
303.0745576407507
 30
0.0
 11
157.3888429049866
 21
323.3845576407507
 31
0.0
  0
INSERT
  5
2D25
330
7E9
100
AcDbEntity
  8
HAUPTEBENE
  6
Continuous
 62
     1
370
    -2
100
AcDbBlockReference
  2
_OPEN15
 10
157.3888429049866
 20
299.3545576407507
 30
0.0
 41
3.72
 42
3.72
 43
3.72
 50
270.0
  0
INSERT
  5
2D26
330
7E9
100
AcDbEntity
  8
HAUPTEBENE
  6
Continuous
 62
     1
370
    -2
100
AcDbBlockReference
  2
_OPEN15
 10
157.3888429049866
 20
327.1045576407507
 30
0.0
 41
3.72
 42
3.72
 43
3.72
 50
90.0
  0
MTEXT
  5
2D27
330
7E9
100
AcDbEntity
  8
HAUPTEBENE
  6
Continuous
 62
     5
100
AcDbMText
 10
154.2138429049866
 20
313.2295576407507
 30
0.0
 40
3.5
 41
0.0
 71
     5
 72
     1
  1
\A1;(27.75)
 11
0.0000000000000001
 21
1.0
 31
0.0
 73
     1
 44
1.0
1001
ACAD
1000
MTEXTBEGIN
1070
    73
1070
     1
1070
    44
1040
1.0
1070
    74
1070
     0
1000
MTEXTEND
  0
POINT
  5
2D28
330
7E9
100
AcDbEntity
  8
DEFPOINTS
  6
Continuous
 62
     0
100
AcDbPoint
 10
164.3888429049866
 20
299.3545576407507
 30
0.0
  0
POINT
  5
2D29
330
7E9
100
AcDbEntity
  8
DEFPOINTS
  6
Continuous
 62
     0
100
AcDbPoint
 10
174.3888429049865
 20
327.1045576407507
 30
0.0
  0
POINT
  5
2D2A
330
7E9
100
AcDbEntity
  8
DEFPOINTS
  6
Continuous
 62
     0
100
AcDbPoint
 10
157.3888429049866
 20
327.1045576407507
 30
0.0
  0
ENDBLK
  5
920
330
7E9
100
AcDbEntity
  8
0
100
AcDbBlockEnd
  0
BLOCK
  5
923
330
805
100
AcDbEntity
  8
0
100
AcDbBlockBegin
  2
*D6
 70
     1
 10
0.0
 20
0.0
 30
0.0
  3
*D6
  1

  0
LINE
  5
3510
330
805
100
AcDbEntity
  8
HAUPTEBENE
  6
Continuous
 62
     1
370
    -2
100
AcDbLine
 10
164.3888429049866
 20
262.3545576407506
 30
0.0
 11
148.4916244126339
 21
262.3545576407506
 31
0.0
  0
LINE
  5
3511
330
805
100
AcDbEntity
  8
HAUPTEBENE
  6
Continuous
 62
     1
370
    -2
100
AcDbLine
 10
174.3888429049865
 20
327.1045576407507
 30
0.0
 11
148.4916244126339
 21
327.1045576407507
 31
0.0
  0
LINE
  5
3512
330
805
100
AcDbEntity
  8
HAUPTEBENE
  6
Continuous
 62
     1
370
    -2
100
AcDbLine
 10
149.9916244126339
 20
266.0745576407506
 30
0.0
 11
149.9916244126339
 21
323.3845576407507
 31
0.0
  0
INSERT
  5
3513
330
805
100
AcDbEntity
  8
HAUPTEBENE
  6
Continuous
 62
     1
370
    -2
100
AcDbBlockReference
  2
_OPEN15
 10
149.9916244126339
 20
262.3545576407506
 30
0.0
 41
3.72
 42
3.72
 43
3.72
 50
270.0
  0
INSERT
  5
3514
330
805
100
AcDbEntity
  8
HAUPTEBENE
  6
Continuous
 62
     1
370
    -2
100
AcDbBlockReference
  2
_OPEN15
 10
149.9916244126339
 20
327.1045576407507
 30
0.0
 41
3.72
 42
3.72
 43
3.72
 50
90.0
  0
MTEXT
  5
3515
330
805
100
AcDbEntity
  8
HAUPTEBENE
  6
Continuous
 62
     5
100
AcDbMText
 10
146.9916244126338
 20
294.7295576407507
 30
0.0
 40
3.5
 41
0.0
 71
     5
 72
     1
  1
\A1;64.75
 11
0.0000000000000001
 21
1.0
 31
0.0
 73
     1
 44
1.0
1001
ACAD
1000
MTEXTBEGIN
1070
    73
1070
     1
1070
    44
1040
1.0
1070
    74
1070
     0
1000
MTEXTEND
  0
POINT
  5
3516
330
805
100
AcDbEntity
  8
DEFPOINTS
  6
Continuous
 62
     0
100
AcDbPoint
 10
164.3888429049866
 20
262.3545576407506
 30
0.0
  0
POINT
  5
3517
330
805
100
AcDbEntity
  8
DEFPOINTS
  6
Continuous
 62
     0
100
AcDbPoint
 10
174.3888429049865
 20
327.1045576407507
 30
0.0
  0
POINT
  5
3518
330
805
100
AcDbEntity
  8
DEFPOINTS
  6
Continuous
 62
     0
100
AcDbPoint
 10
149.9916244126339
 20
327.1045576407507
 30
0.0
  0
ENDBLK
  5
92D
330
805
100
AcDbEntity
  8
0
100
AcDbBlockEnd
  0
BLOCK
  5
931
330
81F
100
AcDbEntity
  8
0
100
AcDbBlockBegin
  2
*D7
 70
     1
 10
0.0
 20
0.0
 30
0.0
  3
*D7
  1

  0
LINE
  5
3882
330
81F
100
AcDbEntity
  8
HAUPTEBENE
  6
Continuous
 62
     1
370
    -2
100
AcDbLine
 10
174.3888429049865
 20
197.6045576407506
 30
0.0
 11
140.8888429049865
 21
197.6045576407506
 31
0.0
  0
LINE
  5
3883
330
81F
100
AcDbEntity
  8
HAUPTEBENE
  6
Continuous
 62
     1
370
    -2
100
AcDbLine
 10
174.3888429049865
 20
327.1045576407507
 30
0.0
 11
140.8888429049866
 21
327.1045576407507
 31
0.0
  0
LINE
  5
3884
330
81F
100
AcDbEntity
  8
HAUPTEBENE
  6
Continuous
 62
     1
370
    -2
100
AcDbLine
 10
142.3888429049865
 20
201.3245576407507
 30
0.0
 11
142.3888429049866
 21
323.3845576407507
 31
0.0
  0
INSERT
  5
3885
330
81F
100
AcDbEntity
  8
HAUPTEBENE
  6
Continuous
 62
     1
370
    -2
100
AcDbBlockReference
  2
_OPEN15
 10
142.3888429049865
 20
197.6045576407506
 30
0.0
 41
3.72
 42
3.72
 43
3.72
 50
270.0
  0
INSERT
  5
3886
330
81F
100
AcDbEntity
  8
HAUPTEBENE
  6
Continuous
 62
     1
370
    -2
100
AcDbBlockReference
  2
_OPEN15
 10
142.3888429049866
 20
327.1045576407507
 30
0.0
 41
3.72
 42
3.72
 43
3.72
 50
90.0
  0
MTEXT
  5
3887
330
81F
100
AcDbEntity
  8
HAUPTEBENE
  6
Continuous
 62
     5
100
AcDbMText
 10
139.3884984167975
 20
262.3545576407507
 30
0.0
 40
3.5
 41
0.0
 71
     5
 72
     1
  1
\A1;129.5
 11
0.0000000000000001
 21
1.0
 31
0.0
 73
     1
 44
1.0
1001
ACAD
1000
MTEXTBEGIN
1070
    73
1070
     1
1070
    44
1040
1.0
1070
    74
1070
     0
1000
MTEXTEND
  0
POINT
  5
3888
330
81F
100
AcDbEntity
  8
DEFPOINTS
  6
Continuous
 62
     0
100
AcDbPoint
 10
174.3888429049865
 20
197.6045576407506
 30
0.0
  0
POINT
  5
3889
330
81F
100
AcDbEntity
  8
DEFPOINTS
  6
Continuous
 62
     0
100
AcDbPoint
 10
174.3888429049865
 20
327.1045576407507
 30
0.0
  0
POINT
  5
388A
330
81F
100
AcDbEntity
  8
DEFPOINTS
  6
Continuous
 62
     0
100
AcDbPoint
 10
142.3888429049866
 20
327.1045576407507
 30
0.0
  0
ENDBLK
  5
93B
330
81F
100
AcDbEntity
  8
0
100
AcDbBlockEnd
  0
BLOCK
  5
847
330
839
100
AcDbEntity
  8
0
100
AcDbBlockBegin
  2
*D8
 70
     1
 10
0.0
 20
0.0
 30
0.0
  3
*D8
  1

  0
LINE
  5
B81
330
839
100
AcDbEntity
  8
HAUPTEBENE
  6
Continuous
 62
     1
370
    -2
100
AcDbLine
 10
196.6488526749866
 20
201.8545576407507
 30
0.0
 11
196.6488526749866
 21
186.1045576407506
 31
0.0
  0
LINE
  5
B82
330
839
100
AcDbEntity
  8
HAUPTEBENE
  6
Continuous
 62
     1
370
    -2
100
AcDbLine
 10
200.6488526749866
 20
201.8545576407507
 30
0.0
 11
200.6488526749866
 21
186.1045576407506
 31
0.0
  0
LINE
  5
B83
330
839
100
AcDbEntity
  8
HAUPTEBENE
  6
Continuous
 62
     1
370
    -2
100
AcDbLine
 10
192.9288526749866
 20
187.6045576407506
 30
0.0
 11
189.2088526749866
 21
187.6045576407506
 31
0.0
  0
LINE
  5
B84
330
839
100
AcDbEntity
  8
HAUPTEBENE
  6
Continuous
 62
     1
370
    -2
100
AcDbLine
 10
204.3688526749866
 20
187.6045576407506
 30
0.0
 11
213.2138526749866
 21
187.6045576407506
 31
0.0
  0
LINE
  5
B85
330
839
100
AcDbEntity
  8
HAUPTEBENE
  6
Continuous
 62
     1
370
    -2
100
AcDbLine
 10
196.6488526749866
 20
187.6045576407506
 30
0.0
 11
200.6488526749866
 21
187.6045576407506
 31
0.0
  0
INSERT
  5
B86
330
839
100
AcDbEntity
  8
HAUPTEBENE
  6
Continuous
 62
     1
370
    -2
100
AcDbBlockReference
  2
_OPEN15
 10
196.6488526749866
 20
187.6045576407506
 30
0.0
 41
3.72
 42
3.72
 43
3.72
  0
INSERT
  5
B87
330
839
100
AcDbEntity
  8
HAUPTEBENE
  6
Continuous
 62
     1
370
    -2
100
AcDbBlockReference
  2
_OPEN15
 10
200.6488526749866
 20
187.6045576407506
 30
0.0
 41
3.72
 42
3.72
 43
3.72
 50
180.0
  0
MTEXT
  5
B88
330
839
100
AcDbEntity
  8
HAUPTEBENE
  6
Continuous
 62
     5
100
AcDbMText
 10
210.6513526749866
 20
190.6045576407506
 30
0.0
 40
3.5
 41
0.0
 71
     5
 72
     1
  1
\A1;4
 73
     1
 44
1.0
1001
ACAD
1000
MTEXTBEGIN
1070
    73
1070
     1
1070
    44
1040
1.0
1070
    74
1070
     0
1000
MTEXTEND
  0
POINT
  5
B89
330
839
100
AcDbEntity
  8
DEFPOINTS
  6
Continuous
 62
     0
100
AcDbPoint
 10
196.6488526749866
 20
201.8545576407507
 30
0.0
  0
POINT
  5
B8A
330
839
100
AcDbEntity
  8
DEFPOINTS
  6
Continuous
 62
     0
100
AcDbPoint
 10
200.6488526749866
 20
201.8545576407507
 30
0.0
  0
POINT
  5
B8B
330
839
100
AcDbEntity
  8
DEFPOINTS
  6
Continuous
 62
     0
100
AcDbPoint
 10
200.6488526749866
 20
187.6045576407506
 30
0.0
  0
ENDBLK
  5
853
330
839
100
AcDbEntity
  8
0
100
AcDbBlockEnd
  0
BLOCK
  5
93F
330
855
100
AcDbEntity
  8
0
100
AcDbBlockBegin
  2
*D9
 70
     1
 10
0.0
 20
0.0
 30
0.0
  3
*D9
  1

  0
LINE
  5
BEC
330
855
100
AcDbEntity
  8
HAUPTEBENE
  6
Continuous
 62
     1
370
    -2
100
AcDbLine
 10
198.6488526749866
 20
198.8545576407506
 30
0.0
 11
198.6488526749866
 21
179.1045576407506
 31
0.0
  0
LINE
  5
BED
330
855
100
AcDbEntity
  8
HAUPTEBENE
  6
Continuous
 62
     1
370
    -2
100
AcDbLine
 10
398.6488526749866
 20
198.8545576407506
 30
0.0
 11
398.6488526749866
 21
179.1045576407506
 31
0.0
  0
LINE
  5
BEE
330
855
100
AcDbEntity
  8
HAUPTEBENE
  6
Continuous
 62
     1
370
    -2
100
AcDbLine
 10
202.3688526749866
 20
180.6045576407506
 30
0.0
 11
394.9288526749866
 21
180.6045576407506
 31
0.0
  0
INSERT
  5
BEF
330
855
100
AcDbEntity
  8
HAUPTEBENE
  6
Continuous
 62
     1
370
    -2
100
AcDbBlockReference
  2
_OPEN15
 10
198.6488526749866
 20
180.6045576407506
 30
0.0
 41
3.72
 42
3.72
 43
3.72
 50
180.0
  0
INSERT
  5
BF0
330
855
100
AcDbEntity
  8
HAUPTEBENE
  6
Continuous
 62
     1
370
    -2
100
AcDbBlockReference
  2
_OPEN15
 10
398.6488526749866
 20
180.6045576407506
 30
0.0
 41
3.72
 42
3.72
 43
3.72
  0
MTEXT
  5
BF1
330
855
100
AcDbEntity
  8
HAUPTEBENE
  6
Continuous
 62
     5
100
AcDbMText
 10
298.6488526749866
 20
183.6049021289396
 30
0.0
 40
3.5
 41
0.0
 71
     5
 72
     1
  1
\A1;200
 73
     1
 44
1.0
1001
ACAD
1000
MTEXTBEGIN
1070
    73
1070
     1
1070
    44
1040
1.0
1070
    74
1070
     0
1000
MTEXTEND
  0
POINT
  5
BF2
330
855
100
AcDbEntity
  8
DEFPOINTS
  6
Continuous
 62
     0
100
AcDbPoint
 10
198.6488526749866
 20
198.8545576407506
 30
0.0
  0
POINT
  5
BF3
330
855
100
AcDbEntity
  8
DEFPOINTS
  6
Continuous
 62
     0
100
AcDbPoint
 10
398.6488526749866
 20
198.8545576407506
 30
0.0
  0
POINT
  5
BF4
330
855
100
AcDbEntity
  8
DEFPOINTS
  6
Continuous
 62
     0
100
AcDbPoint
 10
398.6488526749866
 20
180.6045576407506
 30
0.0
  0
ENDBLK
  5
949
330
855
100
AcDbEntity
  8
0
100
AcDbBlockEnd
  0
BLOCK
  5
94D
330
86F
100
AcDbEntity
  8
0
100
AcDbBlockBegin
  2
*D10
 70
     1
 10
0.0
 20
0.0
 30
0.0
  3
*D10
  1

  0
LINE
  5
BE3
330
86F
100
AcDbEntity
  8
HAUPTEBENE
  6
Continuous
 62
     1
370
    -2
100
AcDbLine
 10
176.7388795349866
 20
198.8545423807506
 30
0.0
 11
176.7388795349866
 21
172.1045576407506
 31
0.0
  0
LINE
  5
BE4
330
86F
100
AcDbEntity
  8
HAUPTEBENE
  6
Continuous
 62
     1
370
    -2
100
AcDbLine
 10
420.5588563349865
 20
198.8545576407506
 30
0.0
 11
420.5588563349865
 21
172.1045576407506
 31
0.0
  0
LINE
  5
BE5
330
86F
100
AcDbEntity
  8
HAUPTEBENE
  6
Continuous
 62
     1
370
    -2
100
AcDbLine
 10
180.4588795349866
 20
173.6045576407506
 30
0.0
 11
416.8388563349865
 21
173.6045576407506
 31
0.0
  0
INSERT
  5
BE6
330
86F
100
AcDbEntity
  8
HAUPTEBENE
  6
Continuous
 62
     1
370
    -2
100
AcDbBlockReference
  2
_OPEN15
 10
176.7388795349866
 20
173.6045576407506
 30
0.0
 41
3.72
 42
3.72
 43
3.72
 50
180.0
  0
INSERT
  5
BE7
330
86F
100
AcDbEntity
  8
HAUPTEBENE
  6
Continuous
 62
     1
370
    -2
100
AcDbBlockReference
  2
_OPEN15
 10
420.5588563349865
 20
173.6045576407506
 30
0.0
 41
3.72
 42
3.72
 43
3.72
  0
MTEXT
  5
BE8
330
86F
100
AcDbEntity
  8
HAUPTEBENE
  6
Continuous
 62
     5
100
AcDbMText
 10
298.6488526749866
 20
176.6049021289396
 30
0.0
 40
3.5
 41
0.0
 71
     5
 72
     1
  1
\A1;243.82
 73
     1
 44
1.0
1001
ACAD
1000
MTEXTBEGIN
1070
    73
1070
     1
1070
    44
1040
1.0
1070
    74
1070
     0
1000
MTEXTEND
  0
POINT
  5
BE9
330
86F
100
AcDbEntity
  8
DEFPOINTS
  6
Continuous
 62
     0
100
AcDbPoint
 10
176.7388795349866
 20
198.8545423807506
 30
0.0
  0
POINT
  5
BEA
330
86F
100
AcDbEntity
  8
DEFPOINTS
  6
Continuous
 62
     0
100
AcDbPoint
 10
420.5588563349865
 20
198.8545576407506
 30
0.0
  0
POINT
  5
BEB
330
86F
100
AcDbEntity
  8
DEFPOINTS
  6
Continuous
 62
     0
100
AcDbPoint
 10
420.5588563349865
 20
173.6045576407506
 30
0.0
  0
ENDBLK
  5
957
330
86F
100
AcDbEntity
  8
0
100
AcDbBlockEnd
  0
BLOCK
  5
95B
330
889
100
AcDbEntity
  8
0
100
AcDbBlockBegin
  2
*D11
 70
     1
 10
0.0
 20
0.0
 30
0.0
  3
*D11
  1

  0
LINE
  5
BDA
330
889
100
AcDbEntity
  8
HAUPTEBENE
  6
Continuous
 62
     1
370
    -2
100
AcDbLine
 10
174.3888429049865
 20
197.6045576407506
 30
0.0
 11
174.3888429049865
 21
165.1045576407506
 31
0.0
  0
LINE
  5
BDB
330
889
100
AcDbEntity
  8
HAUPTEBENE
  6
Continuous
 62
     1
370
    -2
100
AcDbLine
 10
422.9088624449865
 20
197.6045576407506
 30
0.0
 11
422.9088624449865
 21
165.1045576407506
 31
0.0
  0
LINE
  5
BDC
330
889
100
AcDbEntity
  8
HAUPTEBENE
  6
Continuous
 62
     1
370
    -2
100
AcDbLine
 10
178.1088429049866
 20
166.6045576407506
 30
0.0
 11
419.1888624449865
 21
166.6045576407506
 31
0.0
  0
INSERT
  5
BDD
330
889
100
AcDbEntity
  8
HAUPTEBENE
  6
Continuous
 62
     1
370
    -2
100
AcDbBlockReference
  2
_OPEN15
 10
174.3888429049865
 20
166.6045576407506
 30
0.0
 41
3.72
 42
3.72
 43
3.72
 50
180.0
  0
INSERT
  5
BDE
330
889
100
AcDbEntity
  8
HAUPTEBENE
  6
Continuous
 62
     1
370
    -2
100
AcDbBlockReference
  2
_OPEN15
 10
422.9088624449865
 20
166.6045576407506
 30
0.0
 41
3.72
 42
3.72
 43
3.72
  0
MTEXT
  5
BDF
330
889
100
AcDbEntity
  8
HAUPTEBENE
  6
Continuous
 62
     5
100
AcDbMText
 10
298.6488526749866
 20
169.6049021289396
 30
0.0
 40
3.5
 41
0.0
 71
     5
 72
     1
  1
\A1;248.52
 73
     1
 44
1.0
1001
ACAD
1000
MTEXTBEGIN
1070
    73
1070
     1
1070
    44
1040
1.0
1070
    74
1070
     0
1000
MTEXTEND
  0
POINT
  5
BE0
330
889
100
AcDbEntity
  8
DEFPOINTS
  6
Continuous
 62
     0
100
AcDbPoint
 10
174.3888429049865
 20
197.6045576407506
 30
0.0
  0
POINT
  5
BE1
330
889
100
AcDbEntity
  8
DEFPOINTS
  6
Continuous
 62
     0
100
AcDbPoint
 10
422.9088624449865
 20
197.6045576407506
 30
0.0
  0
POINT
  5
BE2
330
889
100
AcDbEntity
  8
DEFPOINTS
  6
Continuous
 62
     0
100
AcDbPoint
 10
422.9088624449865
 20
166.6045576407506
 30
0.0
  0
ENDBLK
  5
965
330
889
100
AcDbEntity
  8
0
100
AcDbBlockEnd
  0
BLOCK
  5
969
330
8A3
100
AcDbEntity
  8
0
100
AcDbBlockBegin
  2
*D12
 70
     1
 10
0.0
 20
0.0
 30
0.0
  3
*D12
  1

  0
LINE
  5
BD1
330
8A3
100
AcDbEntity
  8
HAUPTEBENE
  6
Continuous
 62
     1
370
    -2
100
AcDbLine
 10
164.3888429049866
 20
225.3545576407506
 30
0.0
 11
164.3888429049866
 21
158.1045576407506
 31
0.0
  0
LINE
  5
BD2
330
8A3
100
AcDbEntity
  8
HAUPTEBENE
  6
Continuous
 62
     1
370
    -2
100
AcDbLine
 10
432.9088471849866
 20
225.3545576407506
 30
0.0
 11
432.9088471849866
 21
158.1045576407506
 31
0.0
  0
LINE
  5
BD3
330
8A3
100
AcDbEntity
  8
HAUPTEBENE
  6
Continuous
 62
     1
370
    -2
100
AcDbLine
 10
168.1088429049865
 20
159.6045576407506
 30
0.0
 11
429.1888471849865
 21
159.6045576407506
 31
0.0
  0
INSERT
  5
BD4
330
8A3
100
AcDbEntity
  8
HAUPTEBENE
  6
Continuous
 62
     1
370
    -2
100
AcDbBlockReference
  2
_OPEN15
 10
164.3888429049866
 20
159.6045576407506
 30
0.0
 41
3.72
 42
3.72
 43
3.72
 50
180.0
  0
INSERT
  5
BD5
330
8A3
100
AcDbEntity
  8
HAUPTEBENE
  6
Continuous
 62
     1
370
    -2
100
AcDbBlockReference
  2
_OPEN15
 10
432.9088471849866
 20
159.6045576407506
 30
0.0
 41
3.72
 42
3.72
 43
3.72
  0
MTEXT
  5
BD6
330
8A3
100
AcDbEntity
  8
HAUPTEBENE
  6
Continuous
 62
     5
100
AcDbMText
 10
298.6488526749866
 20
162.6049021289396
 30
0.0
 40
3.5
 41
0.0
 71
     5
 72
     1
  1
\A1;268.52
 73
     1
 44
1.0
1001
ACAD
1000
MTEXTBEGIN
1070
    73
1070
     1
1070
    44
1040
1.0
1070
    74
1070
     0
1000
MTEXTEND
  0
POINT
  5
BD7
330
8A3
100
AcDbEntity
  8
DEFPOINTS
  6
Continuous
 62
     0
100
AcDbPoint
 10
164.3888429049866
 20
225.3545576407506
 30
0.0
  0
POINT
  5
BD8
330
8A3
100
AcDbEntity
  8
DEFPOINTS
  6
Continuous
 62
     0
100
AcDbPoint
 10
432.9088471849866
 20
225.3545576407506
 30
0.0
  0
POINT
  5
BD9
330
8A3
100
AcDbEntity
  8
DEFPOINTS
  6
Continuous
 62
     0
100
AcDbPoint
 10
432.9088471849866
 20
159.6045576407506
 30
0.0
  0
ENDBLK
  5
973
330
8A3
100
AcDbEntity
  8
0
100
AcDbBlockEnd
  0
BLOCK
  5
977
330
8CA
100
AcDbEntity
  8
0
100
AcDbBlockBegin
  2
*D13
 70
     1
 10
0.0
 20
0.0
 30
0.0
  3
*D13
  1

  0
LINE
  5
BC6
330
8CA
100
AcDbEntity
  8
HAUPTEBENE
  6
Continuous
 62
     1
370
    -2
100
AcDbLine
 10
472.9088471849865
 20
197.6045576407506
 30
0.0
 11
472.9088471849865
 21
186.1045576407506
 31
0.0
  0
LINE
  5
BC7
330
8CA
100
AcDbEntity
  8
HAUPTEBENE
  6
Continuous
 62
     1
370
    -2
100
AcDbLine
 10
474.9088471849866
 20
197.6045576407506
 30
0.0
 11
474.9088471849866
 21
186.1045576407506
 31
0.0
  0
LINE
  5
BC8
330
8CA
100
AcDbEntity
  8
HAUPTEBENE
  6
Continuous
 62
     1
370
    -2
100
AcDbLine
 10
478.6288471849866
 20
187.6045576407506
 30
0.0
 11
482.3488471849866
 21
187.6045576407506
 31
0.0
  0
LINE
  5
BC9
330
8CA
100
AcDbEntity
  8
HAUPTEBENE
  6
Continuous
 62
     1
370
    -2
100
AcDbLine
 10
469.1888471849865
 20
187.6045576407506
 30
0.0
 11
460.4202202164827
 21
187.6045576407506
 31
0.0
  0
LINE
  5
BCA
330
8CA
100
AcDbEntity
  8
HAUPTEBENE
  6
Continuous
 62
     1
370
    -2
100
AcDbLine
 10
474.9088471849866
 20
187.6045576407506
 30
0.0
 11
472.9088471849865
 21
187.6045576407506
 31
0.0
  0
INSERT
  5
BCB
330
8CA
100
AcDbEntity
  8
HAUPTEBENE
  6
Continuous
 62
     1
370
    -2
100
AcDbBlockReference
  2
_OPEN15
 10
474.9088471849866
 20
187.6045576407506
 30
0.0
 41
3.72
 42
3.72
 43
3.72
 50
180.0
  0
INSERT
  5
BCC
330
8CA
100
AcDbEntity
  8
HAUPTEBENE
  6
Continuous
 62
     1
370
    -2
100
AcDbBlockReference
  2
_OPEN15
 10
472.9088471849865
 20
187.6045576407506
 30
0.0
 41
3.72
 42
3.72
 43
3.72
  0
MTEXT
  5
BCD
330
8CA
100
AcDbEntity
  8
HAUPTEBENE
  6
Continuous
 62
     5
100
AcDbMText
 10
462.9445337007346
 20
190.6049021289396
 30
0.0
 40
3.5
 41
0.0
 71
     5
 72
     1
  1
\A1;2
 73
     1
 44
1.0
1001
ACAD
1000
MTEXTBEGIN
1070
    73
1070
     1
1070
    44
1040
1.0
1070
    74
1070
     0
1000
MTEXTEND
  0
POINT
  5
BCE
330
8CA
100
AcDbEntity
  8
DEFPOINTS
  6
Continuous
 62
     0
100
AcDbPoint
 10
472.9088471849865
 20
197.6045576407506
 30
0.0
  0
POINT
  5
BCF
330
8CA
100
AcDbEntity
  8
DEFPOINTS
  6
Continuous
 62
     0
100
AcDbPoint
 10
474.9088471849866
 20
197.6045576407506
 30
0.0
  0
POINT
  5
BD0
330
8CA
100
AcDbEntity
  8
DEFPOINTS
  6
Continuous
 62
     0
100
AcDbPoint
 10
474.9088471849866
 20
187.6045576407506
 30
0.0
  0
ENDBLK
  5
983
330
8CA
100
AcDbEntity
  8
0
100
AcDbBlockEnd
  0
BLOCK
  5
D0C
330
CF5
100
AcDbEntity
  8
0
100
AcDbBlockBegin
  2
*X14
 70
     1
 10
0.0
 20
0.0
 30
0.0
  3
*X14
  1

  0
LINE
  5
CF6
330
CF5
100
AcDbEntity
  8
0
  6
Continuous
 62
     0
100
AcDbLine
 10
282.4946932357234
 20
111.7284055791721
 30
0.0
 11
283.3527822431664
 21
112.5864945866152
 31
0.0
1001
PHOENIX7010
1002
{
1070
    62
1070
     0
1002
}
  0
LINE
  5
CF7
330
CF5
100
AcDbEntity
  8
0
  6
Continuous
 62
     0
100
AcDbLine
 10
283.9748602947132
 20
113.208572638162
 30
0.0
 11
284.3559343555419
 21
113.5896466989906
 31
0.0
1001
PHOENIX7010
1002
{
1070
    62
1070
     0
1002
}
  0
LINE
  5
CF8
330
CF5
100
AcDbEntity
  8
0
  6
Continuous
 62
     0
100
AcDbLine
 10
282.4946932357234
 20
112.0819589697654
 30
0.0
 11
283.0546932357236
 21
112.6419589697656
 31
0.0
1001
PHOENIX7010
1002
{
1070
    62
1070
     0
1002
}
  0
LINE
  5
CF9
330
CF5
100
AcDbEntity
  8
0
  6
Continuous
 62
     0
100
AcDbLine
 10
283.6992288525732
 20
113.2864945866153
 30
0.0
 11
284.106913031348
 21
113.69417876539
 31
0.0
1001
PHOENIX7010
1002
{
1070
    62
1070
     0
1002
}
  0
LINE
  5
CFA
330
CF5
100
AcDbEntity
  8
0
  6
Continuous
 62
     0
100
AcDbLine
 10
282.4946932357234
 20
112.4355123603587
 30
0.0
 11
283.0546932357236
 21
112.9955123603588
 31
0.0
1001
PHOENIX7010
1002
{
1070
    62
1070
     0
1002
}
  0
LINE
  5
CFB
330
CF5
100
AcDbEntity
  8
0
  6
Continuous
 62
     0
100
AcDbLine
 10
283.3456754619799
 20
113.2864945866153
 30
0.0
 11
283.76567546198
 21
113.7064945866153
 31
0.0
1001
PHOENIX7010
1002
{
1070
    62
1070
     0
1002
}
  0
LINE
  5
CFC
330
CF5
100
AcDbEntity
  8
0
  6
Continuous
 62
     0
100
AcDbLine
 10
282.4946932357234
 20
112.789065750952
 30
0.0
 11
283.4121220713867
 21
113.7064945866153
 31
0.0
1001
PHOENIX7010
1002
{
1070
    62
1070
     0
1002
}
  0
LINE
  5
CFD
330
CF5
100
AcDbEntity
  8
0
  6
Continuous
 62
     0
100
AcDbLine
 10
282.4946932357234
 20
113.1426191415453
 30
0.0
 11
283.0585686807935
 21
113.7064945866153
 31
0.0
1001
PHOENIX7010
1002
{
1070
    62
1070
     0
1002
}
  0
LINE
  5
CFE
330
CF5
100
AcDbEntity
  8
0
  6
Continuous
 62
     0
100
AcDbLine
 10
282.4946932357234
 20
113.4961725321385
 30
0.0
 11
282.7050152902002
 21
113.7064945866153
 31
0.0
1001
PHOENIX7010
1002
{
1070
    62
1070
     0
1002
}
  0
LINE
  5
CFF
330
CF5
100
AcDbEntity
  8
0
  6
Continuous
 62
     0
100
AcDbLine
 10
282.4946932357234
 20
111.3748521885789
 30
0.0
 11
283.0546932357236
 21
111.9348521885791
 31
0.0
1001
PHOENIX7010
1002
{
1070
    62
1070
     0
1002
}
  0
LINE
  5
D00
330
CF5
100
AcDbEntity
  8
0
  6
Continuous
 62
     0
100
AcDbLine
 10
284.1017361611777
 20
112.9818951140332
 30
0.0
 11
284.535449056698
 21
113.4156080095535
 31
0.0
1001
PHOENIX7010
1002
{
1070
    62
1070
     0
1002
}
  0
LINE
  5
D01
330
CF5
100
AcDbEntity
  8
0
  6
Continuous
 62
     0
100
AcDbLine
 10
283.2863356337597
 20
112.1664945866152
 30
0.0
 11
283.7063356337597
 21
112.5864945866152
 31
0.0
1001
PHOENIX7010
1002
{
1070
    62
1070
     0
1002
}
  0
LINE
  5
D02
330
CF5
100
AcDbEntity
  8
0
  6
Continuous
 62
     0
100
AcDbLine
 10
282.4946932357234
 20
111.0212987979856
 30
0.0
 11
283.0546932357236
 21
111.5812987979858
 31
0.0
1001
PHOENIX7010
1002
{
1070
    62
1070
     0
1002
}
  0
LINE
  5
D03
330
CF5
100
AcDbEntity
  8
0
  6
Continuous
 62
     0
100
AcDbLine
 10
283.639889024353
 20
112.1664945866152
 30
0.0
 11
284.646804174416
 21
113.1734097366782
 31
0.0
1001
PHOENIX7010
1002
{
1070
    62
1070
     0
1002
}
  0
LINE
  5
D04
330
CF5
100
AcDbEntity
  8
0
  6
Continuous
 62
     0
100
AcDbLine
 10
282.7334424149463
 20
110.9064945866153
 30
0.0
 11
283.1534424149463
 21
111.3264945866152
 31
0.0
1001
PHOENIX7010
1002
{
1070
    62
1070
     0
1002
}
  0
LINE
  5
D05
330
CF5
100
AcDbEntity
  8
0
  6
Continuous
 62
     0
100
AcDbLine
 10
283.9468876177779
 20
112.1199397894469
 30
0.0
 11
284.6396644086484
 21
112.8127165803174
 31
0.0
1001
PHOENIX7010
1002
{
1070
    62
1070
     0
1002
}
  0
LINE
  5
D06
330
CF5
100
AcDbEntity
  8
0
  6
Continuous
 62
     0
100
AcDbLine
 10
283.0869958055396
 20
110.9064945866153
 30
0.0
 11
283.5069958055395
 21
111.3264945866152
 31
0.0
1001
PHOENIX7010
1002
{
1070
    62
1070
     0
1002
}
  0
LINE
  5
D07
330
CF5
100
AcDbEntity
  8
0
  6
Continuous
 62
     0
100
AcDbLine
 10
284.1250591509979
 20
111.9445579320736
 30
0.0
 11
284.4382721008005
 21
112.2577708818761
 31
0.0
1001
PHOENIX7010
1002
{
1070
    62
1070
     0
1002
}
  0
LINE
  5
D08
330
CF5
100
AcDbEntity
  8
0
  6
Continuous
 62
     0
100
AcDbLine
 10
283.4405491961328
 20
110.9064945866153
 30
0.0
 11
283.8795311104497
 21
111.345476500932
 31
0.0
1001
PHOENIX7010
1002
{
1070
    62
1070
     0
1002
}
  0
LINE
  5
D09
330
CF5
100
AcDbEntity
  8
0
  6
Continuous
 62
     0
100
AcDbLine
 10
284.1557113214067
 20
111.6216567118891
 30
0.0
 11
284.6108504195374
 21
112.0767958100198
 31
0.0
1001
PHOENIX7010
1002
{
1070
    62
1070
     0
1002
}
  0
LINE
  5
D0A
330
CF5
100
AcDbEntity
  8
0
  6
Continuous
 62
     0
100
AcDbLine
 10
283.7941025867261
 20
110.9064945866153
 30
0.0
 11
284.7192140792499
 21
111.831606079139
 31
0.0
1001
PHOENIX7010
1002
{
1070
    62
1070
     0
1002
}
  0
LINE
  5
D0B
330
CF5
100
AcDbEntity
  8
0
  6
Continuous
 62
     0
100
AcDbLine
 10
284.1628821454459
 20
110.9217207547417
 30
0.0
 11
284.7194670675864
 21
111.4783056768823
 31
0.0
1001
PHOENIX7010
1002
{
1070
    62
1070
     0
1002
}
  0
ENDBLK
  5
D0D
330
CF5
100
AcDbEntity
  8
0
100
AcDbBlockEnd
  0
BLOCK
  5
D22
330
D0E
100
AcDbEntity
  8
0
100
AcDbBlockBegin
  2
*X15
 70
     1
 10
0.0
 20
0.0
 30
0.0
  3
*X15
  1

  0
LINE
  5
D0F
330
D0E
100
AcDbEntity
  8
0
  6
Continuous
 62
     0
100
AcDbLine
 10
286.4180755690154
 20
111.4091472253449
 30
0.0
 11
286.8246968958254
 21
111.8157685521548
 31
0.0
1001
PHOENIX7010
1002
{
1070
    62
1070
     0
1002
}
  0
LINE
  5
D10
330
D0E
100
AcDbEntity
  8
0
  6
Continuous
 62
     0
100
AcDbLine
 10
288.0298641195678
 20
113.0209357758973
 30
0.0
 11
288.4264971353167
 21
113.4175687916461
 31
0.0
1001
PHOENIX7010
1002
{
1070
    62
1070
     0
1002
}
  0
LINE
  5
D11
330
D0E
100
AcDbEntity
  8
0
  6
Continuous
 62
     0
100
AcDbLine
 10
286.2903733033842
 20
111.6349983503069
 30
0.0
 11
286.7405137721076
 21
112.0851388190304
 31
0.0
1001
PHOENIX7010
1002
{
1070
    62
1070
     0
1002
}
  0
LINE
  5
D12
330
D0E
100
AcDbEntity
  8
0
  6
Continuous
 62
     0
100
AcDbLine
 10
287.8098147670356
 20
113.1544398139584
 30
0.0
 11
288.2251944996507
 21
113.5698195465735
 31
0.0
1001
PHOENIX7010
1002
{
1070
    62
1070
     0
1002
}
  0
LINE
  5
D13
330
D0E
100
AcDbEntity
  8
0
  6
Continuous
 62
     0
100
AcDbLine
 10
286.2038563172894
 20
111.9020347548054
 30
0.0
 11
286.7347193850277
 21
112.4328978225437
 31
0.0
1001
PHOENIX7010
1002
{
1070
    62
1070
     0
1002
}
  0
LINE
  5
D14
330
D0E
100
AcDbEntity
  8
0
  6
Continuous
 62
     0
100
AcDbLine
 10
287.5122899997951
 20
113.2104684373111
 30
0.0
 11
287.9877928476188
 21
113.6859712851348
 31
0.0
1001
PHOENIX7010
1002
{
1070
    62
1070
     0
1002
}
  0
LINE
  5
D15
330
D0E
100
AcDbEntity
  8
0
  6
Continuous
 62
     0
100
AcDbLine
 10
286.1746932357235
 20
112.2264250638328
 30
0.0
 11
287.7056902925025
 21
113.7574221206118
 31
0.0
1001
PHOENIX7010
1002
{
1070
    62
1070
     0
1002
}
  0
LINE
  5
D16
330
D0E
100
AcDbEntity
  8
0
  6
Continuous
 62
     0
100
AcDbLine
 10
286.1846705859144
 20
112.589955804617
 30
0.0
 11
287.3552320177217
 21
113.7605172364243
 31
0.0
1001
PHOENIX7010
1002
{
1070
    62
1070
     0
1002
}
  0
LINE
  5
D17
330
D0E
100
AcDbEntity
  8
0
  6
Continuous
 62
     0
100
AcDbLine
 10
286.3773430356217
 20
113.1361816449176
 30
0.0
 11
286.8090061774211
 21
113.567844786717
 31
0.0
1001
PHOENIX7010
1002
{
1070
    62
1070
     0
1002
}
  0
LINE
  5
D18
330
D0E
100
AcDbEntity
  8
0
  6
Continuous
 62
     0
100
AcDbLine
 10
286.5805608267756
 20
111.2180790925118
 30
0.0
 11
286.9765960364702
 21
111.6141143022064
 31
0.0
1001
PHOENIX7010
1002
{
1070
    62
1070
     0
1002
}
  0
LINE
  5
D19
330
D0E
100
AcDbEntity
  8
0
  6
Continuous
 62
     0
100
AcDbLine
 10
288.1914822124738
 20
112.82900047821
 30
0.0
 11
288.5945285454044
 21
113.2320468111407
 31
0.0
1001
PHOENIX7010
1002
{
1070
    62
1070
     0
1002
}
  0
LINE
  5
D1A
330
D0E
100
AcDbEntity
  8
0
  6
Continuous
 62
     0
100
AcDbLine
 10
286.7762265373858
 20
111.0601914125288
 30
0.0
 11
287.1864225448964
 21
111.4703874200393
 31
0.0
1001
PHOENIX7010
1002
{
1070
    62
1070
     0
1002
}
  0
LINE
  5
D1B
330
D0E
100
AcDbEntity
  8
0
  6
Continuous
 62
     0
100
AcDbLine
 10
288.2889072436896
 20
112.5728721188325
 30
0.0
 11
288.7283168890202
 21
113.0122817641631
 31
0.0
1001
PHOENIX7010
1002
{
1070
    62
1070
     0
1002
}
  0
LINE
  5
D1C
330
D0E
100
AcDbEntity
  8
0
  6
Continuous
 62
     0
100
AcDbLine
 10
287.0072136048211
 20
110.9376250893708
 30
0.0
 11
287.4677405769711
 21
111.3981520615207
 31
0.0
1001
PHOENIX7010
1002
{
1070
    62
1070
     0
1002
}
  0
LINE
  5
D1D
330
D0E
100
AcDbEntity
  8
0
  6
Continuous
 62
     0
100
AcDbLine
 10
288.3026932357233
 20
112.2331047202729
 30
0.0
 11
288.8224619461013
 21
112.7528734306509
 31
0.0
1001
PHOENIX7010
1002
{
1070
    62
1070
     0
1002
}
  0
LINE
  5
D1E
330
D0E
100
AcDbEntity
  8
0
  6
Continuous
 62
     0
100
AcDbLine
 10
287.2808492022236
 20
110.8577072961799
 30
0.0
 11
287.9469171845201
 21
111.5237752784765
 31
0.0
1001
PHOENIX7010
1002
{
1070
    62
1070
     0
1002
}
  0
LINE
  5
D1F
330
D0E
100
AcDbEntity
  8
0
  6
Continuous
 62
     0
100
AcDbLine
 10
288.1754125438622
 20
111.7522706378186
 30
0.0
 11
288.8626304209453
 21
112.4394885149017
 31
0.0
1001
PHOENIX7010
1002
{
1070
    62
1070
     0
1002
}
  0
LINE
  5
D20
330
D0E
100
AcDbEntity
  8
0
  6
Continuous
 62
     0
100
AcDbLine
 10
287.6167734270417
 20
110.8400781304048
 30
0.0
 11
288.859109691934
 21
112.082414395297
 31
0.0
1001
PHOENIX7010
1002
{
1070
    62
1070
     0
1002
}
  0
LINE
  5
D21
330
D0E
100
AcDbEntity
  8
0
  6
Continuous
 62
     0
100
AcDbLine
 10
288.0980051902905
 20
110.9677565030603
 30
0.0
 11
288.7314313192785
 21
111.6011826320483
 31
0.0
1001
PHOENIX7010
1002
{
1070
    62
1070
     0
1002
}
  0
ENDBLK
  5
D23
330
D0E
100
AcDbEntity
  8
0
100
AcDbBlockEnd
  0
BLOCK
  5
D37
330
D24
100
AcDbEntity
  8
0
100
AcDbBlockBegin
  2
*X16
 70
     1
 10
0.0
 20
0.0
 30
0.0
  3
*X16
  1

  0
LINE
  5
D25
330
D24
100
AcDbEntity
  8
0
  6
Continuous
 62
     0
100
AcDbLine
 10
290.3746932357234
 20
111.8302309861201
 30
0.0
 11
290.9346932357234
 21
112.3902309861202
 31
0.0
1001
PHOENIX7010
1002
{
1070
    62
1070
     0
1002
}
  0
LINE
  5
D26
330
D24
100
AcDbEntity
  8
0
  6
Continuous
 62
     0
100
AcDbLine
 10
291.726768423543
 20
113.1823061739397
 30
0.0
 11
292.0864933292313
 21
113.5420310796281
 31
0.0
1001
PHOENIX7010
1002
{
1070
    62
1070
     0
1002
}
  0
LINE
  5
D27
330
D24
100
AcDbEntity
  8
0
  6
Continuous
 62
     0
100
AcDbLine
 10
290.3746932357234
 20
112.1837843767134
 30
0.0
 11
290.9346932357234
 21
112.7437843767134
 31
0.0
1001
PHOENIX7010
1002
{
1070
    62
1070
     0
1002
}
  0
LINE
  5
D28
330
D24
100
AcDbEntity
  8
0
  6
Continuous
 62
     0
100
AcDbLine
 10
291.4748315430401
 20
113.28392268403
 30
0.0
 11
291.8511432237688
 21
113.6602343647588
 31
0.0
1001
PHOENIX7010
1002
{
1070
    62
1070
     0
1002
}
  0
LINE
  5
D29
330
D24
100
AcDbEntity
  8
0
  6
Continuous
 62
     0
100
AcDbLine
 10
290.3746932357234
 20
112.5373377673066
 30
0.0
 11
290.9346932357234
 21
113.0973377673067
 31
0.0
1001
PHOENIX7010
1002
{
1070
    62
1070
     0
1002
}
  0
LINE
  5
D2A
330
D24
100
AcDbEntity
  8
0
  6
Continuous
 62
     0
100
AcDbLine
 10
291.123850055032
 20
113.2864945866153
 30
0.0
 11
291.543850055032
 21
113.7064945866153
 31
0.0
1001
PHOENIX7010
1002
{
1070
    62
1070
     0
1002
}
  0
LINE
  5
D2B
330
D24
100
AcDbEntity
  8
0
  6
Continuous
 62
     0
100
AcDbLine
 10
290.3746932357234
 20
112.8908911578999
 30
0.0
 11
291.1902966644388
 21
113.7064945866153
 31
0.0
1001
PHOENIX7010
1002
{
1070
    62
1070
     0
1002
}
  0
LINE
  5
D2C
330
D24
100
AcDbEntity
  8
0
  6
Continuous
 62
     0
100
AcDbLine
 10
290.3746932357234
 20
113.2444445484932
 30
0.0
 11
290.8367432738454
 21
113.7064945866153
 31
0.0
1001
PHOENIX7010
1002
{
1070
    62
1070
     0
1002
}
  0
LINE
  5
D2D
330
D24
100
AcDbEntity
  8
0
  6
Continuous
 62
     0
100
AcDbLine
 10
290.3746932357234
 20
113.5979979390865
 30
0.0
 11
290.4831898832522
 21
113.7064945866153
 31
0.0
1001
PHOENIX7010
1002
{
1070
    62
1070
     0
1002
}
  0
LINE
  5
D2E
330
D24
100
AcDbEntity
  8
0
  6
Continuous
 62
     0
100
AcDbLine
 10
290.3746932357234
 20
111.4766775955269
 30
0.0
 11
291.2045102268118
 21
112.3064945866152
 31
0.0
1001
PHOENIX7010
1002
{
1070
    62
1070
     0
1002
}
  0
LINE
  5
D2F
330
D24
100
AcDbEntity
  8
0
  6
Continuous
 62
     0
100
AcDbLine
 10
291.8787407258061
 20
112.9807250856095
 30
0.0
 11
292.2697867726467
 21
113.3717711324501
 31
0.0
1001
PHOENIX7010
1002
{
1070
    62
1070
     0
1002
}
  0
LINE
  5
D30
330
D24
100
AcDbEntity
  8
0
  6
Continuous
 62
     0
100
AcDbLine
 10
290.3746932357234
 20
111.1231242049336
 30
0.0
 11
290.9346932357234
 21
111.6831242049336
 31
0.0
1001
PHOENIX7010
1002
{
1070
    62
1070
     0
1002
}
  0
LINE
  5
D31
330
D24
100
AcDbEntity
  8
0
  6
Continuous
 62
     0
100
AcDbLine
 10
291.8877136234469
 20
112.6361445926571
 30
0.0
 11
292.4027325734666
 21
113.1511635426767
 31
0.0
1001
PHOENIX7010
1002
{
1070
    62
1070
     0
1002
}
  0
LINE
  5
D32
330
D24
100
AcDbEntity
  8
0
  6
Continuous
 62
     0
100
AcDbLine
 10
291.1380636174051
 20
111.8864945866153
 30
0.0
 11
291.5850432296815
 21
112.3334741988917
 31
0.0
1001
PHOENIX7010
1002
{
1070
    62
1070
     0
1002
}
  0
LINE
  5
D33
330
D24
100
AcDbEntity
  8
0
  6
Continuous
 62
     0
100
AcDbLine
 10
290.5116170079983
 20
110.9064945866153
 30
0.0
 11
290.9346932357234
 21
111.3295708143404
 31
0.0
1001
PHOENIX7010
1002
{
1070
    62
1070
     0
1002
}
  0
LINE
  5
D34
330
D24
100
AcDbEntity
  8
0
  6
Continuous
 62
     0
100
AcDbLine
 10
291.4916170079983
 20
111.8864945866153
 30
0.0
 11
292.4719696570883
 21
112.8668472357052
 31
0.0
1001
PHOENIX7010
1002
{
1070
    62
1070
     0
1002
}
  0
LINE
  5
D35
330
D24
100
AcDbEntity
  8
0
  6
Continuous
 62
     0
100
AcDbLine
 10
290.8651703985916
 20
110.9064945866153
 30
0.0
 11
290.9346932357234
 21
110.9760174237471
 31
0.0
1001
PHOENIX7010
1002
{
1070
    62
1070
     0
1002
}
  0
LINE
  5
D36
330
D24
100
AcDbEntity
  8
0
  6
Continuous
 62
     0
100
AcDbLine
 10
291.9155120324188
 20
111.9568362204425
 30
0.0
 11
292.4043516018961
 21
112.4456757899198
 31
0.0
1001
PHOENIX7010
1002
{
1070
    62
1070
     0
1002
}
  0
ENDBLK
  5
D38
330
D24
100
AcDbEntity
  8
0
100
AcDbBlockEnd
  0
BLOCK
  5
D46
330
D39
100
AcDbEntity
  8
0
100
AcDbBlockBegin
  2
*X17
 70
     1
 10
0.0
 20
0.0
 30
0.0
  3
*X17
  1

  0
LINE
  5
D3A
330
D39
100
AcDbEntity
  8
0
  6
Continuous
 62
     0
100
AcDbLine
 10
293.7746932357234
 20
111.6946970801874
 30
0.0
 11
294.3346932357234
 21
112.2546970801874
 31
0.0
1001
PHOENIX7010
1002
{
1070
    62
1070
     0
1002
}
  0
LINE
  5
D3B
330
D39
100
AcDbEntity
  8
0
  6
Continuous
 62
     0
100
AcDbLine
 10
293.7746932357234
 20
112.0482504707806
 30
0.0
 11
294.3346932357234
 21
112.6082504707807
 31
0.0
1001
PHOENIX7010
1002
{
1070
    62
1070
     0
1002
}
  0
LINE
  5
D3C
330
D39
100
AcDbEntity
  8
0
  6
Continuous
 62
     0
100
AcDbLine
 10
293.7746932357234
 20
112.4018038613739
 30
0.0
 11
294.3346932357234
 21
112.961803861374
 31
0.0
1001
PHOENIX7010
1002
{
1070
    62
1070
     0
1002
}
  0
LINE
  5
D3D
330
D39
100
AcDbEntity
  8
0
  6
Continuous
 62
     0
100
AcDbLine
 10
293.7746932357234
 20
112.7553572519672
 30
0.0
 11
294.3346932357234
 21
113.3153572519673
 31
0.0
1001
PHOENIX7010
1002
{
1070
    62
1070
     0
1002
}
  0
LINE
  5
D3E
330
D39
100
AcDbEntity
  8
0
  6
Continuous
 62
     0
100
AcDbLine
 10
293.7746932357234
 20
113.1089106425605
 30
0.0
 11
294.3346932357234
 21
113.6689106425605
 31
0.0
1001
PHOENIX7010
1002
{
1070
    62
1070
     0
1002
}
  0
LINE
  5
D3F
330
D39
100
AcDbEntity
  8
0
  6
Continuous
 62
     0
100
AcDbLine
 10
293.7746932357234
 20
113.4624640331537
 30
0.0
 11
294.018723789185
 21
113.7064945866153
 31
0.0
1001
PHOENIX7010
1002
{
1070
    62
1070
     0
1002
}
  0
LINE
  5
D40
330
D39
100
AcDbEntity
  8
0
  6
Continuous
 62
     0
100
AcDbLine
 10
293.7746932357234
 20
111.3411436895941
 30
0.0
 11
294.3346932357234
 21
111.9011436895942
 31
0.0
1001
PHOENIX7010
1002
{
1070
    62
1070
     0
1002
}
  0
LINE
  5
D41
330
D39
100
AcDbEntity
  8
0
  6
Continuous
 62
     0
100
AcDbLine
 10
293.7746932357234
 20
110.9875902990008
 30
0.0
 11
294.3346932357234
 21
111.5475902990009
 31
0.0
1001
PHOENIX7010
1002
{
1070
    62
1070
     0
1002
}
  0
LINE
  5
D42
330
D39
100
AcDbEntity
  8
0
  6
Continuous
 62
     0
100
AcDbLine
 10
294.0471509139311
 20
110.9064945866153
 30
0.0
 11
294.4671509139311
 21
111.3264945866152
 31
0.0
1001
PHOENIX7010
1002
{
1070
    62
1070
     0
1002
}
  0
LINE
  5
D43
330
D39
100
AcDbEntity
  8
0
  6
Continuous
 62
     0
100
AcDbLine
 10
294.4007043045243
 20
110.9064945866153
 30
0.0
 11
294.8207043045243
 21
111.3264945866152
 31
0.0
1001
PHOENIX7010
1002
{
1070
    62
1070
     0
1002
}
  0
LINE
  5
D44
330
D39
100
AcDbEntity
  8
0
  6
Continuous
 62
     0
100
AcDbLine
 10
294.7542576951176
 20
110.9064945866153
 30
0.0
 11
295.1742576951176
 21
111.3264945866152
 31
0.0
1001
PHOENIX7010
1002
{
1070
    62
1070
     0
1002
}
  0
LINE
  5
D45
330
D39
100
AcDbEntity
  8
0
  6
Continuous
 62
     0
100
AcDbLine
 10
295.1078110857109
 20
110.9064945866153
 30
0.0
 11
295.3746932357234
 21
111.1733767366277
 31
0.0
1001
PHOENIX7010
1002
{
1070
    62
1070
     0
1002
}
  0
ENDBLK
  5
D47
330
D39
100
AcDbEntity
  8
0
100
AcDbBlockEnd
  0
BLOCK
  5
D5B
330
D48
100
AcDbEntity
  8
0
100
AcDbBlockBegin
  2
*X18
 70
     1
 10
0.0
 20
0.0
 30
0.0
  3
*X18
  1

  0
LINE
  5
D49
330
D48
100
AcDbEntity
  8
0
  6
Continuous
 62
     0
100
AcDbLine
 10
296.4857358393871
 20
111.2237591685116
 30
0.0
 11
297.2852450968609
 21
112.0232684259854
 31
0.0
1001
PHOENIX7010
1002
{
1070
    62
1070
     0
1002
}
  0
LINE
  5
D4A
330
D48
100
AcDbEntity
  8
0
  6
Continuous
 62
     0
100
AcDbLine
 10
297.8183015798716
 20
112.5563249089962
 30
0.0
 11
298.1878949450705
 21
112.925918274195
 31
0.0
1001
PHOENIX7010
1002
{
1070
    62
1070
     0
1002
}
  0
LINE
  5
D4B
330
D48
100
AcDbEntity
  8
0
  6
Continuous
 62
     0
100
AcDbLine
 10
296.6761107420142
 20
111.767687461732
 30
0.0
 11
297.444914370032
 21
112.5364910897498
 31
0.0
1001
PHOENIX7010
1002
{
1070
    62
1070
     0
1002
}
  0
LINE
  5
D4C
330
D48
100
AcDbEntity
  8
0
  6
Continuous
 62
     0
100
AcDbLine
 10
297.7344075549851
 20
112.8259842747029
 30
0.0
 11
298.0962329549167
 21
113.1878096746345
 31
0.0
1001
PHOENIX7010
1002
{
1070
    62
1070
     0
1002
}
  0
LINE
  5
D4D
330
D48
100
AcDbEntity
  8
0
  6
Continuous
 62
     0
100
AcDbLine
 10
296.8664856446413
 20
112.3116157549524
 30
0.0
 11
297.6045836432032
 21
113.0497137535143
 31
0.0
1001
PHOENIX7010
1002
{
1070
    62
1070
     0
1002
}
  0
LINE
  5
D4E
330
D48
100
AcDbEntity
  8
0
  6
Continuous
 62
     0
100
AcDbLine
 10
297.6505135300986
 20
113.0956436404096
 30
0.0
 11
298.0045709647629
 21
113.4497010750739
 31
0.0
1001
PHOENIX7010
1002
{
1070
    62
1070
     0
1002
}
  0
LINE
  5
D4F
330
D48
100
AcDbEntity
  8
0
  6
Continuous
 62
     0
100
AcDbLine
 10
297.0568605472684
 20
112.8555440481728
 30
0.0
 11
297.9078110857109
 21
113.7064945866153
 31
0.0
1001
PHOENIX7010
1002
{
1070
    62
1070
     0
1002
}
  0
LINE
  5
D50
330
D48
100
AcDbEntity
  8
0
  6
Continuous
 62
     0
100
AcDbLine
 10
297.2472354498956
 20
113.3994723413932
 30
0.0
 11
297.5542576951177
 21
113.7064945866153
 31
0.0
1001
PHOENIX7010
1002
{
1070
    62
1070
     0
1002
}
  0
LINE
  5
D51
330
D48
100
AcDbEntity
  8
0
  6
Continuous
 62
     0
100
AcDbLine
 10
296.522024648084
 20
110.9064945866153
 30
0.0
 11
297.502024648084
 21
111.8864945866153
 31
0.0
1001
PHOENIX7010
1002
{
1070
    62
1070
     0
1002
}
  0
LINE
  5
D52
330
D48
100
AcDbEntity
  8
0
  6
Continuous
 62
     0
100
AcDbLine
 10
297.9021956047581
 20
112.2866655432894
 30
0.0
 11
298.2795569352243
 21
112.6640268737556
 31
0.0
1001
PHOENIX7010
1002
{
1070
    62
1070
     0
1002
}
  0
LINE
  5
D53
330
D48
100
AcDbEntity
  8
0
  6
Continuous
 62
     0
100
AcDbLine
 10
296.8755780386772
 20
110.9064945866153
 30
0.0
 11
296.9600283201717
 21
110.9909448681097
 31
0.0
1001
PHOENIX7010
1002
{
1070
    62
1070
     0
1002
}
  0
LINE
  5
D54
330
D48
100
AcDbEntity
  8
0
  6
Continuous
 62
     0
100
AcDbLine
 10
297.9860896296447
 20
112.0170061775827
 30
0.0
 11
298.3712189253781
 21
112.4021354733161
 31
0.0
1001
PHOENIX7010
1002
{
1070
    62
1070
     0
1002
}
  0
LINE
  5
D55
330
D48
100
AcDbEntity
  8
0
  6
Continuous
 62
     0
100
AcDbLine
 10
297.4355780386773
 20
111.4664945866153
 30
0.0
 11
297.8555780386773
 21
111.8864945866153
 31
0.0
1001
PHOENIX7010
1002
{
1070
    62
1070
     0
1002
}
  0
LINE
  5
D56
330
D48
100
AcDbEntity
  8
0
  6
Continuous
 62
     0
100
AcDbLine
 10
297.7891314292706
 20
111.4664945866153
 30
0.0
 11
298.462880915532
 21
112.1402440728767
 31
0.0
1001
PHOENIX7010
1002
{
1070
    62
1070
     0
1002
}
  0
LINE
  5
D57
330
D48
100
AcDbEntity
  8
0
  6
Continuous
 62
     0
100
AcDbLine
 10
298.1426848198639
 20
111.4664945866153
 30
0.0
 11
298.5545429056858
 21
111.8783526724372
 31
0.0
1001
PHOENIX7010
1002
{
1070
    62
1070
     0
1002
}
  0
LINE
  5
D58
330
D48
100
AcDbEntity
  8
0
  6
Continuous
 62
     0
100
AcDbLine
 10
298.2427420760465
 20
111.2129984522047
 30
0.0
 11
298.6462048958396
 21
111.6164612719978
 31
0.0
1001
PHOENIX7010
1002
{
1070
    62
1070
     0
1002
}
  0
LINE
  5
D59
330
D48
100
AcDbEntity
  8
0
  6
Continuous
 62
     0
100
AcDbLine
 10
298.3243313200296
 20
110.9410343055945
 30
0.0
 11
298.7378668859934
 21
111.3545698715583
 31
0.0
1001
PHOENIX7010
1002
{
1070
    62
1070
     0
1002
}
  0
LINE
  5
D5A
330
D48
100
AcDbEntity
  8
0
  6
Continuous
 62
     0
100
AcDbLine
 10
298.6433449916436
 20
110.9064945866153
 30
0.0
 11
298.8295288761472
 21
111.0926784711189
 31
0.0
1001
PHOENIX7010
1002
{
1070
    62
1070
     0
1002
}
  0
ENDBLK
  5
D5C
330
D48
100
AcDbEntity
  8
0
100
AcDbBlockEnd
  0
BLOCK
  5
D7B
330
D5D
100
AcDbEntity
  8
0
100
AcDbBlockBegin
  2
*X19
 70
     1
 10
0.0
 20
0.0
 30
0.0
  3
*X19
  1

  0
LINE
  5
D5E
330
D5D
100
AcDbEntity
  8
0
  6
Continuous
 62
     0
100
AcDbLine
 10
291.3519597897655
 20
115.4168945866153
 30
0.0
 11
294.3546932357233
 21
118.9954129584383
 31
0.0
1001
PHOENIX7010
1002
{
1070
    62
1070
     0
1002
}
  0
LINE
  5
D5F
330
D5D
100
AcDbEntity
  8
0
  6
Continuous
 62
     0
100
AcDbLine
 10
291.0256079674324
 20
115.4168945866153
 30
0.0
 11
294.3546932357233
 21
119.3843439151534
 31
0.0
1001
PHOENIX7010
1002
{
1070
    62
1070
     0
1002
}
  0
LINE
  5
D60
330
D5D
100
AcDbEntity
  8
0
  6
Continuous
 62
     0
100
AcDbLine
 10
290.6992561450993
 20
115.4168945866153
 30
0.0
 11
294.3546932357233
 21
119.7732748718685
 31
0.0
1001
PHOENIX7010
1002
{
1070
    62
1070
     0
1002
}
  0
LINE
  5
D61
330
D5D
100
AcDbEntity
  8
0
  6
Continuous
 62
     0
100
AcDbLine
 10
290.3729043227662
 20
115.4168945866153
 30
0.0
 11
294.3546932357233
 21
120.1622058285836
 31
0.0
1001
PHOENIX7010
1002
{
1070
    62
1070
     0
1002
}
  0
LINE
  5
D62
330
D5D
100
AcDbEntity
  8
0
  6
Continuous
 62
     0
100
AcDbLine
 10
290.0465525004332
 20
115.4168945866153
 30
0.0
 11
294.3546932357233
 21
120.5511367852987
 31
0.0
1001
PHOENIX7010
1002
{
1070
    62
1070
     0
1002
}
  0
LINE
  5
D63
330
D5D
100
AcDbEntity
  8
0
  6
Continuous
 62
     0
100
AcDbLine
 10
289.7202006781001
 20
115.4168945866153
 30
0.0
 11
294.3546932357233
 21
120.9400677420138
 31
0.0
1001
PHOENIX7010
1002
{
1070
    62
1070
     0
1002
}
  0
LINE
  5
D64
330
D5D
100
AcDbEntity
  8
0
  6
Continuous
 62
     0
100
AcDbLine
 10
289.393848855767
 20
115.4168945866153
 30
0.0
 11
294.3546932357233
 21
121.3289986987289
 31
0.0
1001
PHOENIX7010
1002
{
1070
    62
1070
     0
1002
}
  0
LINE
  5
D65
330
D5D
100
AcDbEntity
  8
0
  6
Continuous
 62
     0
100
AcDbLine
 10
291.6783116120985
 20
115.4168945866153
 30
0.0
 11
294.3546932357233
 21
118.6064820017232
 31
0.0
1001
PHOENIX7010
1002
{
1070
    62
1070
     0
1002
}
  0
LINE
  5
D66
330
D5D
100
AcDbEntity
  8
0
  6
Continuous
 62
     0
100
AcDbLine
 10
292.0046634344316
 20
115.4168945866153
 30
0.0
 11
294.3546932357233
 21
118.2175510450081
 31
0.0
1001
PHOENIX7010
1002
{
1070
    62
1070
     0
1002
}
  0
LINE
  5
D67
330
D5D
100
AcDbEntity
  8
0
  6
Continuous
 62
     0
100
AcDbLine
 10
292.3310152567647
 20
115.4168945866153
 30
0.0
 11
294.3546932357233
 21
117.828620088293
 31
0.0
1001
PHOENIX7010
1002
{
1070
    62
1070
     0
1002
}
  0
LINE
  5
D68
330
D5D
100
AcDbEntity
  8
0
  6
Continuous
 62
     0
100
AcDbLine
 10
292.6573670790978
 20
115.4168945866153
 30
0.0
 11
294.3546932357233
 21
117.4396891315778
 31
0.0
1001
PHOENIX7010
1002
{
1070
    62
1070
     0
1002
}
  0
LINE
  5
D69
330
D5D
100
AcDbEntity
  8
0
  6
Continuous
 62
     0
100
AcDbLine
 10
292.9837189014308
 20
115.4168945866153
 30
0.0
 11
294.3546932357233
 21
117.0507581748628
 31
0.0
1001
PHOENIX7010
1002
{
1070
    62
1070
     0
1002
}
  0
LINE
  5
D6A
330
D5D
100
AcDbEntity
  8
0
  6
Continuous
 62
     0
100
AcDbLine
 10
293.3100707237638
 20
115.4168945866153
 30
0.0
 11
294.3546932357233
 21
116.6618272181477
 31
0.0
1001
PHOENIX7010
1002
{
1070
    62
1070
     0
1002
}
  0
LINE
  5
D6B
330
D5D
100
AcDbEntity
  8
0
  6
Continuous
 62
     0
100
AcDbLine
 10
293.6364225460969
 20
115.4168945866153
 30
0.0
 11
294.3546932357233
 21
116.2728962614326
 31
0.0
1001
PHOENIX7010
1002
{
1070
    62
1070
     0
1002
}
  0
LINE
  5
D6C
330
D5D
100
AcDbEntity
  8
0
  6
Continuous
 62
     0
100
AcDbLine
 10
293.96277436843
 20
115.4168945866153
 30
0.0
 11
298.7842932357234
 21
121.1629570184728
 31
0.0
1001
PHOENIX7010
1002
{
1070
    62
1070
     0
1002
}
  0
LINE
  5
D6D
330
D5D
100
AcDbEntity
  8
0
  6
Continuous
 62
     0
100
AcDbLine
 10
294.2891261907631
 20
115.4168945866153
 30
0.0
 11
298.7842932357234
 21
120.7740260617577
 31
0.0
1001
PHOENIX7010
1002
{
1070
    62
1070
     0
1002
}
  0
LINE
  5
D6E
330
D5D
100
AcDbEntity
  8
0
  6
Continuous
 62
     0
100
AcDbLine
 10
294.6154780130962
 20
115.4168945866153
 30
0.0
 11
298.7842932357234
 21
120.3850951050426
 31
0.0
1001
PHOENIX7010
1002
{
1070
    62
1070
     0
1002
}
  0
LINE
  5
D6F
330
D5D
100
AcDbEntity
  8
0
  6
Continuous
 62
     0
100
AcDbLine
 10
294.9418298354292
 20
115.4168945866153
 30
0.0
 11
298.7842932357234
 21
119.9961641483275
 31
0.0
1001
PHOENIX7010
1002
{
1070
    62
1070
     0
1002
}
  0
LINE
  5
D70
330
D5D
100
AcDbEntity
  8
0
  6
Continuous
 62
     0
100
AcDbLine
 10
295.2681816577623
 20
115.4168945866153
 30
0.0
 11
298.7842932357234
 21
119.6072331916124
 31
0.0
1001
PHOENIX7010
1002
{
1070
    62
1070
     0
1002
}
  0
LINE
  5
D71
330
D5D
100
AcDbEntity
  8
0
  6
Continuous
 62
     0
100
AcDbLine
 10
295.5945334800953
 20
115.4168945866153
 30
0.0
 11
298.7842932357234
 21
119.2183022348973
 31
0.0
1001
PHOENIX7010
1002
{
1070
    62
1070
     0
1002
}
  0
LINE
  5
D72
330
D5D
100
AcDbEntity
  8
0
  6
Continuous
 62
     0
100
AcDbLine
 10
295.9208853024285
 20
115.4168945866153
 30
0.0
 11
298.7842932357234
 21
118.8293712781822
 31
0.0
1001
PHOENIX7010
1002
{
1070
    62
1070
     0
1002
}
  0
LINE
  5
D73
330
D5D
100
AcDbEntity
  8
0
  6
Continuous
 62
     0
100
AcDbLine
 10
296.2472371247615
 20
115.4168945866153
 30
0.0
 11
298.7842932357234
 21
118.4404403214671
 31
0.0
1001
PHOENIX7010
1002
{
1070
    62
1070
     0
1002
}
  0
LINE
  5
D74
330
D5D
100
AcDbEntity
  8
0
  6
Continuous
 62
     0
100
AcDbLine
 10
296.5735889470946
 20
115.4168945866153
 30
0.0
 11
298.7842932357234
 21
118.051509364752
 31
0.0
1001
PHOENIX7010
1002
{
1070
    62
1070
     0
1002
}
  0
LINE
  5
D75
330
D5D
100
AcDbEntity
  8
0
  6
Continuous
 62
     0
100
AcDbLine
 10
296.8999407694276
 20
115.4168945866153
 30
0.0
 11
298.7842932357234
 21
117.6625784080369
 31
0.0
1001
PHOENIX7010
1002
{
1070
    62
1070
     0
1002
}
  0
LINE
  5
D76
330
D5D
100
AcDbEntity
  8
0
  6
Continuous
 62
     0
100
AcDbLine
 10
297.2262925917608
 20
115.4168945866153
 30
0.0
 11
298.7842932357234
 21
117.2736474513218
 31
0.0
1001
PHOENIX7010
1002
{
1070
    62
1070
     0
1002
}
  0
LINE
  5
D77
330
D5D
100
AcDbEntity
  8
0
  6
Continuous
 62
     0
100
AcDbLine
 10
297.5526444140938
 20
115.4168945866153
 30
0.0
 11
298.7842932357234
 21
116.8847164946067
 31
0.0
1001
PHOENIX7010
1002
{
1070
    62
1070
     0
1002
}
  0
LINE
  5
D78
330
D5D
100
AcDbEntity
  8
0
  6
Continuous
 62
     0
100
AcDbLine
 10
297.8789962364269
 20
115.4168945866153
 30
0.0
 11
298.7842932357234
 21
116.4957855378916
 31
0.0
1001
PHOENIX7010
1002
{
1070
    62
1070
     0
1002
}
  0
LINE
  5
D79
330
D5D
100
AcDbEntity
  8
0
  6
Continuous
 62
     0
100
AcDbLine
 10
298.2053480587599
 20
115.4168945866153
 30
0.0
 11
298.7842932357234
 21
116.1068545811765
 31
0.0
1001
PHOENIX7010
1002
{
1070
    62
1070
     0
1002
}
  0
LINE
  5
D7A
330
D5D
100
AcDbEntity
  8
0
  6
Continuous
 62
     0
100
AcDbLine
 10
298.531699881093
 20
115.4168945866153
 30
0.0
 11
298.7842932357234
 21
115.7179236244614
 31
0.0
1001
PHOENIX7010
1002
{
1070
    62
1070
     0
1002
}
  0
ENDBLK
  5
D7C
330
D5D
100
AcDbEntity
  8
0
100
AcDbBlockEnd
  0
BLOCK
  5
D8C
330
D7D
100
AcDbEntity
  8
0
100
AcDbBlockBegin
  2
*X20
 70
     1
 10
0.0
 20
0.0
 30
0.0
  3
*X20
  1

  0
LINE
  5
D7E
330
D7D
100
AcDbEntity
  8
0
  6
Continuous
 62
     0
100
AcDbLine
 10
287.622424632577
 20
115.371212735534
 30
0.0
 11
288.2946932357235
 21
116.0434813386805
 31
0.0
1001
PHOENIX7010
1002
{
1070
    62
1070
     0
1002
}
  0
LINE
  5
D7F
330
D7D
100
AcDbEntity
  8
0
  6
Continuous
 62
     0
100
AcDbLine
 10
291.0817064836582
 20
118.8304945866152
 30
0.0
 11
291.7539750868047
 21
119.5027631897617
 31
0.0
1001
PHOENIX7010
1002
{
1070
    62
1070
     0
1002
}
  0
LINE
  5
D80
330
D7D
100
AcDbEntity
  8
0
  6
Continuous
 62
     0
100
AcDbLine
 10
286.9683189089447
 20
115.5656351493257
 30
0.0
 11
288.2946932357235
 21
116.8920094761044
 31
0.0
1001
PHOENIX7010
1002
{
1070
    62
1070
     0
1002
}
  0
LINE
  5
D81
330
D7D
100
AcDbEntity
  8
0
  6
Continuous
 62
     0
100
AcDbLine
 10
290.2331783462344
 20
118.8304945866152
 30
0.0
 11
291.559552673013
 21
120.1568689133939
 31
0.0
1001
PHOENIX7010
1002
{
1070
    62
1070
     0
1002
}
  0
LINE
  5
D82
330
D7D
100
AcDbEntity
  8
0
  6
Continuous
 62
     0
100
AcDbLine
 10
286.4081523517492
 20
115.853996729554
 30
0.0
 11
288.2946932357235
 21
117.7405376135282
 31
0.0
1001
PHOENIX7010
1002
{
1070
    62
1070
     0
1002
}
  0
LINE
  5
D83
330
D7D
100
AcDbEntity
  8
0
  6
Continuous
 62
     0
100
AcDbLine
 10
289.3846502088105
 20
118.8304945866152
 30
0.0
 11
291.2711910927847
 21
120.7170354705894
 31
0.0
1001
PHOENIX7010
1002
{
1070
    62
1070
     0
1002
}
  0
LINE
  5
D84
330
D7D
100
AcDbEntity
  8
0
  6
Continuous
 62
     0
100
AcDbLine
 10
285.9264890069686
 20
116.2208615221972
 30
0.0
 11
288.2946932357235
 21
118.5890657509521
 31
0.0
1001
PHOENIX7010
1002
{
1070
    62
1070
     0
1002
}
  0
LINE
  5
D85
330
D7D
100
AcDbEntity
  8
0
  6
Continuous
 62
     0
100
AcDbLine
 10
288.5361220713866
 20
118.8304945866152
 30
0.0
 11
290.9043263001415
 21
121.1986988153701
 31
0.0
1001
PHOENIX7010
1002
{
1070
    62
1070
     0
1002
}
  0
LINE
  5
D86
330
D7D
100
AcDbEntity
  8
0
  6
Continuous
 62
     0
100
AcDbLine
 10
285.5178571862534
 20
116.6607578389059
 30
0.0
 11
290.4644299834327
 21
121.6073306360852
 31
0.0
1001
PHOENIX7010
1002
{
1070
    62
1070
     0
1002
}
  0
LINE
  5
D87
330
D7D
100
AcDbEntity
  8
0
  6
Continuous
 62
     0
100
AcDbLine
 10
285.1836935834831
 20
117.1751223735595
 30
0.0
 11
289.9500654487793
 21
121.9414942388555
 31
0.0
1001
PHOENIX7010
1002
{
1070
    62
1070
     0
1002
}
  0
LINE
  5
D88
330
D7D
100
AcDbEntity
  8
0
  6
Continuous
 62
     0
100
AcDbLine
 10
284.9330895322749
 20
117.7730464597751
 30
0.0
 11
289.3521413625635
 21
122.1920982900637
 31
0.0
1001
PHOENIX7010
1002
{
1070
    62
1070
     0
1002
}
  0
LINE
  5
D89
330
D7D
100
AcDbEntity
  8
0
  6
Continuous
 62
     0
100
AcDbLine
 10
284.7884720172401
 20
118.4769570821641
 30
0.0
 11
288.6482307401745
 21
122.3367158050986
 31
0.0
1001
PHOENIX7010
1002
{
1070
    62
1070
     0
1002
}
  0
LINE
  5
D8A
330
D7D
100
AcDbEntity
  8
0
  6
Continuous
 62
     0
100
AcDbLine
 10
284.8085355842248
 20
119.3455487865727
 30
0.0
 11
287.7796390357659
 21
122.3166522381139
 31
0.0
1001
PHOENIX7010
1002
{
1070
    62
1070
     0
1002
}
  0
LINE
  5
D8B
330
D7D
100
AcDbEntity
  8
0
  6
Continuous
 62
     0
100
AcDbLine
 10
285.2959822266612
 20
120.6815235664328
 30
0.0
 11
286.4436642559058
 21
121.8292055956776
 31
0.0
1001
PHOENIX7010
1002
{
1070
    62
1070
     0
1002
}
  0
ENDBLK
  5
D8D
330
D7D
100
AcDbEntity
  8
0
100
AcDbBlockEnd
  0
BLOCK
  5
1497
330
1495
100
AcDbEntity
  8
0
 62
     7
100
AcDbBlockBegin
  2
PH_GRPBLK
 70
     0
 10
0.0
 20
0.0
 30
0.0
  3
PH_GRPBLK
  1

  0
POINT
  5
1496
330
1495
100
AcDbEntity
  8
DEFPOINTS
  6
Continuous
 62
     0
100
AcDbPoint
 10
0.0
 20
0.0
 30
0.0
  0
ENDBLK
  5
1498
330
1495
100
AcDbEntity
  8
0
 62
     7
100
AcDbBlockEnd
  0
BLOCK
  5
1C1E
330
1C1D
100
AcDbEntity
  8
0
 62
     7
100
AcDbBlockBegin
  2
*D29
 70
     1
 10
0.0
 20
0.0
 30
0.0
  3
*D29
  1

  0
LINE
  5
1F15
330
1C1D
100
AcDbEntity
  8
2
  6
Continuous
 62
     1
370
    -2
100
AcDbLine
 10
435.1672302672575
 20
312.5632229140824
 30
0.0
 11
427.0609677634759
 21
303.3956721307905
 31
0.0
  0
MTEXT
  5
1F16
330
1C1D
100
AcDbEntity
  8
2
  6
Continuous
 62
     5
370
    35
100
AcDbMText
 10
430.2860583401474
 20
311.194482302992
 30
0.0
 40
3.5
 41
0.0
 71
     5
 72
     1
  1
\A1;R5
 11
0.6624136952686076
 21
0.7491382357886883
 31
0.0
 73
     1
 44
1.0
1001
ACAD
1000
MTEXTBEGIN
1070
    73
1070
     1
1070
    44
1040
1.0
1070
    74
1070
     0
1000
MTEXTEND
  0
INSERT
  5
1F17
330
1C1D
100
AcDbEntity
  8
2
  6
Continuous
 62
     1
370
    -2
100
AcDbBlockReference
  2
_OPEN15
 10
424.5967888170766
 20
300.6088778936566
 30
0.0
 41
3.72
 42
3.72
 43
3.72
 50
228.5157842608388
  0
POINT
  5
1F18
330
1C1D
100
AcDbEntity
  8
DEFPOINTS
  6
Continuous
 62
     0
100
AcDbPoint
 10
424.5967888170766
 20
300.6088778936566
 30
0.0
  0
POINT
  5
1F19
330
1C1D
100
AcDbEntity
  8
DEFPOINTS
  6
Continuous
 62
     0
100
AcDbPoint
 10
427.9088471849868
 20
304.3545576407507
 30
0.0
  0
ENDBLK
  5
1C1F
330
1C1D
100
AcDbEntity
  8
0
 62
     7
100
AcDbBlockEnd
  0
BLOCK
  5
1F1C
330
1F1B
100
AcDbEntity
  8
0
 62
     7
100
AcDbBlockBegin
  2
*D30
 70
     1
 10
0.0
 20
0.0
 30
0.0
  3
*D30
  1

  0
LINE
  5
2248
330
1F1B
100
AcDbEntity
  8
2
  6
Continuous
 62
     1
370
    -2
100
AcDbLine
 10
424.5588563349866
 20
322.8545576407507
 30
0.0
 11
424.5588563349866
 21
347.6326254341808
 31
0.0
  0
LINE
  5
2249
330
1F1B
100
AcDbEntity
  8
2
  6
Continuous
 62
     1
370
    -2
100
AcDbLine
 10
424.5588563349866
 20
322.8545576407507
 30
0.0
 11
424.5588563349866
 21
347.6326254341808
 31
0.0
  0
LINE
  5
224A
330
1F1B
100
AcDbEntity
  8
2
  6
Continuous
 62
     1
370
    -2
100
AcDbLine
 10
420.8388563349865
 20
346.1326254341808
 30
0.0
 11
417.1188563349866
 21
346.1326254341808
 31
0.0
  0
LINE
  5
224B
330
1F1B
100
AcDbEntity
  8
2
  6
Continuous
 62
     1
370
    -2
100
AcDbLine
 10
428.2788563349866
 20
346.1326254341808
 30
0.0
 11
436.107124051522
 21
346.1326254341808
 31
0.0
  0
INSERT
  5
224C
330
1F1B
100
AcDbEntity
  8
2
  6
Continuous
 62
     1
370
    -2
100
AcDbBlockReference
  2
_OPEN15
 10
424.5588563349866
 20
346.1326254341808
 30
0.0
 41
3.72
 42
3.72
 43
3.72
  0
INSERT
  5
224D
330
1F1B
100
AcDbEntity
  8
2
  6
Continuous
 62
     1
370
    -2
100
AcDbBlockReference
  2
_OPEN15
 10
424.5588563349866
 20
346.1326254341808
 30
0.0
 41
3.72
 42
3.72
 43
3.72
 50
180.0
  0
MTEXT
  5
224E
330
1F1B
100
AcDbEntity
  8
2
  6
Continuous
 62
     5
370
    35
100
AcDbMText
 10
434.0529901932543
 20
348.8826254341808
 30
0.0
 40
3.5
 41
0.0
 71
     5
 72
     1
  1
\A1;0
 73
     1
 44
1.0
1001
ACAD
1000
MTEXTBEGIN
1070
    73
1070
     1
1070
    44
1040
1.0
1070
    74
1070
     0
1000
MTEXTEND
  0
POINT
  5
224F
330
1F1B
100
AcDbEntity
  8
DEFPOINTS
  6
Continuous
 62
     0
100
AcDbPoint
 10
424.5588563349866
 20
322.8545576407507
 30
0.0
  0
POINT
  5
2250
330
1F1B
100
AcDbEntity
  8
DEFPOINTS
  6
Continuous
 62
     0
100
AcDbPoint
 10
424.5588563349866
 20
322.8545576407507
 30
0.0
  0
POINT
  5
2251
330
1F1B
100
AcDbEntity
  8
DEFPOINTS
  6
Continuous
 62
     0
100
AcDbPoint
 10
424.5588563349866
 20
346.1326254341808
 30
0.0
  0
ENDBLK
  5
1F1D
330
1F1B
100
AcDbEntity
  8
0
 62
     7
100
AcDbBlockEnd
  0
BLOCK
  5
2253
330
2252
100
AcDbEntity
  8
0
 62
     7
100
AcDbBlockBegin
  2
*D31
 70
     1
 10
0.0
 20
0.0
 30
0.0
  3
*D31
  1

  0
LINE
  5
2485
330
2252
100
AcDbEntity
  8
2
  6
Continuous
 62
     1
370
    -2
100
AcDbLine
 10
424.5588563349866
 20
322.8545576407507
 30
0.0
 11
419.0453562226166
 21
322.8545576407507
 31
0.0
  0
LINE
  5
2486
330
2252
100
AcDbEntity
  8
2
  6
Continuous
 62
     1
370
    -2
100
AcDbLine
 10
424.5588563349866
 20
322.8545576407507
 30
0.0
 11
419.0453562226166
 21
322.8545576407507
 31
0.0
  0
LINE
  5
2487
330
2252
100
AcDbEntity
  8
2
  6
Continuous
 62
     1
370
    -2
100
AcDbLine
 10
420.5453562226166
 20
319.1345576407507
 30
0.0
 11
420.5453562226166
 21
315.4145576407507
 31
0.0
  0
LINE
  5
2488
330
2252
100
AcDbEntity
  8
2
  6
Continuous
 62
     1
370
    -2
100
AcDbLine
 10
420.5453562226166
 20
326.5745576407507
 30
0.0
 11
420.5453562226166
 21
334.4028253572861
 31
0.0
  0
INSERT
  5
2489
330
2252
100
AcDbEntity
  8
2
  6
Continuous
 62
     1
370
    -2
100
AcDbBlockReference
  2
_OPEN15
 10
420.5453562226166
 20
322.8545576407507
 30
0.0
 41
3.72
 42
3.72
 43
3.72
 50
90.0
  0
INSERT
  5
248A
330
2252
100
AcDbEntity
  8
2
  6
Continuous
 62
     1
370
    -2
100
AcDbBlockReference
  2
_OPEN15
 10
420.5453562226166
 20
322.8545576407507
 30
0.0
 41
3.72
 42
3.72
 43
3.72
 50
270.0
  0
MTEXT
  5
248B
330
2252
100
AcDbEntity
  8
2
  6
Continuous
 62
     5
370
    35
100
AcDbMText
 10
417.7953562226165
 20
332.3486914990185
 30
0.0
 40
3.5
 41
0.0
 71
     5
 72
     1
  1
\A1;0
 11
0.0000000000000001
 21
1.0
 31
0.0
 73
     1
 44
1.0
1001
ACAD
1000
MTEXTBEGIN
1070
    73
1070
     1
1070
    44
1040
1.0
1070
    74
1070
     0
1000
MTEXTEND
  0
POINT
  5
248C
330
2252
100
AcDbEntity
  8
DEFPOINTS
  6
Continuous
 62
     0
100
AcDbPoint
 10
424.5588563349866
 20
322.8545576407507
 30
0.0
  0
POINT
  5
248D
330
2252
100
AcDbEntity
  8
DEFPOINTS
  6
Continuous
 62
     0
100
AcDbPoint
 10
424.5588563349866
 20
322.8545576407507
 30
0.0
  0
POINT
  5
248E
330
2252
100
AcDbEntity
  8
DEFPOINTS
  6
Continuous
 62
     0
100
AcDbPoint
 10
420.5453562226166
 20
322.8545576407507
 30
0.0
  0
ENDBLK
  5
2254
330
2252
100
AcDbEntity
  8
0
 62
     7
100
AcDbBlockEnd
  0
BLOCK
  5
249D
330
249C
100
AcDbEntity
  8
0
 62
     7
100
AcDbBlockBegin
  2
*D32
 70
     1
 10
0.0
 20
0.0
 30
0.0
  3
*D32
  1

  0
LINE
  5
2877
330
249C
100
AcDbEntity
  8
2
  6
Continuous
 62
     1
370
    -2
100
AcDbLine
 10
432.9088471849866
 20
299.3545576407507
 30
0.0
 11
441.4088471849866
 21
299.3545576407507
 31
0.0
  0
LINE
  5
2878
330
249C
100
AcDbEntity
  8
2
  6
Continuous
 62
     1
370
    -2
100
AcDbLine
 10
432.9088471849866
 20
225.3545576407506
 30
0.0
 11
441.4088471849866
 21
225.3545576407506
 31
0.0
  0
LINE
  5
2879
330
249C
100
AcDbEntity
  8
2
  6
Continuous
 62
     1
370
    -2
100
AcDbLine
 10
439.9088471849865
 20
295.6345576407506
 30
0.0
 11
439.9088471849865
 21
229.0745576407506
 31
0.0
  0
INSERT
  5
287A
330
249C
100
AcDbEntity
  8
2
  6
Continuous
 62
     1
370
    -2
100
AcDbBlockReference
  2
_OPEN15
 10
439.9088471849865
 20
299.3545576407507
 30
0.0
 41
3.72
 42
3.72
 43
3.72
 50
90.0
  0
INSERT
  5
287B
330
249C
100
AcDbEntity
  8
2
  6
Continuous
 62
     1
370
    -2
100
AcDbBlockReference
  2
_OPEN15
 10
439.9088471849865
 20
225.3545576407506
 30
0.0
 41
3.72
 42
3.72
 43
3.72
 50
270.0
  0
MTEXT
  5
287C
330
249C
100
AcDbEntity
  8
2
  6
Continuous
 62
     5
370
    35
100
AcDbMText
 10
437.1588471849865
 20
262.3545576407507
 30
0.0
 40
3.5
 41
0.0
 71
     5
 72
     1
  1
\A1;74
 11
0.0000000000000001
 21
1.0
 31
0.0
 73
     1
 44
1.0
1001
ACAD
1000
MTEXTBEGIN
1070
    73
1070
     1
1070
    44
1040
1.0
1070
    74
1070
     0
1000
MTEXTEND
  0
POINT
  5
287D
330
249C
100
AcDbEntity
  8
DEFPOINTS
  6
Continuous
 62
     0
100
AcDbPoint
 10
432.9088471849866
 20
299.3545576407507
 30
0.0
  0
POINT
  5
287E
330
249C
100
AcDbEntity
  8
DEFPOINTS
  6
Continuous
 62
     0
100
AcDbPoint
 10
432.9088471849866
 20
225.3545576407506
 30
0.0
  0
POINT
  5
287F
330
249C
100
AcDbEntity
  8
DEFPOINTS
  6
Continuous
 62
     0
100
AcDbPoint
 10
439.9088471849865
 20
225.3545576407506
 30
0.0
  0
ENDBLK
  5
249E
330
249C
100
AcDbEntity
  8
0
 62
     7
100
AcDbBlockEnd
  0
BLOCK
  5
2882
330
2881
100
AcDbEntity
  8
0
 62
     7
100
AcDbBlockBegin
  2
*D33
 70
     1
 10
0.0
 20
0.0
 30
0.0
  3
*D33
  1

  0
LINE
  5
2B3C
330
2881
100
AcDbEntity
  8
2
  6
Continuous
 62
     1
370
    -2
100
AcDbLine
 10
424.5588563349866
 20
322.8545576407507
 30
0.0
 11
446.4088471849866
 21
322.8545576407507
 31
0.0
  0
LINE
  5
2B3D
330
2881
100
AcDbEntity
  8
2
  6
Continuous
 62
     1
370
    -2
100
AcDbLine
 10
424.5588563349866
 20
201.8545576407507
 30
0.0
 11
446.4088471849866
 21
201.8545576407507
 31
0.0
  0
LINE
  5
2B3E
330
2881
100
AcDbEntity
  8
2
  6
Continuous
 62
     1
370
    -2
100
AcDbLine
 10
444.9088471849866
 20
319.1345576407507
 30
0.0
 11
444.9088471849866
 21
205.5745576407506
 31
0.0
  0
INSERT
  5
2B3F
330
2881
100
AcDbEntity
  8
2
  6
Continuous
 62
     1
370
    -2
100
AcDbBlockReference
  2
_OPEN15
 10
444.9088471849866
 20
322.8545576407507
 30
0.0
 41
3.72
 42
3.72
 43
3.72
 50
90.0
  0
INSERT
  5
2B40
330
2881
100
AcDbEntity
  8
2
  6
Continuous
 62
     1
370
    -2
100
AcDbBlockReference
  2
_OPEN15
 10
444.9088471849866
 20
201.8545576407507
 30
0.0
 41
3.72
 42
3.72
 43
3.72
 50
270.0
  0
MTEXT
  5
2B41
330
2881
100
AcDbEntity
  8
2
  6
Continuous
 62
     5
370
    35
100
AcDbMText
 10
442.1585026967975
 20
262.3545576407507
 30
0.0
 40
3.5
 41
0.0
 71
     5
 72
     1
  1
\A1;121
 11
0.0000000000000001
 21
1.0
 31
0.0
 73
     1
 44
1.0
1001
ACAD
1000
MTEXTBEGIN
1070
    73
1070
     1
1070
    44
1040
1.0
1070
    74
1070
     0
1000
MTEXTEND
  0
POINT
  5
2B42
330
2881
100
AcDbEntity
  8
DEFPOINTS
  6
Continuous
 62
     0
100
AcDbPoint
 10
424.5588563349866
 20
322.8545576407507
 30
0.0
  0
POINT
  5
2B43
330
2881
100
AcDbEntity
  8
DEFPOINTS
  6
Continuous
 62
     0
100
AcDbPoint
 10
424.5588563349866
 20
201.8545576407507
 30
0.0
  0
POINT
  5
2B44
330
2881
100
AcDbEntity
  8
DEFPOINTS
  6
Continuous
 62
     0
100
AcDbPoint
 10
444.9088471849866
 20
201.8545576407507
 30
0.0
  0
ENDBLK
  5
2883
330
2881
100
AcDbEntity
  8
0
 62
     7
100
AcDbBlockEnd
  0
ENDSEC
  0
SECTION
  2
ENTITIES
  0
LINE
  5
761
330
1A
100
AcDbEntity
  8
HAUPTEBENE
  6
ACAD_ISO04W100
 62
     1
100
AcDbLine
 10
298.6488526749866
 20
329.1045576407507
 30
0.0
 11
298.6488526749866
 21
195.6045576407506
 31
0.0
1001
PHOENIX7010
1002
{
1070
    62
1070
     1
1070
    41
1040
1.0
1002
}
  0
LINE
  5
762
330
1A
100
AcDbEntity
  8
HAUPTEBENE
  6
ACAD_ISO04W100
 62
     1
100
AcDbLine
 10
162.3888429049866
 20
262.3545576407506
 30
0.0
 11
434.9088471849865
 21
262.3545576407506
 31
0.0
1001
PHOENIX7010
1002
{
1070
    62
1070
     1
1070
    41
1040
1.0
1002
}
  0
LINE
  5
763
102
{ACAD_REACTORS
330
912
330
921
330
92F
102
}
330
1A
100
AcDbEntity
  8
HAUPTEBENE
  6
Continuous
 62
     7
100
AcDbLine
 10
174.3888429049865
 20
324.8545576407507
 30
0.0
 11
174.3888429049865
 21
327.1045576407507
 31
0.0
1001
PHOENIX7010
1002
{
1070
    62
1070
     7
1070
    41
1040
1.0
1002
}
  0
LINE
  5
764
330
1A
100
AcDbEntity
  8
HAUPTEBENE
  6
Continuous
 62
     7
100
AcDbLine
 10
176.7388795349866
 20
324.8545576407507
 30
0.0
 11
174.3888429049865
 21
324.8545576407507
 31
0.0
1001
PHOENIX7010
1002
{
1070
    62
1070
     7
1070
    41
1040
1.0
1002
}
  0
ARC
  5
765
330
1A
100
AcDbEntity
  8
HAUPTEBENE
  6
Continuous
 62
     7
100
AcDbCircle
 10
176.7388795349866
 20
322.8545576407507
 30
0.0
 40
2.0
100
AcDbArc
 50
269.999999977959
 51
89.9999997722784
1001
PHOENIX7010
1002
{
1070
    62
1070
     7
1070
    41
1040
1.0
1002
}
  0
LINE
  5
766
330
1A
100
AcDbEntity
  8
HAUPTEBENE
  6
Continuous
 62
     7
100
AcDbLine
 10
174.3888429049865
 20
320.8545576407507
 30
0.0
 11
176.7388795349866
 21
320.8545576407507
 31
0.0
1001
PHOENIX7010
1002
{
1070
    62
1070
     7
1070
    41
1040
1.0
1002
}
  0
LINE
  5
767
330
1A
100
AcDbEntity
  8
HAUPTEBENE
  6
Continuous
 62
     7
100
AcDbLine
 10
174.3888429049865
 20
304.3545576407507
 30
0.0
 11
174.3888429049865
 21
320.8545576407507
 31
0.0
1001
PHOENIX7010
1002
{
1070
    62
1070
     7
1070
    41
1040
1.0
1002
}
  0
ARC
  5
768
330
1A
100
AcDbEntity
  8
HAUPTEBENE
  6
Continuous
 62
     7
100
AcDbCircle
 10
169.3888429049865
 20
304.3545576407507
 30
0.0
 40
5.0
100
AcDbArc
 50
269.9999999779587
 51
0.0000001615976952
1001
PHOENIX7010
1002
{
1070
    62
1070
     7
1070
    41
1040
1.0
1002
}
  0
LINE
  5
769
102
{ACAD_REACTORS
330
904
330
911
102
}
330
1A
100
AcDbEntity
  8
HAUPTEBENE
  6
Continuous
 62
     7
100
AcDbLine
 10
164.3888429049866
 20
299.3545576407507
 30
0.0
 11
169.3888429049865
 21
299.3545576407507
 31
0.0
1001
PHOENIX7010
1002
{
1070
    62
1070
     7
1070
    41
1040
1.0
1002
}
  0
LINE
  5
76A
102
{ACAD_REACTORS
330
903
330
966
102
}
330
1A
100
AcDbEntity
  8
HAUPTEBENE
  6
Continuous
 62
     7
100
AcDbLine
 10
164.3888429049866
 20
225.3545576407506
 30
0.0
 11
164.3888429049866
 21
299.3545576407507
 31
0.0
1001
PHOENIX7010
1002
{
1070
    62
1070
     7
1070
    41
1040
1.0
1002
}
  0
LINE
  5
76B
330
1A
100
AcDbEntity
  8
HAUPTEBENE
  6
Continuous
 62
     7
100
AcDbLine
 10
169.3888429049865
 20
225.3545576407506
 30
0.0
 11
164.3888429049866
 21
225.3545576407506
 31
0.0
1001
PHOENIX7010
1002
{
1070
    62
1070
     7
1070
    41
1040
1.0
1002
}
  0
ARC
  5
76C
330
1A
100
AcDbEntity
  8
HAUPTEBENE
  6
Continuous
 62
     7
100
AcDbCircle
 10
169.3888429049865
 20
220.3545576407506
 30
0.0
 40
5.0
100
AcDbArc
 50
0.0
 51
90.00000018363897
1001
PHOENIX7010
1002
{
1070
    62
1070
     7
1070
    41
1040
1.0
1002
}
  0
LINE
  5
76D
102
{ACAD_REACTORS
330
8E6
102
}
330
1A
100
AcDbEntity
  8
HAUPTEBENE
  6
Continuous
 62
     7
100
AcDbLine
 10
174.3888429049865
 20
203.8545576407507
 30
0.0
 11
174.3888429049865
 21
220.3545576407506
 31
0.0
1001
PHOENIX7010
1002
{
1070
    62
1070
     7
1070
    41
1040
1.0
1002
}
  0
LINE
  5
76E
330
1A
100
AcDbEntity
  8
HAUPTEBENE
  6
Continuous
 62
     7
100
AcDbLine
 10
176.7388795349866
 20
203.8545576407507
 30
0.0
 11
174.3888429049865
 21
203.8545576407507
 31
0.0
1001
PHOENIX7010
1002
{
1070
    62
1070
     7
1070
    41
1040
1.0
1002
}
  0
ARC
  5
76F
330
1A
100
AcDbEntity
  8
HAUPTEBENE
  6
Continuous
 62
     7
100
AcDbCircle
 10
176.7388795349866
 20
201.8545576407507
 30
0.0
 40
2.000015259999997
100
AcDbArc
 50
269.9999999779592
 51
89.99999977227849
1001
PHOENIX7010
1002
{
1070
    62
1070
     7
1070
    41
1040
1.0
1002
}
  0
LINE
  5
770
102
{ACAD_REACTORS
330
8E5
102
}
330
1A
100
AcDbEntity
  8
HAUPTEBENE
  6
Continuous
 62
     7
100
AcDbLine
 10
174.3888429049865
 20
199.8545423807506
 30
0.0
 11
176.7388795349866
 21
199.8545423807506
 31
0.0
1001
PHOENIX7010
1002
{
1070
    62
1070
     7
1070
    41
1040
1.0
1002
}
  0
LINE
  5
771
102
{ACAD_REACTORS
330
92E
330
958
102
}
330
1A
100
AcDbEntity
  8
HAUPTEBENE
  6
Continuous
 62
     7
100
AcDbLine
 10
174.3888429049865
 20
197.6045576407506
 30
0.0
 11
174.3888429049865
 21
199.8545423807506
 31
0.0
1001
PHOENIX7010
1002
{
1070
    62
1070
     7
1070
    41
1040
1.0
1002
}
  0
LINE
  5
772
102
{ACAD_REACTORS
330
959
102
}
330
1A
100
AcDbEntity
  8
HAUPTEBENE
  6
Continuous
 62
     7
100
AcDbLine
 10
422.9088624449865
 20
197.6045576407506
 30
0.0
 11
174.3888429049865
 21
197.6045576407506
 31
0.0
1001
PHOENIX7010
1002
{
1070
    62
1070
     7
1070
    41
1040
1.0
1002
}
  0
LINE
  5
773
330
1A
100
AcDbEntity
  8
HAUPTEBENE
  6
Continuous
 62
     7
100
AcDbLine
 10
422.9088624449865
 20
199.8545576407506
 30
0.0
 11
422.9088624449865
 21
197.6045576407506
 31
0.0
1001
PHOENIX7010
1002
{
1070
    62
1070
     7
1070
    41
1040
1.0
1002
}
  0
LINE
  5
774
330
1A
100
AcDbEntity
  8
HAUPTEBENE
  6
Continuous
 62
     7
100
AcDbLine
 10
420.5588563349865
 20
199.8545576407506
 30
0.0
 11
422.9088624449865
 21
199.8545576407506
 31
0.0
1001
PHOENIX7010
1002
{
1070
    62
1070
     7
1070
    41
1040
1.0
1002
}
  0
ARC
  5
775
330
1A
100
AcDbEntity
  8
HAUPTEBENE
  6
Continuous
 62
     7
100
AcDbCircle
 10
420.5588563349865
 20
201.8545576407507
 30
0.0
 40
1.999999999999992
100
AcDbArc
 50
90.00087451723491
 51
270.0000005509156
1001
PHOENIX7010
1002
{
1070
    62
1070
     7
1070
    41
1040
1.0
1002
}
  0
LINE
  5
776
330
1A
100
AcDbEntity
  8
HAUPTEBENE
  6
Continuous
 62
     7
100
AcDbLine
 10
422.9088624449865
 20
203.8545576407507
 30
0.0
 11
420.5588258149866
 21
203.8545576407507
 31
0.0
1001
PHOENIX7010
1002
{
1070
    62
1070
     7
1070
    41
1040
1.0
1002
}
  0
LINE
  5
777
330
1A
100
AcDbEntity
  8
HAUPTEBENE
  6
Continuous
 62
     7
100
AcDbLine
 10
422.9088624449865
 20
220.3545576407506
 30
0.0
 11
422.9088624449865
 21
203.8545576407507
 31
0.0
1001
PHOENIX7010
1002
{
1070
    62
1070
     7
1070
    41
1040
1.0
1002
}
  0
ARC
  5
778
330
1A
100
AcDbEntity
  8
HAUPTEBENE
  6
Continuous
 62
     7
100
AcDbCircle
 10
427.9088471849866
 20
220.3545576407506
 30
0.0
 40
5.0
100
AcDbArc
 50
90.00000018363897
 51
180.0000003672779
1001
PHOENIX7010
1002
{
1070
    62
1070
     7
1070
    41
1040
1.0
1002
}
  0
LINE
  5
779
102
{ACAD_REACTORS
330
967
102
}
330
1A
100
AcDbEntity
  8
HAUPTEBENE
  6
Continuous
 62
     7
100
AcDbLine
 10
432.9088471849866
 20
225.3545576407506
 30
0.0
 11
427.9088471849866
 21
225.3545576407506
 31
0.0
1001
PHOENIX7010
1002
{
1070
    62
1070
     7
1070
    41
1040
1.0
1002
}
  0
LINE
  5
77A
102
{ACAD_REACTORS
330
2859
330
285A
102
}
330
1A
100
AcDbEntity
  8
HAUPTEBENE
  6
Continuous
 62
     7
100
AcDbLine
 10
432.9088471849866
 20
299.3545576407507
 30
0.0
 11
432.9088471849866
 21
225.3545576407506
 31
0.0
1001
PHOENIX7010
1002
{
1070
    62
1070
     7
1070
    41
1040
1.0
1002
}
  0
LINE
  5
77B
330
1A
100
AcDbEntity
  8
HAUPTEBENE
  6
Continuous
 62
     7
100
AcDbLine
 10
427.9088471849866
 20
299.3545576407507
 30
0.0
 11
432.9088471849866
 21
299.3545576407507
 31
0.0
1001
PHOENIX7010
1002
{
1070
    62
1070
     7
1070
    41
1040
1.0
1002
}
  0
ARC
  5
77C
102
{ACAD_REACTORS
330
1E0A
102
}
330
1A
100
AcDbEntity
  8
HAUPTEBENE
  6
Continuous
 62
     7
100
AcDbCircle
 10
427.9088471849866
 20
304.3545576407507
 30
0.0
 40
4.999984740000002
100
AcDbArc
 50
179.9999997943197
 51
269.9999999779592
1001
PHOENIX7010
1002
{
1070
    62
1070
     7
1070
    41
1040
1.0
1002
}
  0
LINE
  5
77D
330
1A
100
AcDbEntity
  8
HAUPTEBENE
  6
Continuous
 62
     7
100
AcDbLine
 10
422.9088624449865
 20
320.8545576407507
 30
0.0
 11
422.9088624449865
 21
304.3545576407507
 31
0.0
1001
PHOENIX7010
1002
{
1070
    62
1070
     7
1070
    41
1040
1.0
1002
}
  0
LINE
  5
77E
330
1A
100
AcDbEntity
  8
HAUPTEBENE
  6
Continuous
 62
     7
100
AcDbLine
 10
420.5588258149866
 20
320.8545576407507
 30
0.0
 11
422.9088624449865
 21
320.8545576407507
 31
0.0
1001
PHOENIX7010
1002
{
1070
    62
1070
     7
1070
    41
1040
1.0
1002
}
  0
ARC
  5
77F
330
1A
100
AcDbEntity
  8
HAUPTEBENE
  6
Continuous
 62
     7
100
AcDbCircle
 10
420.5588563349865
 20
322.8545576407507
 30
0.0
 40
2.0
100
AcDbArc
 50
90.00000018363962
 51
269.9991262173204
1001
PHOENIX7010
1002
{
1070
    62
1070
     7
1070
    41
1040
1.0
1002
}
  0
LINE
  5
780
330
1A
100
AcDbEntity
  8
HAUPTEBENE
  6
Continuous
 62
     7
100
AcDbLine
 10
422.9088624449865
 20
324.8545576407507
 30
0.0
 11
420.5588563349865
 21
324.8545576407507
 31
0.0
1001
PHOENIX7010
1002
{
1070
    62
1070
     7
1070
    41
1040
1.0
1002
}
  0
LINE
  5
781
330
1A
100
AcDbEntity
  8
HAUPTEBENE
  6
Continuous
 62
     7
100
AcDbLine
 10
422.9088624449865
 20
327.1045576407507
 30
0.0
 11
422.9088624449865
 21
324.8545576407507
 31
0.0
1001
PHOENIX7010
1002
{
1070
    62
1070
     7
1070
    41
1040
1.0
1002
}
  0
LINE
  5
782
330
1A
100
AcDbEntity
  8
HAUPTEBENE
  6
Continuous
 62
     7
100
AcDbLine
 10
174.3888429049865
 20
327.1045576407507
 30
0.0
 11
422.9088624449865
 21
327.1045576407507
 31
0.0
1001
PHOENIX7010
1002
{
1070
    62
1070
     7
1070
    41
1040
1.0
1002
}
  0
LINE
  5
783
330
1A
100
AcDbEntity
  8
HAUPTEBENE
  6
Continuous
 62
     1
100
AcDbLine
 10
198.6488526749866
 20
325.8545576407507
 30
0.0
 11
198.6488526749866
 21
319.8545576407507
 31
0.0
1001
PHOENIX7010
1002
{
1070
    62
1070
     1
1070
    41
1040
1.0
1002
}
  0
LINE
  5
784
330
1A
100
AcDbEntity
  8
HAUPTEBENE
  6
Continuous
 62
     1
100
AcDbLine
 10
195.6488526749866
 20
322.8545576407507
 30
0.0
 11
201.6488526749866
 21
322.8545576407507
 31
0.0
1001
PHOENIX7010
1002
{
1070
    62
1070
     1
1070
    41
1040
1.0
1002
}
  0
CIRCLE
  5
785
330
1A
100
AcDbEntity
  8
HAUPTEBENE
  6
Continuous
 62
     7
100
AcDbCircle
 10
198.6488526749866
 20
322.8545576407507
 30
0.0
 40
2.0
1001
PHOENIX7010
1002
{
1070
    62
1070
     7
1070
    41
1040
1.0
1002
}
  0
LINE
  5
786
330
1A
100
AcDbEntity
  8
HAUPTEBENE
  6
Continuous
 62
     1
100
AcDbLine
 10
176.7388795349866
 20
325.8545576407507
 30
0.0
 11
176.7388795349866
 21
319.8545576407507
 31
0.0
1001
PHOENIX7010
1002
{
1070
    62
1070
     1
1070
    41
1040
1.0
1002
}
  0
LINE
  5
787
102
{ACAD_REACTORS
330
8F6
102
}
330
1A
100
AcDbEntity
  8
HAUPTEBENE
  6
Continuous
 62
     1
100
AcDbLine
 10
172.7388795349866
 20
322.8545576407507
 30
0.0
 11
180.7388795349866
 21
322.8545576407507
 31
0.0
1001
PHOENIX7010
1002
{
1070
    62
1070
     1
1070
    41
1040
1.0
1002
}
  0
LINE
  5
788
330
1A
100
AcDbEntity
  8
HAUPTEBENE
  6
Continuous
 62
     1
100
AcDbLine
 10
420.5588563349865
 20
325.8545576407507
 30
0.0
 11
420.5588563349865
 21
319.8545576407507
 31
0.0
1001
PHOENIX7010
1002
{
1070
    62
1070
     1
1070
    41
1040
1.0
1002
}
  0
LINE
  5
789
102
{ACAD_REACTORS
330
2B1E
102
}
330
1A
100
AcDbEntity
  8
HAUPTEBENE
  6
Continuous
 62
     1
100
AcDbLine
 10
424.5588563349866
 20
322.8545576407507
 30
0.0
 11
416.5588563349865
 21
322.8545576407507
 31
0.0
1001
PHOENIX7010
1002
{
1070
    62
1070
     1
1070
    41
1040
1.0
1002
}
  0
LINE
  5
78A
102
{ACAD_REACTORS
330
94A
102
}
330
1A
100
AcDbEntity
  8
HAUPTEBENE
  6
Continuous
 62
     1
100
AcDbLine
 10
176.7388795349866
 20
198.8545423807506
 30
0.0
 11
176.7388795349866
 21
204.8545576407506
 31
0.0
1001
PHOENIX7010
1002
{
1070
    62
1070
     1
1070
    41
1040
1.0
1002
}
  0
LINE
  5
78B
102
{ACAD_REACTORS
330
8F5
102
}
330
1A
100
AcDbEntity
  8
HAUPTEBENE
  6
Continuous
 62
     1
100
AcDbLine
 10
172.7388795349866
 20
201.8545576407507
 30
0.0
 11
180.7388795349866
 21
201.8545576407507
 31
0.0
1001
PHOENIX7010
1002
{
1070
    62
1070
     1
1070
    41
1040
1.0
1002
}
  0
LINE
  5
78C
102
{ACAD_REACTORS
330
94B
102
}
330
1A
100
AcDbEntity
  8
HAUPTEBENE
  6
Continuous
 62
     1
100
AcDbLine
 10
420.5588563349865
 20
198.8545576407506
 30
0.0
 11
420.5588563349865
 21
204.8545576407506
 31
0.0
1001
PHOENIX7010
1002
{
1070
    62
1070
     1
1070
    41
1040
1.0
1002
}
  0
LINE
  5
78D
102
{ACAD_REACTORS
330
2B1F
102
}
330
1A
100
AcDbEntity
  8
HAUPTEBENE
  6
Continuous
 62
     1
100
AcDbLine
 10
424.5588563349866
 20
201.8545576407507
 30
0.0
 11
416.5588563349865
 21
201.8545576407507
 31
0.0
1001
PHOENIX7010
1002
{
1070
    62
1070
     1
1070
    41
1040
1.0
1002
}
  0
LINE
  5
78E
102
{ACAD_REACTORS
330
93C
102
}
330
1A
100
AcDbEntity
  8
HAUPTEBENE
  6
Continuous
 62
     1
100
AcDbLine
 10
198.6488526749866
 20
204.8545576407506
 30
0.0
 11
198.6488526749866
 21
198.8545576407506
 31
0.0
1001
PHOENIX7010
1002
{
1070
    62
1070
     1
1070
    41
1040
1.0
1002
}
  0
LINE
  5
78F
330
1A
100
AcDbEntity
  8
HAUPTEBENE
  6
Continuous
 62
     1
100
AcDbLine
 10
195.6488526749866
 20
201.8545576407507
 30
0.0
 11
201.6488526749866
 21
201.8545576407507
 31
0.0
1001
PHOENIX7010
1002
{
1070
    62
1070
     1
1070
    41
1040
1.0
1002
}
  0
CIRCLE
  5
790
330
1A
100
AcDbEntity
  8
HAUPTEBENE
  6
Continuous
 62
     7
100
AcDbCircle
 10
198.6488526749866
 20
201.8545576407507
 30
0.0
 40
2.0
1001
PHOENIX7010
1002
{
1070
    62
1070
     7
1070
    41
1040
1.0
1002
}
  0
LINE
  5
791
102
{ACAD_REACTORS
330
93D
102
}
330
1A
100
AcDbEntity
  8
HAUPTEBENE
  6
Continuous
 62
     1
100
AcDbLine
 10
398.6488526749866
 20
204.8545576407506
 30
0.0
 11
398.6488526749866
 21
198.8545576407506
 31
0.0
1001
PHOENIX7010
1002
{
1070
    62
1070
     1
1070
    41
1040
1.0
1002
}
  0
LINE
  5
792
330
1A
100
AcDbEntity
  8
HAUPTEBENE
  6
Continuous
 62
     1
100
AcDbLine
 10
395.6488526749866
 20
201.8545576407507
 30
0.0
 11
401.6488526749865
 21
201.8545576407507
 31
0.0
1001
PHOENIX7010
1002
{
1070
    62
1070
     1
1070
    41
1040
1.0
1002
}
  0
CIRCLE
  5
793
330
1A
100
AcDbEntity
  8
HAUPTEBENE
  6
Continuous
 62
     7
100
AcDbCircle
 10
398.6488526749866
 20
201.8545576407507
 30
0.0
 40
2.0
1001
PHOENIX7010
1002
{
1070
    62
1070
     7
1070
    41
1040
1.0
1002
}
  0
LINE
  5
794
330
1A
100
AcDbEntity
  8
HAUPTEBENE
  6
Continuous
 62
     1
100
AcDbLine
 10
398.6488526749866
 20
325.8545576407507
 30
0.0
 11
398.6488526749866
 21
319.8545576407507
 31
0.0
1001
PHOENIX7010
1002
{
1070
    62
1070
     1
1070
    41
1040
1.0
1002
}
  0
LINE
  5
795
330
1A
100
AcDbEntity
  8
HAUPTEBENE
  6
Continuous
 62
     1
100
AcDbLine
 10
395.6488526749866
 20
322.8545576407507
 30
0.0
 11
401.6488526749865
 21
322.8545576407507
 31
0.0
1001
PHOENIX7010
1002
{
1070
    62
1070
     1
1070
    41
1040
1.0
1002
}
  0
CIRCLE
  5
796
330
1A
100
AcDbEntity
  8
HAUPTEBENE
  6
Continuous
 62
     7
100
AcDbCircle
 10
398.6488526749866
 20
322.8545576407507
 30
0.0
 40
2.0
1001
PHOENIX7010
1002
{
1070
    62
1070
     7
1070
    41
1040
1.0
1002
}
  0
DIMENSION
  5
797
102
{ACAD_REACTORS
330
8E7
102
}
330
1A
100
AcDbEntity
  8
HAUPTEBENE
  6
Continuous
 62
     7
100
AcDbDimension
  2
*D2
 10
157.3888429049866
 20
203.8545576407507
 30
0.0
 11
154.3888429049865
 21
213.8570576407507
 31
0.0
 70
    32
 71
     5
 42
4.000015259999997
  3
PHOENIX
100
AcDbAlignedDimension
 13
174.3888429049865
 23
199.8545423807506
 33
0.0
 14
174.3888429049865
 24
203.8545576407507
 34
0.0
 50
90.0
100
AcDbRotatedDimension
1001
ACAD
1000
DSTYLE
1002
{
1070
   147
1040
1.25
1002
}
  0
DIMENSION
  5
7E8
102
{ACAD_REACTORS
330
913
102
}
330
1A
100
AcDbEntity
  8
HAUPTEBENE
  6
Continuous
 62
     7
100
AcDbDimension
  2
*D5
 10
157.3888429049866
 20
327.1045576407507
 30
0.0
 11
154.2138429049866
 21
313.2295576407507
 31
0.0
 70
    32
  1
(27.75)
 71
     5
 42
27.75
  3
PHOENIX
100
AcDbAlignedDimension
 13
164.3888429049866
 23
299.3545576407507
 33
0.0
 14
174.3888429049865
 24
327.1045576407507
 34
0.0
 50
90.0
100
AcDbRotatedDimension
1001
ACAD
1000
DSTYLE
1002
{
1070
   271
1070
     0
1070
   147
1040
1.25
1002
}
  0
DIMENSION
  5
804
102
{ACAD_REACTORS
330
922
102
}
330
1A
100
AcDbEntity
  8
HAUPTEBENE
  6
Continuous
 62
     7
100
AcDbDimension
  2
*D6
 10
149.9916244126339
 20
327.1045576407507
 30
0.0
 11
146.9916244126338
 21
294.7295576407507
 31
0.0
 70
    32
 71
     5
 42
64.75000000000005
  3
PHOENIX
100
AcDbAlignedDimension
 13
164.3888429049866
 23
262.3545576407506
 33
0.0
 14
174.3888429049865
 24
327.1045576407507
 34
0.0
 50
90.0
100
AcDbRotatedDimension
1001
ACAD
1000
DSTYLE
1002
{
1070
   147
1040
1.25
1002
}
  0
DIMENSION
  5
81E
102
{ACAD_REACTORS
330
930
102
}
330
1A
100
AcDbEntity
  8
HAUPTEBENE
  6
Continuous
 62
     7
100
AcDbDimension
  2
*D7
 10
142.3888429049866
 20
327.1045576407507
 30
0.0
 11
139.3884984167975
 21
262.3545576407507
 31
0.0
 70
    32
 71
     5
 42
129.5
  3
PHOENIX
100
AcDbAlignedDimension
 13
174.3888429049865
 23
197.6045576407506
 33
0.0
 14
174.3888429049865
 24
327.1045576407507
 34
0.0
 50
90.0
100
AcDbRotatedDimension
1001
ACAD
1000
DSTYLE
1002
{
1070
   147
1040
1.25
1002
}
  0
DIMENSION
  5
838
330
1A
100
AcDbEntity
  8
HAUPTEBENE
  6
Continuous
 62
     7
100
AcDbDimension
  2
*D8
 10
200.6488526749866
 20
187.6045576407506
 30
0.0
 11
210.6513526749866
 21
187.6045576407506
 31
0.0
 70
   160
 71
     5
 42
4.0
  3
PHOENIX
100
AcDbAlignedDimension
 13
196.6488526749866
 23
201.8545576407507
 33
0.0
 14
200.6488526749866
 24
201.8545576407507
 34
0.0
100
AcDbRotatedDimension
1001
ACAD
1000
DSTYLE
1002
{
1070
   147
1040
1.25
1002
}
  0
DIMENSION
  5
854
102
{ACAD_REACTORS
330
93E
102
}
330
1A
100
AcDbEntity
  8
HAUPTEBENE
  6
Continuous
 62
     7
100
AcDbDimension
  2
*D9
 10
398.6488526749866
 20
180.6045576407506
 30
0.0
 11
298.6488526749866
 21
180.6045576407506
 31
0.0
 70
   160
 71
     5
 42
200.0
  3
PHOENIX
100
AcDbAlignedDimension
 13
198.6488526749866
 23
198.8545576407506
 33
0.0
 14
398.6488526749866
 24
198.8545576407506
 34
0.0
100
AcDbRotatedDimension
1001
ACAD
1000
DSTYLE
1002
{
1070
   147
1040
1.25
1002
}
  0
DIMENSION
  5
86E
102
{ACAD_REACTORS
330
94C
102
}
330
1A
100
AcDbEntity
  8
HAUPTEBENE
  6
Continuous
 62
     7
100
AcDbDimension
  2
*D10
 10
420.5588563349865
 20
173.6045576407506
 30
0.0
 11
298.6488526749866
 21
173.6045576407506
 31
0.0
 70
   160
 71
     5
 42
243.8199768
  3
PHOENIX
100
AcDbAlignedDimension
 13
176.7388795349866
 23
198.8545423807506
 33
0.0
 14
420.5588563349865
 24
198.8545576407506
 34
0.0
100
AcDbRotatedDimension
1001
ACAD
1000
DSTYLE
1002
{
1070
   147
1040
1.25
1002
}
  0
DIMENSION
  5
888
102
{ACAD_REACTORS
330
95A
102
}
330
1A
100
AcDbEntity
  8
HAUPTEBENE
  6
Continuous
 62
     7
100
AcDbDimension
  2
*D11
 10
422.9088624449865
 20
166.6045576407506
 30
0.0
 11
298.6488526749866
 21
166.6045576407506
 31
0.0
 70
   160
 71
     5
 42
248.52001954
  3
PHOENIX
100
AcDbAlignedDimension
 13
174.3888429049865
 23
197.6045576407506
 33
0.0
 14
422.9088624449865
 24
197.6045576407506
 34
0.0
100
AcDbRotatedDimension
1001
ACAD
1000
DSTYLE
1002
{
1070
   147
1040
1.25
1002
}
  0
DIMENSION
  5
8A2
102
{ACAD_REACTORS
330
968
102
}
330
1A
100
AcDbEntity
  8
HAUPTEBENE
  6
Continuous
 62
     7
100
AcDbDimension
  2
*D12
 10
432.9088471849866
 20
159.6045576407506
 30
0.0
 11
298.6488526749866
 21
159.6045576407506
 31
0.0
 70
   160
 71
     5
 42
268.52000428
  3
PHOENIX
100
AcDbAlignedDimension
 13
164.3888429049866
 23
225.3545576407506
 33
0.0
 14
432.9088471849866
 24
225.3545576407506
 34
0.0
100
AcDbRotatedDimension
1001
ACAD
1000
DSTYLE
1002
{
1070
   147
1040
1.25
1002
}
  0
LINE
  5
8BC
330
1A
100
AcDbEntity
  8
HAUPTEBENE
  6
Continuous
 62
     1
100
AcDbLine
 10
476.9088471849865
 20
322.8545576407507
 30
0.0
 11
470.9088471849866
 21
322.8545576407507
 31
0.0
1001
PHOENIX7010
1002
{
1070
    62
1070
     1
1070
    41
1040
1.0
1002
}
  0
LINE
  5
8BD
330
1A
100
AcDbEntity
  8
HAUPTEBENE
  6
Continuous
 62
     1
100
AcDbLine
 10
470.9088471849866
 20
201.8545576407507
 30
0.0
 11
476.9088471849865
 21
201.8545576407507
 31
0.0
1001
PHOENIX7010
1002
{
1070
    62
1070
     1
1070
    41
1040
1.0
1002
}
  0
LINE
  5
8BE
330
1A
100
AcDbEntity
  8
HAUPTEBENE
  6
Continuous
 62
     7
100
AcDbLine
 10
474.9088471849866
 20
199.8545576407506
 30
0.0
 11
472.9088471849865
 21
199.8545576407506
 31
0.0
1001
PHOENIX7010
1002
{
1070
    62
1070
     7
1070
    41
1040
1.0
1002
}
  0
LINE
  5
8BF
330
1A
100
AcDbEntity
  8
HAUPTEBENE
  6
Continuous
 62
     7
100
AcDbLine
 10
472.9088471849865
 20
203.8545576407507
 30
0.0
 11
474.9088471849866
 21
203.8545576407507
 31
0.0
1001
PHOENIX7010
1002
{
1070
    62
1070
     7
1070
    41
1040
1.0
1002
}
  0
LINE
  5
8C0
330
1A
100
AcDbEntity
  8
HAUPTEBENE
  6
Continuous
 62
     7
100
AcDbLine
 10
474.9088471849866
 20
225.3545576407506
 30
0.0
 11
472.9088471849865
 21
225.3545576407506
 31
0.0
1001
PHOENIX7010
1002
{
1070
    62
1070
     7
1070
    41
1040
1.0
1002
}
  0
LINE
  5
8C1
330
1A
100
AcDbEntity
  8
HAUPTEBENE
  6
Continuous
 62
     7
100
AcDbLine
 10
472.9088471849865
 20
299.3545576407507
 30
0.0
 11
474.9088471849866
 21
299.3545576407507
 31
0.0
1001
PHOENIX7010
1002
{
1070
    62
1070
     7
1070
    41
1040
1.0
1002
}
  0
LINE
  5
8C2
330
1A
100
AcDbEntity
  8
HAUPTEBENE
  6
Continuous
 62
     7
100
AcDbLine
 10
474.9088471849866
 20
320.8545576407507
 30
0.0
 11
472.9088471849865
 21
320.8545576407507
 31
0.0
1001
PHOENIX7010
1002
{
1070
    62
1070
     7
1070
    41
1040
1.0
1002
}
  0
LINE
  5
8C3
330
1A
100
AcDbEntity
  8
HAUPTEBENE
  6
Continuous
 62
     7
100
AcDbLine
 10
472.9088471849865
 20
324.8545576407507
 30
0.0
 11
474.9088471849866
 21
324.8545576407507
 31
0.0
1001
PHOENIX7010
1002
{
1070
    62
1070
     7
1070
    41
1040
1.0
1002
}
  0
LINE
  5
8C4
330
1A
100
AcDbEntity
  8
HAUPTEBENE
  6
Continuous
 62
     1
100
AcDbLine
 10
470.9088471849866
 20
262.3545576407506
 30
0.0
 11
476.9088471849865
 21
262.3545576407506
 31
0.0
1001
PHOENIX7010
1002
{
1070
    62
1070
     1
1070
    41
1040
1.0
1002
}
  0
LINE
  5
8C5
330
1A
100
AcDbEntity
  8
HAUPTEBENE
  6
Continuous
 62
     7
100
AcDbLine
 10
474.9088471849866
 20
327.1045576407507
 30
0.0
 11
472.9088471849865
 21
327.1045576407507
 31
0.0
1001
PHOENIX7010
1002
{
1070
    62
1070
     7
1070
    41
1040
1.0
1002
}
  0
LINE
  5
8C6
102
{ACAD_REACTORS
330
975
102
}
330
1A
100
AcDbEntity
  8
HAUPTEBENE
  6
Continuous
 62
     7
100
AcDbLine
 10
474.9088471849866
 20
197.6045576407506
 30
0.0
 11
474.9088471849866
 21
327.1045576407507
 31
0.0
1001
PHOENIX7010
1002
{
1070
    62
1070
     7
1070
    41
1040
1.0
1002
}
  0
LINE
  5
8C7
102
{ACAD_REACTORS
330
974
102
}
330
1A
100
AcDbEntity
  8
HAUPTEBENE
  6
Continuous
 62
     7
100
AcDbLine
 10
472.9088471849865
 20
197.6045576407506
 30
0.0
 11
474.9088471849866
 21
197.6045576407506
 31
0.0
1001
PHOENIX7010
1002
{
1070
    62
1070
     7
1070
    41
1040
1.0
1002
}
  0
LINE
  5
8C8
330
1A
100
AcDbEntity
  8
HAUPTEBENE
  6
Continuous
 62
     7
100
AcDbLine
 10
472.9088471849865
 20
327.1045576407507
 30
0.0
 11
472.9088471849865
 21
197.6045576407506
 31
0.0
1001
PHOENIX7010
1002
{
1070
    62
1070
     7
1070
    41
1040
1.0
1002
}
  0
DIMENSION
  5
8C9
102
{ACAD_REACTORS
330
976
102
}
330
1A
100
AcDbEntity
  8
HAUPTEBENE
  6
Continuous
 62
     7
100
AcDbDimension
  2
*D13
 10
474.9088471849866
 20
187.6045576407506
 30
0.0
 11
462.9445337007346
 21
187.6045576407506
 31
0.0
 70
   160
 71
     5
 42
2.0
  3
PHOENIX
100
AcDbAlignedDimension
 13
472.9088471849865
 23
197.6045576407506
 33
0.0
 14
474.9088471849866
 24
197.6045576407506
 34
0.0
100
AcDbRotatedDimension
1001
ACAD
1000
DSTYLE
1002
{
1070
   147
1040
1.25
1002
}
  0
LINE
  5
D8E
102
{ACAD_REACTORS
330
E1F
102
}
330
1A
100
AcDbEntity
  8
0
  6
Continuous
 62
     5
370
    25
100
AcDbLine
 10
570.5999999999992
 20
39.87401644621264
 30
0.0
 11
570.5999999999992
 21
37.07401644621257
 31
0.0
1001
PHOENIX7010
1002
{
1070
    62
1070
     5
1070
    41
1040
1.0
1002
}
  0
LINE
  5
D8F
102
{ACAD_REACTORS
330
E1F
102
}
330
1A
100
AcDbEntity
  8
0
  6
Continuous
 62
     5
370
    25
100
AcDbLine
 10
572.0695999999994
 20
39.87401644621264
 30
0.0
 11
570.5999999999992
 21
39.87401644621264
 31
0.0
1001
PHOENIX7010
1002
{
1070
    62
1070
     5
1070
    41
1040
1.0
1002
}
  0
ARC
  5
D90
102
{ACAD_REACTORS
330
E1F
102
}
330
1A
100
AcDbEntity
  8
0
  6
Continuous
 62
     5
370
    25
100
AcDbCircle
 10
572.0699999999992
 20
39.17401644621259
 30
0.0
 40
0.7022364274231689
100
AcDbArc
 50
293.498565675962
 51
90.03274044187762
1001
PHOENIX7010
1002
{
1070
    62
1070
     5
1070
    41
1040
1.0
1002
}
  0
LINE
  5
D91
102
{ACAD_REACTORS
330
E1F
102
}
330
1A
100
AcDbEntity
  8
0
  6
Continuous
 62
     5
370
    25
100
AcDbLine
 10
571.9999999999993
 20
37.07401644621257
 30
0.0
 11
570.5999999999992
 21
37.07401644621257
 31
0.0
1001
PHOENIX7010
1002
{
1070
    62
1070
     5
1070
    41
1040
1.0
1002
}
  0
ARC
  5
D92
102
{ACAD_REACTORS
330
E1F
102
}
330
1A
100
AcDbEntity
  8
0
  6
Continuous
 62
     5
370
    25
100
AcDbCircle
 10
572.0920632911245
 20
37.8219531550767
 30
0.0
 40
0.7535814289374009
100
AcDbArc
 50
262.9827781719434
 51
69.9840856104721
1001
PHOENIX7010
1002
{
1070
    62
1070
     5
1070
    41
1040
1.0
1002
}
  0
TEXT
  5
D93
102
{ACAD_REACTORS
330
E20
102
}
330
1A
100
AcDbEntity
  8
0
  6
Continuous
 62
     1
370
    25
100
AcDbText
 10
560.1794089897821
 20
33.73411284513611
 30
0.0
 40
1.399999999999999
  1
A Phoenix Mecano Company
 41
1.199999999999999
100
AcDbText
1001
PHOENIX7010
1002
{
1070
    62
1070
     5
1070
    41
1040
1.0
1002
}
  0
INSERT
  5
D94
102
{ACAD_REACTORS
330
E20
102
}
330
1A
100
AcDbEntity
  8
0
  6
Continuous
 62
     1
370
    25
100
AcDbBlockReference
  2
*X19
 10
288.1053067642756
 20
-73.83247814040259
 30
0.0
1001
PHOENIX7010
1002
{
1070
    41
1040
1.0
1002
}
1001
ACAD
1000
HATCH
1002
{
1070
    19
1000
_U
1040
0.25
1040
0.8726646259971648
1070
     0
1000
ASC_BOUNDS
1070
     1
1070
     2
1070
     6
1005
0
1005
0
1005
0
1005
0
1005
0
1005
0
1000
ASC_SEEDPOINT
1011
-7248.0
1021
-7001.0
1031
0.0
1002
}
  0
INSERT
  5
D95
102
{ACAD_REACTORS
330
E20
102
}
330
1A
100
AcDbEntity
  8
0
  6
Continuous
 62
     1
370
    25
100
AcDbBlockReference
  2
*X16
 10
288.1053067642756
 20
-73.83247814040259
 30
0.0
1001
PHOENIX7010
1002
{
1070
    41
1040
1.0
1002
}
1001
ACAD
1000
HATCH
1002
{
1070
    19
1000
_U
1040
0.25
1040
0.7853981633974483
1070
     0
1000
ASC_BOUNDS
1070
     1
1070
     2
1070
    10
1005
0
1005
0
1005
0
1005
0
1005
0
1005
0
1005
0
1005
0
1005
0
1005
0
1000
ASC_SEEDPOINT
1011
-7248.0
1021
-7001.0
1031
0.0
1002
}
  0
LINE
  5
D96
102
{ACAD_REACTORS
330
E20
102
}
330
1A
100
AcDbEntity
  8
0
  6
Continuous
 62
     1
370
    25
100
AcDbLine
 10
582.5703999999992
 20
47.87401644621263
 30
0.0
 11
579.9515656638091
 21
44.75310557335103
 31
0.0
1001
PHOENIX7010
1002
{
1070
    62
1070
     1
1070
    41
1040
1.0
1002
}
  0
LINE
  5
D97
102
{ACAD_REACTORS
330
E20
102
}
330
1A
100
AcDbEntity
  8
0
  6
Continuous
 62
     1
370
    25
100
AcDbLine
 10
577.1999999999994
 20
41.47401644621254
 30
0.0
 11
586.9999999999993
 21
41.47401644621254
 31
0.0
1001
PHOENIX7010
1002
{
1070
    62
1070
     1
1070
    41
1040
1.0
1002
}
  0
ARC
  5
D98
102
{ACAD_REACTORS
330
E20
102
}
330
1A
100
AcDbEntity
  8
0
  6
Continuous
 62
     5
370
    25
100
AcDbCircle
 10
579.6699999999991
 20
38.96401644621255
 30
0.0
 40
0.910000000000025
100
AcDbArc
 50
270.0
 51
90.0
1001
PHOENIX7010
1002
{
1070
    62
1070
     5
1070
    41
1040
1.0
1002
}
  0
INSERT
  5
D99
102
{ACAD_REACTORS
330
E20
102
}
330
1A
100
AcDbEntity
  8
0
  6
Continuous
 62
     1
370
    25
100
AcDbBlockReference
  2
*X15
 10
288.1053067642756
 20
-73.83247814040259
 30
0.0
1001
PHOENIX7010
1002
{
1070
    41
1040
1.0
1002
}
1001
ACAD
1000
HATCH
1002
{
1070
    19
1000
_U
1040
0.25
1040
0.7853981633974483
1070
     0
1000
ASC_BOUNDS
1070
     1
1070
     2
1070
     8
1005
0
1005
0
1005
0
1005
0
1005
0
1005
0
1005
0
1005
0
1000
ASC_SEEDPOINT
1011
-7248.0
1021
-7001.0
1031
0.0
1002
}
  0
INSERT
  5
D9A
102
{ACAD_REACTORS
330
E20
102
}
330
1A
100
AcDbEntity
  8
0
  6
Continuous
 62
     1
370
    25
100
AcDbBlockReference
  2
*X14
 10
288.1053067642756
 20
-73.83247814040259
 30
0.0
1001
PHOENIX7010
1002
{
1070
    41
1040
1.0
1002
}
1001
ACAD
1000
HATCH
1002
{
1070
    19
1000
_U
1040
0.25
1040
0.7853981633974483
1070
     0
1000
ASC_BOUNDS
1070
     1
1070
     2
1070
    14
1005
0
1005
0
1005
0
1005
0
1005
0
1005
0
1005
0
1005
0
1005
0
1005
0
1005
0
1005
0
1005
0
1005
0
1000
ASC_SEEDPOINT
1011
-7248.0
1021
-7001.0
1031
0.0
1002
}
  0
LINE
  5
D9B
102
{ACAD_REACTORS
330
E20
102
}
330
1A
100
AcDbEntity
  8
0
  6
Continuous
 62
     5
370
    25
100
AcDbLine
 10
578.4799999999992
 20
39.87401644621264
 30
0.0
 11
578.4799999999992
 21
37.07401644621257
 31
0.0
1001
PHOENIX7010
1002
{
1070
    62
1070
     5
1070
    41
1040
1.0
1002
}
  0
ARC
  5
D9C
102
{ACAD_REACTORS
330
E20
102
}
330
1A
100
AcDbEntity
  8
0
  6
Continuous
 62
     5
370
    25
100
AcDbCircle
 10
575.6239999999993
 20
38.59401644621255
 30
0.0
 40
1.34399999999988
100
AcDbArc
 50
0.0
 51
180.0
1001
PHOENIX7010
1002
{
1070
    62
1070
     5
1070
    41
1040
1.0
1002
}
  0
LINE
  5
D9D
102
{ACAD_REACTORS
330
E20
102
}
330
1A
100
AcDbEntity
  8
0
  6
Continuous
 62
     5
370
    25
100
AcDbLine
 10
570.5999999999992
 20
39.87401644621264
 30
0.0
 11
570.5999999999992
 21
37.07401644621257
 31
0.0
1001
PHOENIX7010
1002
{
1070
    62
1070
     5
1070
    41
1040
1.0
1002
}
  0
ARC
  5
D9E
102
{ACAD_REACTORS
330
E20
102
}
330
1A
100
AcDbEntity
  8
0
  6
Continuous
 62
     5
370
    25
100
AcDbCircle
 10
572.0699999999992
 20
39.17401644621259
 30
0.0
 40
0.7022364274231689
100
AcDbArc
 50
293.498565675962
 51
90.03274044187762
1001
PHOENIX7010
1002
{
1070
    62
1070
     5
1070
    41
1040
1.0
1002
}
  0
LINE
  5
D9F
102
{ACAD_REACTORS
330
E20
102
}
330
1A
100
AcDbEntity
  8
0
  6
Continuous
 62
     5
370
    25
100
AcDbLine
 10
571.9999999999993
 20
37.07401644621257
 30
0.0
 11
570.5999999999992
 21
37.07401644621257
 31
0.0
1001
PHOENIX7010
1002
{
1070
    62
1070
     5
1070
    41
1040
1.0
1002
}
  0
ARC
  5
DA0
102
{ACAD_REACTORS
330
E20
102
}
330
1A
100
AcDbEntity
  8
0
  6
Continuous
 62
     5
370
    25
100
AcDbCircle
 10
571.8599999999993
 20
37.9140164462126
 30
0.0
 40
0.4200000000000728
100
AcDbArc
 50
270.0
 51
90.0
1001
PHOENIX7010
1002
{
1070
    62
1070
     5
1070
    41
1040
1.0
1002
}
  0
ARC
  5
DA1
102
{ACAD_REACTORS
330
E20
102
}
330
1A
100
AcDbEntity
  8
0
  6
Continuous
 62
     5
370
    25
100
AcDbCircle
 10
571.8599999999993
 20
39.10401644621254
 30
0.0
 40
0.3500000000000227
100
AcDbArc
 50
270.0
 51
90.0
1001
PHOENIX7010
1002
{
1070
    62
1070
     5
1070
    41
1040
1.0
1002
}
  0
LINE
  5
DA2
102
{ACAD_REACTORS
330
E20
102
}
330
1A
100
AcDbEntity
  8
0
  6
Continuous
 62
     5
370
    25
100
AcDbLine
 10
571.8599999999993
 20
38.33401644621256
 30
0.0
 11
571.1599999999994
 21
38.33401644621256
 31
0.0
1001
PHOENIX7010
1002
{
1070
    62
1070
     5
1070
    41
1040
1.0
1002
}
  0
LINE
  5
DA3
102
{ACAD_REACTORS
330
E20
102
}
330
1A
100
AcDbEntity
  8
0
  6
Continuous
 62
     5
370
    25
100
AcDbLine
 10
571.1599999999994
 20
38.33401644621256
 30
0.0
 11
571.1599999999994
 21
37.49401644621253
 31
0.0
1001
PHOENIX7010
1002
{
1070
    62
1070
     5
1070
    41
1040
1.0
1002
}
  0
LINE
  5
DA4
102
{ACAD_REACTORS
330
E20
102
}
330
1A
100
AcDbEntity
  8
0
  6
Continuous
 62
     5
370
    25
100
AcDbLine
 10
571.1599999999994
 20
37.49401644621253
 30
0.0
 11
571.8599999999993
 21
37.49401644621253
 31
0.0
1001
PHOENIX7010
1002
{
1070
    62
1070
     5
1070
    41
1040
1.0
1002
}
  0
LINE
  5
DA5
102
{ACAD_REACTORS
330
E20
102
}
330
1A
100
AcDbEntity
  8
0
  6
Continuous
 62
     5
370
    25
100
AcDbLine
 10
571.8599999999993
 20
39.45401644621256
 30
0.0
 11
571.1599999999994
 21
39.45401644621256
 31
0.0
1001
PHOENIX7010
1002
{
1070
    62
1070
     5
1070
    41
1040
1.0
1002
}
  0
LINE
  5
DA6
102
{ACAD_REACTORS
330
E20
102
}
330
1A
100
AcDbEntity
  8
0
  6
Continuous
 62
     5
370
    25
100
AcDbLine
 10
571.1599999999994
 20
39.45401644621256
 30
0.0
 11
571.1599999999994
 21
38.75401644621252
 31
0.0
1001
PHOENIX7010
1002
{
1070
    62
1070
     5
1070
    41
1040
1.0
1002
}
  0
LINE
  5
DA7
102
{ACAD_REACTORS
330
E20
102
}
330
1A
100
AcDbEntity
  8
0
  6
Continuous
 62
     5
370
    25
100
AcDbLine
 10
571.1599999999994
 20
38.75401644621252
 30
0.0
 11
571.8599999999993
 21
38.75401644621252
 31
0.0
1001
PHOENIX7010
1002
{
1070
    62
1070
     5
1070
    41
1040
1.0
1002
}
  0
ARC
  5
DA8
102
{ACAD_REACTORS
330
E20
102
}
330
1A
100
AcDbEntity
  8
0
  6
Continuous
 62
     5
370
    25
100
AcDbCircle
 10
575.6239999999993
 20
38.34801644621257
 30
0.0
 40
0.7839999999999919
100
AcDbArc
 50
180.0
 51
0.0
1001
PHOENIX7010
1002
{
1070
    62
1070
     5
1070
    41
1040
1.0
1002
}
  0
ARC
  5
DA9
102
{ACAD_REACTORS
330
E20
102
}
330
1A
100
AcDbEntity
  8
0
  6
Continuous
 62
     5
370
    25
100
AcDbCircle
 10
575.6239999999993
 20
38.59401644621255
 30
0.0
 40
0.7839999999998213
100
AcDbArc
 50
0.0
 51
180.0
1001
PHOENIX7010
1002
{
1070
    62
1070
     5
1070
    41
1040
1.0
1002
}
  0
ARC
  5
DAA
102
{ACAD_REACTORS
330
E20
102
}
330
1A
100
AcDbEntity
  8
0
  6
Continuous
 62
     5
370
    25
100
AcDbCircle
 10
575.6239999999993
 20
38.34801644621257
 30
0.0
 40
1.34400000000005
100
AcDbArc
 50
180.0
 51
0.0
1001
PHOENIX7010
1002
{
1070
    62
1070
     5
1070
    41
1040
1.0
1002
}
  0
ARC
  5
DAB
102
{ACAD_REACTORS
330
E20
102
}
330
1A
100
AcDbEntity
  8
0
  6
Continuous
 62
     5
370
    25
100
AcDbCircle
 10
575.6239999999993
 20
38.34801644621257
 30
0.0
 40
0.7840000000000446
100
AcDbArc
 50
174.7490656834366
 51
5.250934316563351
1001
PHOENIX7010
1002
{
1070
    62
1070
     5
1070
    41
1040
1.0
1002
}
  0
ARC
  5
DAC
102
{ACAD_REACTORS
330
E20
102
}
330
1A
100
AcDbEntity
  8
0
  6
Continuous
 62
     5
370
    25
100
AcDbCircle
 10
575.6239999999993
 20
38.59401644621255
 30
0.0
 40
0.783999999999813
100
AcDbArc
 50
354.7490656834496
 51
185.2509343165504
1001
PHOENIX7010
1002
{
1070
    62
1070
     5
1070
    41
1040
1.0
1002
}
  0
ARC
  5
DAD
102
{ACAD_REACTORS
330
E20
102
}
330
1A
100
AcDbEntity
  8
0
  6
Continuous
 62
     5
370
    25
100
AcDbCircle
 10
575.6239999999993
 20
38.34801644621257
 30
0.0
 40
0.7840000000000446
100
AcDbArc
 50
174.7490656834366
 51
5.250934316563351
1001
PHOENIX7010
1002
{
1070
    62
1070
     5
1070
    41
1040
1.0
1002
}
  0
ARC
  5
DAE
102
{ACAD_REACTORS
330
E20
102
}
330
1A
100
AcDbEntity
  8
0
  6
Continuous
 62
     5
370
    25
100
AcDbCircle
 10
575.6239999999993
 20
38.59401644621255
 30
0.0
 40
0.783999999999813
100
AcDbArc
 50
354.7490656834496
 51
185.2509343165504
1001
PHOENIX7010
1002
{
1070
    62
1070
     5
1070
    41
1040
1.0
1002
}
  0
LINE
  5
DAF
102
{ACAD_REACTORS
330
E20
102
}
330
1A
100
AcDbEntity
  8
0
  6
Continuous
 62
     5
370
    25
100
AcDbLine
 10
574.8399999999992
 20
38.34801644621257
 30
0.0
 11
574.8399999999992
 21
38.59401644621255
 31
0.0
1001
PHOENIX7010
1002
{
1070
    62
1070
     5
1070
    41
1040
1.0
1002
}
  0
LINE
  5
DB0
102
{ACAD_REACTORS
330
E20
102
}
330
1A
100
AcDbEntity
  8
0
  6
Continuous
 62
     5
370
    25
100
AcDbLine
 10
574.2799999999992
 20
38.34801644621257
 30
0.0
 11
574.2799999999992
 21
38.59401644621255
 31
0.0
1001
PHOENIX7010
1002
{
1070
    62
1070
     5
1070
    41
1040
1.0
1002
}
  0
ARC
  5
DB1
102
{ACAD_REACTORS
330
E20
102
}
330
1A
100
AcDbEntity
  8
0
  6
Continuous
 62
     5
370
    25
100
AcDbCircle
 10
572.0920632911245
 20
37.8219531550767
 30
0.0
 40
0.7535814289373106
100
AcDbArc
 50
262.9827781720089
 51
69.98408561048657
1001
PHOENIX7010
1002
{
1070
    62
1070
     5
1070
    41
1040
1.0
1002
}
  0
ARC
  5
DB2
102
{ACAD_REACTORS
330
E20
102
}
330
1A
100
AcDbEntity
  8
0
  6
Continuous
 62
     5
370
    25
100
AcDbCircle
 10
579.5299999999993
 20
38.96401644621255
 30
0.0
 40
0.4900000000000091
100
AcDbArc
 50
270.0
 51
90.0
1001
PHOENIX7010
1002
{
1070
    62
1070
     5
1070
    41
1040
1.0
1002
}
  0
LINE
  5
DB3
102
{ACAD_REACTORS
330
E20
102
}
330
1A
100
AcDbEntity
  8
0
  6
Continuous
 62
     5
370
    25
100
AcDbLine
 10
579.5299999999993
 20
38.47401644621255
 30
0.0
 11
579.0399999999992
 21
38.47401644621255
 31
0.0
1001
PHOENIX7010
1002
{
1070
    62
1070
     5
1070
    41
1040
1.0
1002
}
  0
LINE
  5
DB4
102
{ACAD_REACTORS
330
E20
102
}
330
1A
100
AcDbEntity
  8
0
  6
Continuous
 62
     5
370
    25
100
AcDbLine
 10
579.0399999999992
 20
38.47401644621255
 30
0.0
 11
579.0399999999992
 21
39.45401644621256
 31
0.0
1001
PHOENIX7010
1002
{
1070
    62
1070
     5
1070
    41
1040
1.0
1002
}
  0
LINE
  5
DB5
102
{ACAD_REACTORS
330
E20
102
}
330
1A
100
AcDbEntity
  8
0
  6
Continuous
 62
     5
370
    25
100
AcDbLine
 10
579.0399999999992
 20
39.45401644621256
 30
0.0
 11
579.5299999999993
 21
39.45401644621256
 31
0.0
1001
PHOENIX7010
1002
{
1070
    62
1070
     5
1070
    41
1040
1.0
1002
}
  0
LINE
  5
DB6
102
{ACAD_REACTORS
330
E20
102
}
330
1A
100
AcDbEntity
  8
0
  6
Continuous
 62
     5
370
    25
100
AcDbLine
 10
578.4799999999992
 20
37.07401644621257
 30
0.0
 11
579.0399999999992
 21
37.07401644621257
 31
0.0
1001
PHOENIX7010
1002
{
1070
    62
1070
     5
1070
    41
1040
1.0
1002
}
  0
LINE
  5
DB7
102
{ACAD_REACTORS
330
E20
102
}
330
1A
100
AcDbEntity
  8
0
  6
Continuous
 62
     5
370
    25
100
AcDbLine
 10
579.0399999999992
 20
37.07401644621257
 30
0.0
 11
579.0399999999992
 21
38.05401644621259
 31
0.0
1001
PHOENIX7010
1002
{
1070
    62
1070
     5
1070
    41
1040
1.0
1002
}
  0
LINE
  5
DB8
102
{ACAD_REACTORS
330
E20
102
}
330
1A
100
AcDbEntity
  8
0
  6
Continuous
 62
     5
370
    25
100
AcDbLine
 10
579.0399999999992
 20
38.05401644621259
 30
0.0
 11
579.6699999999991
 21
38.05401644621259
 31
0.0
1001
PHOENIX7010
1002
{
1070
    62
1070
     5
1070
    41
1040
1.0
1002
}
  0
LINE
  5
DB9
102
{ACAD_REACTORS
330
E20
102
}
330
1A
100
AcDbEntity
  8
0
  6
Continuous
 62
     5
370
    25
100
AcDbLine
 10
576.407999999999
 20
38.34801644621257
 30
0.0
 11
576.407999999999
 21
38.59401644621255
 31
0.0
1001
PHOENIX7010
1002
{
1070
    62
1070
     5
1070
    41
1040
1.0
1002
}
  0
LINE
  5
DBA
102
{ACAD_REACTORS
330
E20
102
}
330
1A
100
AcDbEntity
  8
0
  6
Continuous
 62
     5
370
    25
100
AcDbLine
 10
576.9679999999992
 20
38.34801644621257
 30
0.0
 11
576.9679999999992
 21
38.59401644621255
 31
0.0
1001
PHOENIX7010
1002
{
1070
    62
1070
     5
1070
    41
1040
1.0
1002
}
  0
LINE
  5
DBB
102
{ACAD_REACTORS
330
E20
102
}
330
1A
100
AcDbEntity
  8
0
  6
Continuous
 62
     5
370
    25
100
AcDbLine
 10
572.0695999999994
 20
39.87401644621264
 30
0.0
 11
570.5999999999992
 21
39.87401644621264
 31
0.0
1001
PHOENIX7010
1002
{
1070
    62
1070
     5
1070
    41
1040
1.0
1002
}
  0
INSERT
  5
DBC
102
{ACAD_REACTORS
330
E20
102
}
330
1A
100
AcDbEntity
  8
0
  6
Continuous
 62
     5
370
    25
100
AcDbBlockReference
  2
*X20
 10
288.1053067642756
 20
-73.83247814040259
 30
0.0
1001
PHOENIX7010
1002
{
1070
    41
1040
1.0
1002
}
1001
ACAD
1000
HATCH
1002
{
1070
    19
1000
_U
1040
0.6
1040
0.7853981633974483
1070
     0
1002
}
  0
LINE
  5
DBD
102
{ACAD_REACTORS
330
E20
102
}
330
1A
100
AcDbEntity
  8
0
  6
Continuous
 62
     5
370
    25
100
AcDbLine
 10
572.0695999999994
 20
39.87401644621264
 30
0.0
 11
572.0695987221063
 21
39.87625275898495
 31
0.0
1001
PHOENIX7010
1002
{
1070
    62
1070
     5
1070
    41
1040
1.0
1002
}
  0
LINE
  5
DBE
102
{ACAD_REACTORS
330
E20
102
}
330
1A
100
AcDbEntity
  8
0
  6
Continuous
 62
     1
370
    25
100
AcDbLine
 10
579.9118627916113
 20
44.70579096325366
 30
0.0
 11
577.2975130330435
 21
41.59022444030677
 31
0.0
1001
PHOENIX7010
1002
{
1070
    62
1070
     1
1070
    41
1040
1.0
1002
}
  0
LINE
  5
DBF
102
{ACAD_REACTORS
330
E20
102
}
330
1A
100
AcDbEntity
  8
0
  6
Continuous
 62
     1
370
    25
100
AcDbLine
 10
577.2975130330435
 20
41.59022444030677
 30
0.0
 11
577.1999999999994
 21
41.47401644621254
 31
0.0
1001
PHOENIX7010
1002
{
1070
    62
1070
     1
1070
    41
1040
1.0
1002
}
  0
LINE
  5
DC0
102
{ACAD_REACTORS
330
E20
102
}
330
1A
100
AcDbEntity
  8
0
  6
Continuous
 62
     5
370
    25
100
AcDbLine
 10
579.6699999999991
 20
39.87401644621264
 30
0.0
 11
578.4799999999992
 21
39.87401644621264
 31
0.0
1001
PHOENIX7010
1002
{
1070
    62
1070
     5
1070
    41
1040
1.0
1002
}
  0
INSERT
  5
DC1
102
{ACAD_REACTORS
330
E20
102
}
330
1A
100
AcDbEntity
  8
0
  6
Continuous
 62
     1
370
    25
100
AcDbBlockReference
  2
*X18
 10
288.1053067642756
 20
-73.83247814040259
 30
0.0
1001
PHOENIX7010
1002
{
1070
    41
1040
1.0
1002
}
1001
ACAD
1000
HATCH
1002
{
1070
    19
1000
_U
1040
0.25
1040
0.7853981633974483
1070
     0
1000
ASC_BOUNDS
1070
     1
1070
     2
1070
    14
1005
0
1005
0
1005
0
1005
0
1005
0
1005
0
1005
0
1005
0
1005
0
1005
0
1005
0
1005
0
1005
0
1005
0
1000
ASC_SEEDPOINT
1011
-7248.0
1021
-7001.0
1031
0.0
1002
}
  0
INSERT
  5
DC2
102
{ACAD_REACTORS
330
E20
102
}
330
1A
100
AcDbEntity
  8
0
  6
Continuous
 62
     1
370
    25
100
AcDbBlockReference
  2
*X17
 10
288.1053067642756
 20
-73.83247814040259
 30
0.0
1001
PHOENIX7010
1002
{
1070
    41
1040
1.0
1002
}
1001
ACAD
1000
HATCH
1002
{
1070
    19
1000
_U
1040
0.25
1040
0.7853981633974483
1070
     0
1000
ASC_BOUNDS
1070
     1
1070
     2
1070
     6
1005
0
1005
0
1005
0
1005
0
1005
0
1005
0
1000
ASC_SEEDPOINT
1011
-7248.0
1021
-7001.0
1031
0.0
1002
}
  0
LINE
  5
DC3
102
{ACAD_REACTORS
330
E20
102
}
330
1A
100
AcDbEntity
  8
0
  6
Continuous
 62
     5
370
    25
100
AcDbLine
 10
586.9999999999993
 20
37.07401644621257
 30
0.0
 11
586.0199999999991
 21
39.87401644621264
 31
0.0
1001
PHOENIX7010
1002
{
1070
    62
1070
     5
1070
    41
1040
1.0
1002
}
  0
LINE
  5
DC4
102
{ACAD_REACTORS
330
E20
102
}
330
1A
100
AcDbEntity
  8
0
  6
Continuous
 62
     5
370
    25
100
AcDbLine
 10
584.4799999999992
 20
37.07401644621257
 30
0.0
 11
585.4599999999991
 21
39.87401644621264
 31
0.0
1001
PHOENIX7010
1002
{
1070
    62
1070
     5
1070
    41
1040
1.0
1002
}
  0
LINE
  5
DC5
102
{ACAD_REACTORS
330
E20
102
}
330
1A
100
AcDbEntity
  8
0
  6
Continuous
 62
     5
370
    25
100
AcDbLine
 10
582.4399999999992
 20
37.49401644621253
 30
0.0
 11
582.4399999999992
 21
39.87401644621264
 31
0.0
1001
PHOENIX7010
1002
{
1070
    62
1070
     5
1070
    41
1040
1.0
1002
}
  0
LINE
  5
DC6
102
{ACAD_REACTORS
330
E20
102
}
330
1A
100
AcDbEntity
  8
0
  6
Continuous
 62
     5
370
    25
100
AcDbLine
 10
581.8799999999992
 20
39.87401644621264
 30
0.0
 11
581.8799999999992
 21
37.07401644621257
 31
0.0
1001
PHOENIX7010
1002
{
1070
    62
1070
     5
1070
    41
1040
1.0
1002
}
  0
LINE
  5
DC7
102
{ACAD_REACTORS
330
E20
102
}
330
1A
100
AcDbEntity
  8
0
  6
Continuous
 62
     5
370
    25
100
AcDbLine
 10
583.4799999999992
 20
37.07401644621257
 30
0.0
 11
583.4799999999992
 21
37.49401644621253
 31
0.0
1001
PHOENIX7010
1002
{
1070
    62
1070
     5
1070
    41
1040
1.0
1002
}
  0
LINE
  5
DC8
102
{ACAD_REACTORS
330
E20
102
}
330
1A
100
AcDbEntity
  8
0
  6
Continuous
 62
     5
370
    25
100
AcDbLine
 10
583.4799999999992
 20
37.49401644621253
 30
0.0
 11
582.4399999999992
 21
37.49401644621253
 31
0.0
1001
PHOENIX7010
1002
{
1070
    62
1070
     5
1070
    41
1040
1.0
1002
}
  0
LINE
  5
DC9
102
{ACAD_REACTORS
330
E20
102
}
330
1A
100
AcDbEntity
  8
0
  6
Continuous
 62
     5
370
    25
100
AcDbLine
 10
581.8799999999992
 20
37.07401644621257
 30
0.0
 11
583.4799999999992
 21
37.07401644621257
 31
0.0
1001
PHOENIX7010
1002
{
1070
    62
1070
     5
1070
    41
1040
1.0
1002
}
  0
LINE
  5
DCA
102
{ACAD_REACTORS
330
E20
102
}
330
1A
100
AcDbEntity
  8
0
  6
Continuous
 62
     5
370
    25
100
AcDbLine
 10
586.9999999999993
 20
37.07401644621257
 30
0.0
 11
586.4399999999992
 21
37.07401644621257
 31
0.0
1001
PHOENIX7010
1002
{
1070
    62
1070
     5
1070
    41
1040
1.0
1002
}
  0
LINE
  5
DCB
102
{ACAD_REACTORS
330
E20
102
}
330
1A
100
AcDbEntity
  8
0
  6
Continuous
 62
     5
370
    25
100
AcDbLine
 10
586.4399999999992
 20
37.07401644621257
 30
0.0
 11
586.2719999999992
 21
37.63401644621263
 31
0.0
1001
PHOENIX7010
1002
{
1070
    62
1070
     5
1070
    41
1040
1.0
1002
}
  0
LINE
  5
DCC
102
{ACAD_REACTORS
330
E20
102
}
330
1A
100
AcDbEntity
  8
0
  6
Continuous
 62
     5
370
    25
100
AcDbLine
 10
585.7399999999993
 20
37.63401644621263
 30
0.0
 11
586.2719999999992
 21
37.63401644621263
 31
0.0
1001
PHOENIX7010
1002
{
1070
    62
1070
     5
1070
    41
1040
1.0
1002
}
  0
LINE
  5
DCD
102
{ACAD_REACTORS
330
E20
102
}
330
1A
100
AcDbEntity
  8
0
  6
Continuous
 62
     5
370
    25
100
AcDbLine
 10
585.7399999999993
 20
38.05401644621259
 30
0.0
 11
586.1319999999992
 21
38.05401644621259
 31
0.0
1001
PHOENIX7010
1002
{
1070
    62
1070
     5
1070
    41
1040
1.0
1002
}
  0
LINE
  5
DCE
102
{ACAD_REACTORS
330
E20
102
}
330
1A
100
AcDbEntity
  8
0
  6
Continuous
 62
     5
370
    25
100
AcDbLine
 10
585.7399999999993
 20
39.31401644621258
 30
0.0
 11
586.1319999999992
 21
38.05401644621259
 31
0.0
1001
PHOENIX7010
1002
{
1070
    62
1070
     5
1070
    41
1040
1.0
1002
}
  0
LINE
  5
DCF
102
{ACAD_REACTORS
330
E20
102
}
330
1A
100
AcDbEntity
  8
0
  6
Continuous
 62
     5
370
    25
100
AcDbLine
 10
585.7399999999993
 20
39.31401644621258
 30
0.0
 11
585.3479999999993
 21
38.05401644621259
 31
0.0
1001
PHOENIX7010
1002
{
1070
    62
1070
     5
1070
    41
1040
1.0
1002
}
  0
LINE
  5
DD0
102
{ACAD_REACTORS
330
E20
102
}
330
1A
100
AcDbEntity
  8
0
  6
Continuous
 62
     5
370
    25
100
AcDbLine
 10
585.7399999999993
 20
38.05401644621259
 30
0.0
 11
585.3479999999993
 21
38.05401644621259
 31
0.0
1001
PHOENIX7010
1002
{
1070
    62
1070
     5
1070
    41
1040
1.0
1002
}
  0
LINE
  5
DD1
102
{ACAD_REACTORS
330
E20
102
}
330
1A
100
AcDbEntity
  8
0
  6
Continuous
 62
     5
370
    25
100
AcDbLine
 10
585.7399999999993
 20
37.63401644621263
 30
0.0
 11
585.2079999999992
 21
37.63401644621263
 31
0.0
1001
PHOENIX7010
1002
{
1070
    62
1070
     5
1070
    41
1040
1.0
1002
}
  0
LINE
  5
DD2
102
{ACAD_REACTORS
330
E20
102
}
330
1A
100
AcDbEntity
  8
0
  6
Continuous
 62
     5
370
    25
100
AcDbLine
 10
585.0399999999992
 20
37.07401644621257
 30
0.0
 11
585.2079999999992
 21
37.63401644621263
 31
0.0
1001
PHOENIX7010
1002
{
1070
    62
1070
     5
1070
    41
1040
1.0
1002
}
  0
LINE
  5
DD3
102
{ACAD_REACTORS
330
E20
102
}
330
1A
100
AcDbEntity
  8
0
  6
Continuous
 62
     5
370
    25
100
AcDbLine
 10
584.4799999999992
 20
37.07401644621257
 30
0.0
 11
585.0399999999992
 21
37.07401644621257
 31
0.0
1001
PHOENIX7010
1002
{
1070
    62
1070
     5
1070
    41
1040
1.0
1002
}
  0
LINE
  5
DD4
102
{ACAD_REACTORS
330
E20
102
}
330
1A
100
AcDbEntity
  8
0
  6
Continuous
 62
     1
370
    25
100
AcDbLine
 10
586.8895999999991
 20
47.74242171982644
 30
0.0
 11
582.5703999999992
 21
42.59401644621255
 31
0.0
1001
PHOENIX7010
1002
{
1070
    62
1070
     1
1070
    41
1040
1.0
1002
}
  0
LINE
  5
DD5
102
{ACAD_REACTORS
330
E20
102
}
330
1A
100
AcDbEntity
  8
0
  6
Continuous
 62
     1
370
    25
100
AcDbLine
 10
582.5703999999992
 20
42.59401644621255
 30
0.0
 11
582.5703999999992
 21
47.87401644621263
 31
0.0
1001
PHOENIX7010
1002
{
1070
    62
1070
     1
1070
    41
1040
1.0
1002
}
  0
LINE
  5
DD6
102
{ACAD_REACTORS
330
E20
102
}
330
1A
100
AcDbEntity
  8
0
  6
Continuous
 62
     5
370
    25
100
AcDbLine
 10
582.4399999999992
 20
39.87401644621264
 30
0.0
 11
581.8799999999992
 21
39.87401644621264
 31
0.0
1001
PHOENIX7010
1002
{
1070
    62
1070
     5
1070
    41
1040
1.0
1002
}
  0
LINE
  5
DD7
102
{ACAD_REACTORS
330
E20
102
}
330
1A
100
AcDbEntity
  8
0
  6
Continuous
 62
     1
370
    25
100
AcDbLine
 10
586.9999999999993
 20
41.47401644621254
 30
0.0
 11
586.9999999999993
 21
47.87401644621263
 31
0.0
1001
PHOENIX7010
1002
{
1070
    62
1070
     1
1070
    41
1040
1.0
1002
}
  0
LINE
  5
DD8
102
{ACAD_REACTORS
330
E20
102
}
330
1A
100
AcDbEntity
  8
0
  6
Continuous
 62
     5
370
    25
100
AcDbLine
 10
585.7399999999993
 20
39.87401644621264
 30
0.0
 11
586.0199999999991
 21
39.87401644621264
 31
0.0
1001
PHOENIX7010
1002
{
1070
    62
1070
     5
1070
    41
1040
1.0
1002
}
  0
LINE
  5
DD9
102
{ACAD_REACTORS
330
E20
102
}
330
1A
100
AcDbEntity
  8
0
  6
Continuous
 62
     5
370
    25
100
AcDbLine
 10
585.7399999999993
 20
39.87401644621264
 30
0.0
 11
585.4599999999991
 21
39.87401644621264
 31
0.0
1001
PHOENIX7010
1002
{
1070
    62
1070
     5
1070
    41
1040
1.0
1002
}
  0
LINE
  5
DDA
102
{ACAD_REACTORS
330
E20
102
}
330
1A
100
AcDbEntity
  8
0
  6
Continuous
 62
     1
370
    25
100
AcDbLine
 10
586.9999999999993
 20
47.87401644621263
 30
0.0
 11
586.8895999999991
 21
47.74242171982644
 31
0.0
1001
PHOENIX7010
1002
{
1070
    62
1070
     1
1070
    41
1040
1.0
1002
}
  0
TEXT
  5
DDB
102
{ACAD_REACTORS
330
E21
102
}
330
1A
100
AcDbEntity
  8
0
  6
Continuous
 62
     1
370
    25
100
AcDbText
 10
497.9999999999993
 20
103.2500000000003
 30
0.0
 40
2.5
  1
Material  :
 41
1.399999999999999
 11
497.9999999999993
 21
102.5000000000003
 31
0.0
100
AcDbText
 73
     1
1001
PHOENIX7010
1002
{
1070
    41
1040
1.0
1070
    62
1070
     1
1002
}
  0
LINE
  5
DDD
102
{ACAD_REACTORS
330
E21
102
}
330
1A
100
AcDbEntity
  8
0
  6
Continuous
 62
     5
370
    25
100
AcDbLine
 10
588.9999999999993
 20
83.00000000000034
 30
0.0
 11
498.4999999999993
 21
83.00000000000034
 31
0.0
1001
PHOENIX7010
1002
{
1070
    62
1070
     5
1070
    41
1040
1.0
1002
}
  0
LINE
  5
DDE
102
{ACAD_REACTORS
330
E21
102
}
330
1A
100
AcDbEntity
  8
0
  6
Continuous
 62
     5
370
    25
100
AcDbLine
 10
589.0
 20
112.5000000000003
 30
0.0
 11
498.4999999999993
 21
112.5000000000003
 31
0.0
1001
PHOENIX7010
1002
{
1070
    62
1070
     5
1070
    41
1040
1.0
1002
}
  0
LINE
  5
DDF
102
{ACAD_REACTORS
330
E21
102
}
330
1A
100
AcDbEntity
  8
0
  6
Continuous
 62
     5
370
    25
100
AcDbLine
 10
588.9999999999993
 20
68.00000000000034
 30
0.0
 11
498.4999999999993
 21
68.00000000000034
 31
0.0
1001
PHOENIX7010
1002
{
1070
    62
1070
     5
1070
    41
1040
1.0
1002
}
  0
LINE
  5
DE0
102
{ACAD_REACTORS
330
E21
102
}
330
1A
100
AcDbEntity
  8
0
  6
Continuous
 62
     5
370
    25
100
AcDbLine
 10
588.9999999999993
 20
51.50000000000034
 30
0.0
 11
498.4999999999993
 21
51.50000000000034
 31
0.0
1001
PHOENIX7010
1002
{
1070
    62
1070
     5
1070
    41
1040
1.0
1002
}
  0
LINE
  5
DE1
102
{ACAD_REACTORS
330
E21
102
}
330
1A
100
AcDbEntity
  8
0
  6
Continuous
 62
     5
370
    25
100
AcDbLine
 10
589.0
 20
20.00000000000011
 30
0.0
 11
495.9999999999995
 21
20.00000000000011
 31
0.0
1001
PHOENIX7010
1002
{
1070
    62
1070
     5
1070
    41
1040
1.0
1002
}
  0
LINE
  5
DE2
102
{ACAD_REACTORS
330
E21
102
}
330
1A
100
AcDbEntity
  8
0
  6
Continuous
 62
     5
370
    25
100
AcDbLine
 10
588.9999999999997
 20
15.00000000000011
 30
0.0
 11
495.9999999999992
 21
15.00000000000011
 31
0.0
1001
PHOENIX7010
1002
{
1070
    62
1070
     5
1070
    41
1040
1.0
1002
}
  0
LINE
  5
DE3
102
{ACAD_REACTORS
330
E21
102
}
330
1A
100
AcDbEntity
  8
0
  6
Continuous
 62
     1
370
    25
100
AcDbLine
 10
589.0
 20
10.00000000000011
 30
0.0
 11
495.9999999999992
 21
10.00000000000011
 31
0.0
1001
PHOENIX7010
1002
{
1070
    62
1070
     1
1070
    41
1040
1.0
1002
}
  0
LINE
  5
DE4
102
{ACAD_REACTORS
330
E21
102
}
330
1A
100
AcDbEntity
  8
0
  6
Continuous
 62
     5
370
    25
100
AcDbLine
 10
588.9999999999993
 20
29.50000000000034
 30
0.0
 11
525.9999999999993
 21
29.50000000000034
 31
0.0
1001
PHOENIX7010
1002
{
1070
    62
1070
     5
1070
    41
1040
1.0
1002
}
  0
LINE
  5
DE5
102
{ACAD_REACTORS
330
E21
102
}
330
1A
100
AcDbEntity
  8
0
  6
Continuous
 62
     5
370
    25
100
AcDbLine
 10
525.9999999999993
 20
51.50000000000034
 30
0.0
 11
525.9999999999993
 21
5.000000000000113
 31
0.0
1001
PHOENIX7010
1002
{
1070
    62
1070
     5
1070
    41
1040
1.0
1002
}
  0
LINE
  5
DE6
102
{ACAD_REACTORS
330
E21
102
}
330
1A
100
AcDbEntity
  8
0
  6
Continuous
 62
     1
370
    25
100
AcDbLine
 10
549.9999999999992
 20
20.00000000000011
 30
0.0
 11
549.9999999999992
 21
5.000000000000113
 31
0.0
1001
PHOENIX7010
1002
{
1070
    62
1070
     1
1070
    41
1040
1.0
1002
}
  0
LINE
  5
DE7
102
{ACAD_REACTORS
330
E21
102
}
330
1A
100
AcDbEntity
  8
0
  6
Continuous
 62
     5
370
    25
100
AcDbLine
 10
495.9999999999992
 20
110.0000000000003
 30
0.0
 11
495.9999999999992
 21
5.000000000000113
 31
0.0
1001
PHOENIX7010
1002
{
1070
    62
1070
     5
1070
    41
1040
1.0
1002
}
  0
TEXT
  5
DE8
102
{ACAD_REACTORS
330
E21
102
}
330
1A
100
AcDbEntity
  8
0
  6
Continuous
 62
     1
370
    25
100
AcDbText
 10
497.9999999999993
 20
6.540000000000113
 30
0.0
 40
1.8
  1
Fertigungsfreigabe :
 11
497.9999999999993
 21
6.000000000000113
 31
0.0
100
AcDbText
 73
     1
1001
PHOENIX7010
1002
{
1070
    41
1040
1.0
1070
    62
1070
     1
1002
}
  0
TEXT
  5
DE9
102
{ACAD_REACTORS
330
E21
102
}
330
1A
100
AcDbEntity
  8
0
  6
Continuous
 62
     1
370
    25
100
AcDbText
 10
497.9999999999993
 20
11.54000000000011
 30
0.0
 40
1.8
  1
geprüft :
 11
497.9999999999993
 21
11.00000000000011
 31
0.0
100
AcDbText
 73
     1
1001
PHOENIX7010
1002
{
1070
    41
1040
1.0
1070
    62
1070
     1
1002
}
  0
TEXT
  5
DEA
102
{ACAD_REACTORS
330
E21
102
}
330
1A
100
AcDbEntity
  8
0
  6
Continuous
 62
     1
370
    25
100
AcDbText
 10
535.6373806819626
 20
16.04000000000011
 30
0.0
 40
1.8
  1
Datum
 72
     1
 11
538.9999999999995
 21
15.50000000000011
 31
0.0
100
AcDbText
 73
     1
1001
PHOENIX7010
1002
{
1070
    41
1040
1.0
1070
    62
1070
     1
1002
}
  0
ARC
  5
DEB
102
{ACAD_REACTORS
330
E21
102
}
330
1A
100
AcDbEntity
  8
0
  6
Continuous
 62
     5
370
    25
100
AcDbCircle
 10
498.4999999999993
 20
65.50000000000034
 30
0.0
 40
2.5
100
AcDbArc
 50
90.0
 51
180.0
1001
PHOENIX7010
1002
{
1070
    62
1070
     5
1070
    41
1040
1.0
1002
}
  0
LINE
  5
DEC
102
{ACAD_REACTORS
330
E21
102
}
330
1A
100
AcDbEntity
  8
0
  6
Continuous
 62
     5
370
    25
100
AcDbLine
 10
525.9999999999993
 20
23.50000000000012
 30
0.0
 11
495.9999999999995
 21
23.50000000000012
 31
0.0
1001
PHOENIX7010
1002
{
1070
    62
1070
     5
1070
    41
1040
1.0
1002
}
  0
TEXT
  5
DED
102
{ACAD_REACTORS
330
E21
102
}
330
1A
100
AcDbEntity
  8
0
  6
Continuous
 62
     7
370
    25
100
AcDbText
 10
520.9999999999992
 20
62.05
 30
0.0
 40
3.5
  1
Montagepl. MR 3000
 41
1.5
 11
520.9999999999992
 21
61.0
 31
0.0
100
AcDbText
 73
     1
1001
PHOENIX7010
1002
{
1070
    41
1040
1.0
1070
    62
1070
     7
1002
}
  0
TEXT
  5
DEE
102
{ACAD_REACTORS
330
E21
102
}
330
1A
100
AcDbEntity
  8
0
  6
Continuous
 62
     7
370
    25
100
AcDbText
 10
520.9999999999992
 20
55.40000000000002
 30
0.0
 40
3.5
  1
Grundzeichnung
 41
1.399999999999999
 11
520.9999999999992
 21
54.35000000000002
 31
0.0
100
AcDbText
 73
     1
1001
PHOENIX7010
1002
{
1070
    41
1040
1.0
1070
    62
1070
     7
1002
}
  0
LINE
  5
DEF
102
{ACAD_REACTORS
330
E21
102
}
330
1A
100
AcDbEntity
  8
0
  6
Continuous
 62
     1
370
    25
100
AcDbLine
 10
510.9999999999993
 20
51.50000000000034
 30
0.0
 11
510.9999999999993
 21
20.00000000000011
 31
0.0
1001
PHOENIX7010
1002
{
1070
    62
1070
     1
1070
    41
1040
1.0
1002
}
  0
TEXT
  5
DF0
102
{ACAD_REACTORS
330
E21
102
}
330
1A
100
AcDbEntity
  8
0
  6
Continuous
 62
     1
370
    25
100
AcDbText
 10
497.4533715179232
 20
20.50000000000011
 30
0.0
 40
1.8
  1
Änd.-Nr.:
100
AcDbText
1001
PHOENIX7010
1002
{
1070
    41
1040
1.0
1070
    62
1070
     1
1002
}
  0
TEXT
  5
DF1
102
{ACAD_REACTORS
330
E21
102
}
330
1A
100
AcDbEntity
  8
0
  6
Continuous
 62
     1
370
    25
100
AcDbText
 10
497.45
 20
24.5
 30
0.0
 40
1.8
  1
.
 41
1.199999999999999
100
AcDbText
1001
PHOENIX7010
1002
{
1070
    41
1040
1.0
1070
    62
1070
     1
1002
}
  0
TEXT
  5
DF2
102
{ACAD_REACTORS
330
E21
102
}
330
1A
100
AcDbEntity
  8
0
  6
Continuous
 62
     1
370
    25
100
AcDbText
 10
497.45
 20
28.5
 30
0.0
 40
1.8
  1
.
 41
1.199999999999999
100
AcDbText
1001
PHOENIX7010
1002
{
1070
    41
1040
1.0
1070
    62
1070
     1
1002
}
  0
TEXT
  5
DF3
102
{ACAD_REACTORS
330
E21
102
}
330
1A
100
AcDbEntity
  8
0
  6
Continuous
 62
     1
370
    25
100
AcDbText
 10
497.45
 20
36.5
 30
0.0
 40
1.8
  1
.
 41
1.199999999999999
100
AcDbText
1001
PHOENIX7010
1002
{
1070
    41
1040
1.0
1070
    62
1070
     1
1002
}
  0
TEXT
  5
DF4
102
{ACAD_REACTORS
330
E21
102
}
330
1A
100
AcDbEntity
  8
0
  6
Continuous
 62
     1
370
    25
100
AcDbText
 10
497.45
 20
32.5
 30
0.0
 40
1.8
  1
.
 41
1.199999999999999
100
AcDbText
1001
PHOENIX7010
1002
{
1070
    41
1040
1.0
1070
    62
1070
     1
1002
}
  0
TEXT
  5
DF5
102
{ACAD_REACTORS
330
E21
102
}
330
1A
100
AcDbEntity
  8
0
  6
Continuous
 62
     1
370
    25
100
AcDbText
 10
497.45
 20
40.49999999999999
 30
0.0
 40
1.8
  1
.
 41
1.199999999999999
100
AcDbText
1001
PHOENIX7010
1002
{
1070
    41
1040
1.0
1070
    62
1070
     1
1002
}
  0
TEXT
  5
DF6
102
{ACAD_REACTORS
330
E21
102
}
330
1A
100
AcDbEntity
  8
0
  6
Continuous
 62
     1
370
    25
100
AcDbText
 10
512.4533715179231
 20
20.50000000000011
 30
0.0
 40
1.8
  1
Datum:
100
AcDbText
1001
PHOENIX7010
1002
{
1070
    41
1040
1.0
1070
    62
1070
     1
1002
}
  0
TEXT
  5
DF7
102
{ACAD_REACTORS
330
E21
102
}
330
1A
100
AcDbEntity
  8
0
  6
Continuous
 62
     1
370
    25
100
AcDbText
 10
512.45
 20
24.5
 30
0.0
 40
1.8
  1
.
 41
1.199999999999999
100
AcDbText
1001
PHOENIX7010
1002
{
1070
    41
1040
1.0
1070
    62
1070
     1
1002
}
  0
TEXT
  5
DF8
102
{ACAD_REACTORS
330
E21
102
}
330
1A
100
AcDbEntity
  8
0
  6
Continuous
 62
     1
370
    25
100
AcDbText
 10
512.45
 20
28.5
 30
0.0
 40
1.8
  1
.
 41
1.199999999999999
100
AcDbText
1001
PHOENIX7010
1002
{
1070
    41
1040
1.0
1070
    62
1070
     1
1002
}
  0
TEXT
  5
DF9
102
{ACAD_REACTORS
330
E21
102
}
330
1A
100
AcDbEntity
  8
0
  6
Continuous
 62
     1
370
    25
100
AcDbText
 10
512.45
 20
32.5
 30
0.0
 40
1.8
  1
.
 41
1.199999999999999
100
AcDbText
1001
PHOENIX7010
1002
{
1070
    41
1040
1.0
1070
    62
1070
     1
1002
}
  0
TEXT
  5
DFA
102
{ACAD_REACTORS
330
E21
102
}
330
1A
100
AcDbEntity
  8
0
  6
Continuous
 62
     1
370
    25
100
AcDbText
 10
512.45
 20
36.5
 30
0.0
 40
1.8
  1
.
 41
1.199999999999999
100
AcDbText
1001
PHOENIX7010
1002
{
1070
    41
1040
1.0
1070
    62
1070
     1
1002
}
  0
TEXT
  5
DFB
102
{ACAD_REACTORS
330
E21
102
}
330
1A
100
AcDbEntity
  8
0
  6
Continuous
 62
     1
370
    25
100
AcDbText
 10
512.45
 20
40.49999999999999
 30
0.0
 40
1.8
  1
.
 41
1.199999999999999
100
AcDbText
1001
PHOENIX7010
1002
{
1070
    41
1040
1.0
1070
    62
1070
     1
1002
}
  0
TEXT
  5
DFC
102
{ACAD_REACTORS
330
E21
102
}
330
1A
100
AcDbEntity
  8
0
  6
Continuous
 62
     7
370
    25
100
AcDbText
 10
498.4999999999993
 20
62.05000000000033
 30
0.0
 40
3.5
  1
Artikel:
 41
1.28
 11
498.4999999999993
 21
61.00000000000034
 31
0.0
100
AcDbText
 73
     1
1001
PHOENIX7010
1002
{
1070
    41
1040
1.0
1070
    62
1070
     7
1002
}
  0
TEXT
  5
DFD
102
{ACAD_REACTORS
330
E21
102
}
330
1A
100
AcDbEntity
  8
0
  6
Continuous
 62
     7
370
    25
100
AcDbText
 10
498.4999999999993
 20
55.40000000000036
 30
0.0
 40
3.5
  1
Kunde  :
 41
1.229999999999999
 11
498.4999999999993
 21
54.35000000000036
 31
0.0
100
AcDbText
 73
     1
1001
PHOENIX7010
1002
{
1070
    41
1040
1.0
1070
    62
1070
     7
1002
}
  0
TEXT
  5
DFE
102
{ACAD_REACTORS
330
E21
102
}
330
1A
100
AcDbEntity
  8
0
  6
Continuous
 62
     1
370
    25
100
AcDbText
 10
497.45
 20
48.5
 30
0.0
 40
1.8
  1
.
 41
1.199999999999999
100
AcDbText
1001
PHOENIX7010
1002
{
1070
    41
1040
1.0
1070
    62
1070
     1
1002
}
  0
TEXT
  5
DFF
102
{ACAD_REACTORS
330
E21
102
}
330
1A
100
AcDbEntity
  8
0
  6
Continuous
 62
     1
370
    25
100
AcDbText
 10
497.45
 20
44.5
 30
0.0
 40
1.8
  1
.
 41
1.199999999999999
100
AcDbText
1001
PHOENIX7010
1002
{
1070
    41
1040
1.0
1070
    62
1070
     1
1002
}
  0
ARC
  5
E00
102
{ACAD_REACTORS
330
E21
102
}
330
1A
100
AcDbEntity
  8
0
  6
Continuous
 62
     5
370
    25
100
AcDbCircle
 10
498.4999999999993
 20
49.00000000000034
 30
0.0
 40
2.5
100
AcDbArc
 50
90.0
 51
180.0
1001
PHOENIX7010
1002
{
1070
    62
1070
     5
1070
    41
1040
1.0
1002
}
  0
TEXT
  5
E01
102
{ACAD_REACTORS
330
E21
102
}
330
1A
100
AcDbEntity
  8
0
  6
Continuous
 62
     1
370
    25
100
AcDbText
 10
512.45
 20
44.5
 30
0.0
 40
1.8
  1
.
 41
1.199999999999999
100
AcDbText
1001
PHOENIX7010
1002
{
1070
    41
1040
1.0
1070
    62
1070
     1
1002
}
  0
TEXT
  5
E02
102
{ACAD_REACTORS
330
E21
102
}
330
1A
100
AcDbEntity
  8
0
  6
Continuous
 62
     1
370
    25
100
AcDbText
 10
512.45
 20
48.5
 30
0.0
 40
1.8
  1
.
 41
1.199999999999999
100
AcDbText
1001
PHOENIX7010
1002
{
1070
    41
1040
1.0
1070
    62
1070
     1
1002
}
  0
TEXT
  5
E03
102
{ACAD_REACTORS
330
E21
102
}
330
1A
100
AcDbEntity
  8
0
  6
Continuous
 62
     5
370
    25
100
AcDbText
 10
525.0
 20
25.75000000000034
 30
0.0
 40
2.5
  1
   Disk    :
 41
1.399999999999999
 11
525.0
 21
25.00000000000034
 31
0.0
100
AcDbText
 73
     1
1001
PHOENIX7010
1002
{
1070
    41
1040
1.0
1070
    62
1070
     5
1002
}
  0
TEXT
  5
E04
102
{ACAD_REACTORS
330
E21
102
}
330
1A
100
AcDbEntity
  8
0
  6
Continuous
 62
     5
370
    25
100
AcDbText
 10
525.0
 20
21.00000000000034
 30
0.0
 40
2.5
  1
   Datum :
 41
1.399999999999999
 11
525.0
 21
20.25000000000034
 31
0.0
100
AcDbText
 73
     1
1001
PHOENIX7010
1002
{
1070
    41
1040
1.0
1070
    62
1070
     5
1002
}
  0
TEXT
  5
E05
102
{ACAD_REACTORS
330
E21
102
}
330
1A
100
AcDbEntity
  8
0
  6
Continuous
 62
     5
370
    25
100
AcDbText
 10
548.0
 20
25.75
 30
0.0
 40
2.5
  1
2 100 736
 41
1.399999999999999
 11
548.0
 21
25.0
 31
0.0
100
AcDbText
 73
     1
1001
PHOENIX7010
1002
{
1070
    41
1040
1.0
1070
    62
1070
     5
1002
}
  0
TEXT
  5
E06
102
{ACAD_REACTORS
330
E21
102
}
330
1A
100
AcDbEntity
  8
0
  6
Continuous
 62
     5
370
    25
100
AcDbText
 10
552.0
 20
21.0
 30
0.0
 40
2.5
  1
.
 41
1.399999999999999
 11
552.0
 21
20.25
 31
0.0
100
AcDbText
 73
     1
1001
PHOENIX7010
1002
{
1070
    41
1040
1.0
1070
    62
1070
     5
1002
}
  0
TEXT
  5
E07
102
{ACAD_REACTORS
330
E21
102
}
330
1A
100
AcDbEntity
  8
0
  6
Continuous
 62
     7
370
    25
100
AcDbText
 10
498.4999999999993
 20
77.05000000000033
 30
0.0
 40
3.5
  1
Zchn-Nr.:
 41
1.5
 11
498.4999999999993
 21
76.00000000000034
 31
0.0
100
AcDbText
 73
     1
1001
PHOENIX7010
1002
{
1070
    41
1040
1.0
1070
    62
1070
     7
1002
}
  0
TEXT
  5
E08
102
{ACAD_REACTORS
330
E21
102
}
330
1A
100
AcDbEntity
  8
0
  6
Continuous
 62
     7
370
    25
100
AcDbText
 10
521.9999999999993
 20
86.05
 30
0.0
 40
3.5
  1
(1:1)
 41
1.5
 11
521.9999999999993
 21
85.0
 31
0.0
100
AcDbText
 73
     1
1001
PHOENIX7010
1002
{
1070
    41
1040
1.0
1070
    62
1070
     7
1002
}
  0
TEXT
  5
E09
102
{ACAD_REACTORS
330
E21
102
}
330
1A
100
AcDbEntity
  8
0
  6
Continuous
 62
     1
370
    25
100
AcDbText
 10
498.4999999999993
 20
85.75000000000034
 30
0.0
 40
2.5
  1
Maßstab :
 41
1.399999999999999
 11
498.4999999999993
 21
85.00000000000033
 31
0.0
100
AcDbText
 73
     1
1001
PHOENIX7010
1002
{
1070
    41
1040
1.0
1070
    62
1070
     1
1002
}
  0
TEXT
  5
E0A
102
{ACAD_REACTORS
330
E21
102
}
330
1A
100
AcDbEntity
  8
0
  6
Continuous
 62
     5
370
    25
100
AcDbText
 10
498.4999999999993
 20
70.75000000000034
 30
0.0
 40
2.5
  1
Bem.: 
 41
1.199999999999999
 11
498.4999999999993
 21
70.00000000000034
 31
0.0
100
AcDbText
 73
     1
1001
PHOENIX7010
1002
{
1070
    41
1040
1.0
1070
    62
1070
     5
1002
}
  0
ARC
  5
E0B
102
{ACAD_REACTORS
330
E21
102
}
330
1A
100
AcDbEntity
  8
0
  6
Continuous
 62
     5
370
    25
100
AcDbCircle
 10
498.4999999999993
 20
80.50000000000034
 30
0.0
 40
2.5
100
AcDbArc
 50
90.0
 51
180.0
1001
PHOENIX7010
1002
{
1070
    62
1070
     5
1070
    41
1040
1.0
1002
}
  0
TEXT
  5
E0C
102
{ACAD_REACTORS
330
E21
102
}
330
1A
100
AcDbEntity
  8
0
  6
Continuous
 62
     5
370
    25
100
AcDbText
 10
509.9999999999993
 20
70.75000000000034
 30
0.0
 40
2.5
  1
erstellt nach Kd.-Zeichnung: 
 41
1.199999999999999
 11
509.9999999999993
 21
70.00000000000034
 31
0.0
100
AcDbText
 73
     1
1001
PHOENIX7010
1002
{
1070
    41
1040
1.0
1070
    62
1070
     5
1002
}
  0
ARC
  5
E0D
102
{ACAD_REACTORS
330
E21
102
}
330
1A
100
AcDbEntity
  8
0
  6
Continuous
 62
     5
370
    25
100
AcDbCircle
 10
498.4999999999993
 20
110.0000000000003
 30
0.0
 40
2.5
100
AcDbArc
 50
90.0
 51
180.0
1001
PHOENIX7010
1002
{
1070
    62
1070
     5
1070
    41
1040
1.0
1002
}
  0
TEXT
  5
E0E
102
{ACAD_REACTORS
330
E21
102
}
330
1A
100
AcDbEntity
  8
0
  6
Continuous
 62
     7
370
    25
100
AcDbText
 10
529.2867554282402
 20
77.05
 30
0.0
 40
3.5
  1
2G 3000.058.01
 41
1.5
 11
529.2867554282402
 21
76.0
 31
0.0
100
AcDbText
 73
     1
1001
PHOENIX7010
1002
{
1070
    41
1040
1.0
1070
    62
1070
     7
1002
}
  0
TEXT
  5
E0F
102
{ACAD_REACTORS
330
E21
102
}
330
1A
100
AcDbEntity
  8
0
  6
Continuous
 62
     1
370
    25
100
AcDbText
 10
562.7477499999993
 20
16.04000000000011
 30
0.0
 40
1.8
  1
Unterschrift
 72
     1
 11
569.4999999999993
 21
15.50000000000011
 31
0.0
100
AcDbText
 73
     1
1001
PHOENIX7010
1002
{
1070
    41
1040
1.0
1070
    62
1070
     1
1002
}
  0
CIRCLE
  5
E10
102
{ACAD_REACTORS
330
E21
102
}
330
1A
100
AcDbEntity
  8
0
  6
Continuous
 62
     5
370
    25
100
AcDbCircle
 10
584.4999999999997
 20
88.50000000000035
 30
0.0
 40
3.5
1001
PHOENIX7010
1002
{
1070
    62
1070
     5
1070
    41
1040
1.0
1002
}
  0
LINE
  5
E11
102
{ACAD_REACTORS
330
E21
102
}
330
1A
100
AcDbEntity
  8
0
  6
Continuous
 62
     5
370
    25
100
AcDbLine
 10
579.4999999999998
 20
85.00000000000033
 30
0.0
 11
579.4999999999998
 21
92.00000000000034
 31
0.0
1001
PHOENIX7010
1002
{
1070
    62
1070
     5
1070
    41
1040
1.0
1002
}
  0
CIRCLE
  5
E12
102
{ACAD_REACTORS
330
E21
102
}
330
1A
100
AcDbEntity
  8
0
  6
Continuous
 62
     5
370
    25
100
AcDbCircle
 10
584.4999999999997
 20
88.50000000000035
 30
0.0
 40
1.75
1001
PHOENIX7010
1002
{
1070
    62
1070
     5
1070
    41
1040
1.0
1002
}
  0
LINE
  5
E13
102
{ACAD_REACTORS
330
E21
102
}
330
1A
100
AcDbEntity
  8
0
  6
ACAD_ISO04W100
 62
     1
370
    25
100
AcDbLine
 10
584.4999999999997
 20
84.00000000000034
 30
0.0
 11
584.4999999999997
 21
93.00000000000034
 31
0.0
1001
PHOENIX7010
1002
{
1070
    62
1070
     1
1070
    41
1040
1.0
1002
}
  0
LINE
  5
E14
102
{ACAD_REACTORS
330
E21
102
}
330
1A
100
AcDbEntity
  8
0
  6
Continuous
 62
     5
370
    25
100
AcDbLine
 10
572.4999999999997
 20
86.75000000000034
 30
0.0
 11
572.4999999999997
 21
90.25000000000034
 31
0.0
1001
PHOENIX7010
1002
{
1070
    62
1070
     5
1070
    41
1040
1.0
1002
}
  0
LINE
  5
E15
102
{ACAD_REACTORS
330
E21
102
}
330
1A
100
AcDbEntity
  8
0
  6
ACAD_ISO04W100
 62
     1
370
    25
100
AcDbLine
 10
588.9999999999997
 20
88.50000000000035
 30
0.0
 11
571.4999999999998
 21
88.50000000000035
 31
0.0
1001
PHOENIX7010
1002
{
1070
    62
1070
     1
1070
    41
1040
1.0
1002
}
  0
LINE
  5
E16
102
{ACAD_REACTORS
330
E21
102
}
330
1A
100
AcDbEntity
  8
0
  6
Continuous
 62
     5
370
    25
100
AcDbLine
 10
579.4999999999998
 20
85.00000000000033
 30
0.0
 11
572.4999999999997
 21
86.75000000000034
 31
0.0
1001
PHOENIX7010
1002
{
1070
    62
1070
     5
1070
    41
1040
1.0
1002
}
  0
LINE
  5
E17
102
{ACAD_REACTORS
330
E21
102
}
330
1A
100
AcDbEntity
  8
0
  6
Continuous
 62
     5
370
    25
100
AcDbLine
 10
579.4999999999998
 20
92.00000000000034
 30
0.0
 11
572.4999999999997
 21
90.25000000000034
 31
0.0
1001
PHOENIX7010
1002
{
1070
    62
1070
     5
1070
    41
1040
1.0
1002
}
  0
TEXT
  5
E18
102
{ACAD_REACTORS
330
E22
102
}
330
1A
100
AcDbEntity
  8
0
  6
Continuous
 62
     1
370
    25
100
AcDbText
 10
522.0
 20
93.25000000000011
 30
0.0
 40
2.5
  1
DIN ISO 2768-mK für Bearbeitung
 41
1.3
 11
522.0
 21
92.50000000000012
 31
0.0
100
AcDbText
 73
     1
1001
PHOENIX7010
1002
{
1070
    41
1040
1.0
1070
    62
1070
     1
1002
}
  0
TEXT
  5
E19
102
{ACAD_REACTORS
330
E23
102
}
330
1A
100
AcDbEntity
  8
0
  6
Continuous
 62
     1
370
    25
100
AcDbText
 10
497.9999999999993
 20
93.25000000000034
 30
0.0
 40
2.5
  1
.
 41
1.399999999999999
 11
497.9999999999993
 21
92.50000000000033
 31
0.0
100
AcDbText
 73
     1
1001
PHOENIX7010
1002
{
1070
    41
1040
1.0
1070
    62
1070
     1
1002
}
  0
TEXT
  5
1030
102
{ACAD_REACTORS
330
1706
102
}
330
1A
100
AcDbEntity
  8
0
  6
Continuous
 62
     1
370
    25
100
AcDbText
 10
522.0
 20
108.2500000000001
 30
0.0
 40
2.5
  1
alle Kanten gratfrei
 41
1.399999999999999
 11
522.0
 21
107.5000000000001
 31
0.0
100
AcDbText
 73
     1
1001
PHOENIX7010
1002
{
1070
    41
1040
1.0
1070
    62
1070
     1
1002
}
  0
TEXT
  5
127F
102
{ACAD_REACTORS
330
1706
102
}
330
1A
100
AcDbEntity
  8
0
  6
Continuous
 62
     1
370
    25
100
AcDbText
 10
522.0
 20
103.2500000000001
 30
0.0
 40
2.5
  1
Phenolhartpapier nach
 41
1.399999999999999
 11
522.0
 21
102.5000000000001
 31
0.0
100
AcDbText
 73
     1
1001
PHOENIX7010
1002
{
1070
    41
1040
1.0
1070
    62
1070
     1
1002
}
  0
TEXT
  5
1304
102
{ACAD_REACTORS
330
1706
102
}
330
1A
100
AcDbEntity
  8
0
  6
Continuous
 62
     1
370
    25
100
AcDbText
 10
497.9999999999993
 20
93.25000000000034
 30
0.0
 40
2.5
  1
Allg. Tol. :
 41
1.399999999999999
 11
497.9999999999993
 21
92.50000000000033
 31
0.0
100
AcDbText
 73
     1
1001
PHOENIX7010
1002
{
1070
    41
1040
1.0
1070
    62
1070
     1
1002
}
  0
TEXT
  5
140D
102
{ACAD_REACTORS
330
1706
102
}
330
1A
100
AcDbEntity
  8
0
  6
Continuous
 62
     1
370
    25
100
AcDbText
 10
522.0
 20
98.25000000000011
 30
0.0
 40
2.5
  1
DIN 7735 Klasse II Typ 2061 
 41
1.399999999999999
 11
522.0
 21
97.50000000000012
 31
0.0
100
AcDbText
 73
     1
1001
PHOENIX7010
1002
{
1070
    41
1040
1.0
1070
    62
1070
     1
1002
}
  0
LINE
  5
154D
102
{ACAD_REACTORS
330
15E3
102
}
330
1A
100
AcDbEntity
  8
0
  6
Continuous
 62
     5
370
    25
100
AcDbLine
 10
498.5000013512062
 20
120.9902248572954
 30
0.0
 11
589.0
 21
120.9902248572954
 31
0.0
1001
PHOENIX7010
1002
{
1070
    62
1070
     5
1070
    41
1040
1.0
1002
}
  0
ARC
  5
154E
102
{ACAD_REACTORS
330
15E3
102
}
330
1A
100
AcDbEntity
  8
0
  6
Continuous
 62
     5
370
    25
100
AcDbCircle
 10
498.5000013512062
 20
118.4902248572954
 30
0.0
 40
2.5
100
AcDbArc
 50
90.0
 51
180.0
1001
PHOENIX7010
1002
{
1070
    62
1070
     5
1070
    41
1040
1.0
1002
}
  0
LINE
  5
154F
102
{ACAD_REACTORS
330
15E3
102
}
330
1A
100
AcDbEntity
  8
0
  6
Continuous
 62
     5
370
    25
100
AcDbLine
 10
496.0000013512062
 20
118.4902248572954
 30
0.0
 11
495.9999988739935
 21
107.4902248572958
 31
0.0
1001
PHOENIX7010
1002
{
1070
    62
1070
     5
1070
    41
1040
1.0
1002
}
  0
MTEXT
  5
1550
102
{ACAD_REACTORS
330
15E4
102
}
330
1A
100
AcDbEntity
  8
0
  6
Continuous
 62
     5
370
    25
100
AcDbMText
 10
498.0000005630029
 20
115.9902248572953
 30
0.0
 40
2.5
 41
0.0
 71
     7
 72
     5
  1
Artikel-Nr.:
 73
     1
 44
1.0
1001
PHOENIX7010
1002
{
1070
    41
1040
1.0
1070
    62
1070
     7
1002
}
1001
ACAD
1000
MTEXTBEGIN
1070
    73
1070
     1
1070
    44
1040
1.0
1070
    74
1070
     0
1000
MTEXTEND
  0
TEXT
  5
15DD
102
{ACAD_REACTORS
330
1706
102
}
330
1A
100
AcDbEntity
  8
0
  6
Continuous
 62
     3
370
    25
100
AcDbText
 10
523.6945173537865
 20
112.898570356301
 30
0.0
 40
7.0
  1
.
 41
1.1
 11
523.6945173537865
 21
110.798570356301
 31
0.0
100
AcDbText
 73
     1
1001
PHOENIX7010
1002
{
1070
    41
1040
1.0
1070
    62
1070
     1
1002
}
  0
TEXT
  5
1712
102
{ACAD_REACTORS
330
1724
102
}
330
1A
100
AcDbEntity
  8
0
  6
Continuous
 62
     1
100
AcDbText
 10
19.0
 20
113.35
 30
0.0
 40
2.0
  1
"Schutzvermerk nach DIN 34 beachten"
 50
90.0
 41
1.5
100
AcDbText
1001
PHOENIX7010
1002
{
1070
    62
1070
     1
1070
    41
1040
1.0
1002
}
  0
LINE
  5
1713
102
{ACAD_REACTORS
330
1724
102
}
330
1A
100
AcDbEntity
  8
0
  6
Continuous
 62
     1
100
AcDbLine
 10
589.0
 20
297.0
 30
0.0
 11
593.0
 21
297.0
 31
0.0
1001
PHOENIX7010
1002
{
1070
    62
1070
     1
1070
    41
1040
1.0
1002
}
  0
LINE
  5
1714
102
{ACAD_REACTORS
330
1724
102
}
330
1A
100
AcDbEntity
  8
0
  6
Continuous
 62
     1
100
AcDbLine
 10
593.0
 20
1.0
 30
0.0
 11
1.0
 21
1.0
 31
0.0
1001
PHOENIX7010
1002
{
1070
    62
1070
     1
1070
    41
1040
1.0
1002
}
  0
LINE
  5
1715
102
{ACAD_REACTORS
330
1724
102
}
330
1A
100
AcDbEntity
  8
0
  6
Continuous
 62
     1
100
AcDbLine
 10
593.0
 20
419.0
 30
0.0
 11
593.0
 21
1.0
 31
0.0
1001
PHOENIX7010
1002
{
1070
    62
1070
     1
1070
    41
1040
1.0
1002
}
  0
LINE
  5
1716
102
{ACAD_REACTORS
330
1724
102
}
330
1A
100
AcDbEntity
  8
0
  6
Continuous
 62
     1
100
AcDbLine
 10
1.0
 20
419.0
 30
0.0
 11
593.0
 21
419.0
 31
0.0
1001
PHOENIX7010
1002
{
1070
    62
1070
     1
1070
    41
1040
1.0
1002
}
  0
LINE
  5
1717
102
{ACAD_REACTORS
330
1724
102
}
330
1A
100
AcDbEntity
  8
0
  6
Continuous
 62
     1
100
AcDbLine
 10
1.0
 20
1.0
 30
0.0
 11
1.0
 21
419.0
 31
0.0
1001
PHOENIX7010
1002
{
1070
    62
1070
     1
1070
    41
1040
1.0
1002
}
  0
LINE
  5
1718
102
{ACAD_REACTORS
330
1724
102
}
330
1A
100
AcDbEntity
  8
0
  6
Continuous
 62
     3
100
AcDbLine
 10
589.0
 20
5.0
 30
0.0
 11
20.0
 21
5.0
 31
0.0
1001
PHOENIX7010
1002
{
1070
    62
1070
     3
1070
    41
1040
1.0
1002
}
  0
LINE
  5
1719
102
{ACAD_REACTORS
330
1724
102
}
330
1A
100
AcDbEntity
  8
0
  6
Continuous
 62
     3
100
AcDbLine
 10
20.0
 20
5.0
 30
0.0
 11
20.0
 21
415.0
 31
0.0
1001
PHOENIX7010
1002
{
1070
    62
1070
     3
1070
    41
1040
1.0
1002
}
  0
LINE
  5
171A
102
{ACAD_REACTORS
330
1724
102
}
330
1A
100
AcDbEntity
  8
0
  6
Continuous
 62
     1
100
AcDbLine
 10
403.0
 20
419.0
 30
0.0
 11
403.0
 21
415.0
 31
0.0
1001
PHOENIX7010
1002
{
1070
    62
1070
     1
1070
    41
1040
1.0
1002
}
  0
LINE
  5
171B
102
{ACAD_REACTORS
330
1724
102
}
330
1A
100
AcDbEntity
  8
0
  6
Continuous
 62
     1
100
AcDbLine
 10
213.0
 20
419.0
 30
0.0
 11
213.0
 21
415.0
 31
0.0
1001
PHOENIX7010
1002
{
1070
    62
1070
     1
1070
    41
1040
1.0
1002
}
  0
LINE
  5
171C
102
{ACAD_REACTORS
330
1724
102
}
330
1A
100
AcDbEntity
  8
0
  6
Continuous
 62
     1
100
AcDbLine
 10
213.0
 20
5.0
 30
0.0
 11
213.0
 21
1.0
 31
0.0
1001
PHOENIX7010
1002
{
1070
    62
1070
     1
1070
    41
1040
1.0
1002
}
  0
LINE
  5
171D
102
{ACAD_REACTORS
330
1724
102
}
330
1A
100
AcDbEntity
  8
0
  6
Continuous
 62
     1
100
AcDbLine
 10
116.0
 20
419.0
 30
0.0
 11
116.0
 21
415.0
 31
0.0
1001
PHOENIX7010
1002
{
1070
    62
1070
     1
1070
    41
1040
1.0
1002
}
  0
LINE
  5
171E
102
{ACAD_REACTORS
330
1724
102
}
330
1A
100
AcDbEntity
  8
0
  6
Continuous
 62
     1
100
AcDbLine
 10
116.0
 20
5.0
 30
0.0
 11
116.0
 21
1.0
 31
0.0
1001
PHOENIX7010
1002
{
1070
    62
1070
     1
1070
    41
1040
1.0
1002
}
  0
LINE
  5
171F
102
{ACAD_REACTORS
330
1724
102
}
330
1A
100
AcDbEntity
  8
0
  6
Continuous
 62
     3
100
AcDbLine
 10
20.0
 20
415.0
 30
0.0
 11
589.0
 21
415.0
 31
0.0
1001
PHOENIX7010
1002
{
1070
    62
1070
     3
1070
    41
1040
1.0
1002
}
  0
LINE
  5
1720
102
{ACAD_REACTORS
330
1724
102
}
330
1A
100
AcDbEntity
  8
0
  6
Continuous
 62
     3
100
AcDbLine
 10
589.0
 20
415.0
 30
0.0
 11
589.0
 21
5.0
 31
0.0
1001
PHOENIX7010
1002
{
1070
    62
1070
     3
1070
    41
1040
1.0
1002
}
  0
LINE
  5
1721
102
{ACAD_REACTORS
330
1725
102
}
330
1A
100
AcDbEntity
  8
0
  6
Continuous
 62
     1
100
AcDbLine
 10
403.0
 20
1.0
 30
0.0
 11
403.0
 21
5.0
 31
0.0
1001
PHOENIX7010
1002
{
1070
    62
1070
     1
1070
    41
1040
1.0
1002
}
  0
DIMENSION
  5
1C1C
102
{ACAD_REACTORS
330
1E0B
102
}
330
1A
100
AcDbEntity
  8
2
  6
Continuous
 62
     7
370
    35
100
AcDbDimension
  2
*D29
 10
427.9088471849868
 20
304.3545576407507
 30
0.0
 11
432.3461884885663
 21
309.3728446410034
 31
0.0
 70
   164
 71
     5
 42
4.999984740000229
  3
PHOENIX$4
100
AcDbRadialDimension
 15
424.5967888170766
 25
300.6088778936566
 35
0.0
 40
0.0
1001
ACAD
1000
DSTYLE
1002
{
1070
   147
1040
1.0
1070
   271
1070
     3
1070
   272
1070
     6
1070
   279
1070
     1
1070
   281
1070
     0
1002
}
  0
DIMENSION
  5
249B
102
{ACAD_REACTORS
330
285B
102
}
330
1A
100
AcDbEntity
  8
2
  6
Continuous
 62
     7
370
    35
100
AcDbDimension
  2
*D32
 10
439.9088471849865
 20
225.3545576407506
 30
0.0
 11
437.1588471849865
 21
262.3545576407507
 31
0.0
 70
    32
 71
     5
 42
74.00000000000005
  3
PHOENIX
100
AcDbAlignedDimension
 13
432.9088471849866
 23
299.3545576407507
 33
0.0
 14
432.9088471849866
 24
225.3545576407506
 34
0.0
 50
90.0
100
AcDbRotatedDimension
1001
ACAD
1000
DSTYLE
1002
{
1070
   147
1040
1.0
1070
   271
1070
     6
1070
   272
1070
     6
1002
}
  0
DIMENSION
  5
2880
102
{ACAD_REACTORS
330
2B20
102
}
330
1A
100
AcDbEntity
  8
2
  6
Continuous
 62
     7
370
    35
100
AcDbDimension
  2
*D33
 10
444.9088471849866
 20
201.8545576407507
 30
0.0
 11
442.1585026967975
 21
262.3545576407507
 31
0.0
 70
    32
 71
     5
 42
121.0
  3
PHOENIX
100
AcDbAlignedDimension
 13
424.5588563349866
 23
322.8545576407507
 33
0.0
 14
424.5588563349866
 24
201.8545576407507
 34
0.0
 50
90.0
100
AcDbRotatedDimension
1001
ACAD
1000
DSTYLE
1002
{
1070
   147
1040
1.0
1070
   271
1070
     6
1070
   272
1070
     6
1002
}
  0
ENDSEC
  0
SECTION
  2
OBJECTS
  0
DICTIONARY
  5
C
330
0
100
AcDbDictionary
281
     1
  3
ACAD_COLOR
350
14B0
  3
ACAD_GROUP
350
D
  3
ACAD_LAYOUT
350
A63
  3
ACAD_MATERIAL
350
14AF
  3
ACAD_MLEADERSTYLE
350
1921
  3
ACAD_MLINESTYLE
350
E
  3
ACAD_PLOTSETTINGS
350
A64
  3
ACAD_PLOTSTYLENAME
350
A61
  3
ACAD_SCALELIST
350
18FF
  3
ACAD_TABLESTYLE
350
18FD
  3
ACAD_VISUALSTYLE
350
18E9
  3
ACASAPPOBJECT
350
D4
  3
ACASGREF_MASTER
350
84
  3
ACCELVIEW
350
DA
  3
ACDB_RECOMPOSE_DATA
350
38CB
  3
AcDbVariableDictionary
350
A73
  3
ACDMSYSVARMGR
350
A0
  3
ACGREF_MASTER
350
82
  3
ACME_COMMAND_HISTORY
350
80
  3
ACME_SCOPE_NAME
350
7F
  3
AD_APPL
350
93
  3
AD_DRAWMGR_NAME
350
B4
  3
AD_GREF_MODULE
350
9B
  3
AD_HOLENOTE_REPOSITORY
350
9A
  3
ADSYSVARMGR
350
89
  3
AMI_MASTER
350
83
  3
AUTOCAD_ASSEMBLIES_PROJECT
350
C0
  3
DESIGNER_ASSEMBLIES_SYSVARS
350
BB
  3
DWGPROPS
350
38CC
  3
PH_OBJREACTOR_DICT
350
3C
  3
PH_ROOTGROUP_DICT
350
3B
  3
PH_VARS
350
31
  0
DICTIONARY
  5
38AA
330
2
100
AcDbDictionary
280
     1
281
     1
  3
ACAD_LAYERSTATES
360
38AB
  0
DICTIONARY
  5
388B
330
F
100
AcDbDictionary
280
     1
281
     1
  3
ADSK_XREC_LAYER_RECONCILED
360
388C
  0
DICTIONARY
  5
388D
330
44
100
AcDbDictionary
280
     1
281
     1
  3
ADSK_XREC_LAYER_RECONCILED
360
388E
  0
DICTIONARY
  5
388F
330
48
100
AcDbDictionary
280
     1
281
     1
  3
ADSK_XREC_LAYER_RECONCILED
360
3890
  0
DICTIONARY
  5
3891
330
4A
100
AcDbDictionary
280
     1
281
     1
  3
ADSK_XREC_LAYER_RECONCILED
360
3892
  0
DICTIONARY
  5
3893
330
B6
100
AcDbDictionary
280
     1
281
     1
  3
ADSK_XREC_LAYER_RECONCILED
360
3894
  0
DICTIONARY
  5
3895
330
B7
100
AcDbDictionary
280
     1
281
     1
  3
ADSK_XREC_LAYER_RECONCILED
360
3896
  0
DICTIONARY
  5
3897
330
B8
100
AcDbDictionary
280
     1
281
     1
  3
ADSK_XREC_LAYER_RECONCILED
360
3898
  0
DICTIONARY
  5
3899
330
B9
100
AcDbDictionary
280
     1
281
     1
  3
ADSK_XREC_LAYER_RECONCILED
360
389A
  0
DICTIONARY
  5
389B
330
BA
100
AcDbDictionary
280
     1
281
     1
  3
ADSK_XREC_LAYER_RECONCILED
360
389C
  0
DICTIONARY
  5
389D
330
CB
100
AcDbDictionary
280
     1
281
     1
  3
ADSK_XREC_LAYER_RECONCILED
360
389E
  0
DICTIONARY
  5
389F
330
CC
100
AcDbDictionary
280
     1
281
     1
  3
ADSK_XREC_LAYER_RECONCILED
360
38A0
  0
DICTIONARY
  5
38A1
330
CD
100
AcDbDictionary
280
     1
281
     1
  3
ADSK_XREC_LAYER_RECONCILED
360
38A2
  0
DICTIONARY
  5
38A3
330
68B
100
AcDbDictionary
280
     1
281
     1
  3
ADSK_XREC_LAYER_RECONCILED
360
38A4
  0
DICTIONARY
  5
38A5
330
E24
100
AcDbDictionary
280
     1
281
     1
  3
ADSK_XREC_LAYER_RECONCILED
360
38A6
  0
DICTIONARY
  5
14B0
102
{ACAD_REACTORS
330
C
102
}
330
C
100
AcDbDictionary
281
     1
  0
DICTIONARY
  5
D
102
{ACAD_REACTORS
330
C
102
}
330
C
100
AcDbDictionary
281
     1
  3
*A1
350
1926
  3
PH_BOUNDARYLIST
350
3D
  0
DICTIONARY
  5
A63
102
{ACAD_REACTORS
330
C
102
}
330
C
100
AcDbDictionary
281
     1
  3
Layout1
350
A66
  3
Model
350
A65
  0
DICTIONARY
  5
14AF
102
{ACAD_REACTORS
330
C
102
}
330
C
100
AcDbDictionary
281
     1
  3
ByBlock
350
18D9
  3
ByLayer
350
18D1
  3
Global
350
18E1
  0
DICTIONARY
  5
1921
102
{ACAD_REACTORS
330
C
102
}
330
C
100
AcDbDictionary
281
     1
  3
Standard
350
1922
  0
DICTIONARY
  5
E
102
{ACAD_REACTORS
330
C
102
}
330
C
100
AcDbDictionary
281
     1
  3
STANDARD
350
13
  0
DICTIONARY
  5
A64
102
{ACAD_REACTORS
330
C
102
}
330
C
100
AcDbDictionary
281
     1
  0
ACDBDICTIONARYWDFLT
  5
A61
102
{ACAD_REACTORS
330
C
102
}
330
C
100
AcDbDictionary
281
     1
  3
Normal
350
A62
100
AcDbDictionaryWithDefault
340
A62
  0
DICTIONARY
  5
18FF
102
{ACAD_REACTORS
330
C
102
}
330
C
100
AcDbDictionary
281
     1
  3
A0
350
1900
  3
A1
350
1901
  3
A2
350
1902
  3
A3
350
1903
  3
A4
350
1904
  3
A5
350
1905
  3
A6
350
1906
  3
A7
350
1907
  3
A8
350
1908
  3
A9
350
1909
  3
B0
350
190A
  3
B1
350
190B
  3
B2
350
190C
  3
B3
350
190D
  3
B4
350
190E
  3
B5
350
190F
  3
B6
350
1910
  3
B7
350
1911
  3
B8
350
1912
  3
B9
350
1913
  3
C0
350
1914
  3
C1
350
1915
  3
C2
350
1916
  3
C3
350
1917
  3
C4
350
1918
  3
C5
350
1919
  3
C6
350
191A
  3
C7
350
191B
  3
C8
350
191C
  3
C9
350
191D
  3
D0
350
191E
  3
D1
350
191F
  3
D2
350
1920
  0
DICTIONARY
  5
18FD
102
{ACAD_REACTORS
330
C
102
}
330
C
100
AcDbDictionary
281
     1
  3
Standard
350
18FE
  0
DICTIONARY
  5
18E9
102
{ACAD_REACTORS
330
C
102
}
330
C
100
AcDbDictionary
281
     1
  3
2dWireframe
350
18EF
  3
3D Hidden
350
18F1
  3
3dWireframe
350
18F0
  3
Basic
350
18EE
  3
Brighten
350
18F5
  3
ColorChange
350
18F9
  3
Conceptual
350
18F2
  3
Dim
350
18F4
  3
EdgeColorOff
350
18FC
  3
Facepattern
350
18F8
  3
Flat
350
18EA
  3
FlatWithEdges
350
18EB
  3
Gouraud
350
18EC
  3
GouraudWithEdges
350
18ED
  3
JitterOff
350
18FA
  3
Linepattern
350
18F7
  3
OverhangOff
350
18FB
  3
Realistic
350
18F3
  3
Thicken
350
18F6
  0
ACAD_PROXY_OBJECT
  5
D4
102
{ACAD_REACTORS
330
C
102
}
330
C
100
AcDbProxyObject
 90
      499
 91
      540
 95
   393235
 70
     0
 93
        2
310
BF
360
D2
 94
        0
1001
ACAD
1000
AcRTDxfName
1000
ASAPP
1000
AcRTDxfName
1000
ASAPP
  0
ACAD_PROXY_OBJECT
  5
84
102
{ACAD_REACTORS
330
C
102
}
330
C
100
AcDbProxyObject
 90
      499
 91
      506
 95
   393235
 70
     0
 93
       34
310
010000407F
 94
        0
1001
ACAD
1000
AcRTDxfName
1000
ACASGREFMASTER
1000
AcRTDxfName
1000
ACASGREFMASTER
  0
ACAD_PROXY_OBJECT
  5
DA
102
{ACAD_REACTORS
330
C
102
}
330
C
100
AcDbProxyObject
 90
      499
 91
      541
 95
   393235
 70
     0
 93
       12
310
901F
330
0
 94
        0
1001
ACAD
1000
AcRTDxfName
1000
AGDICTIONARY
1000
AcRTDxfName
1000
AGDICTIONARY
  0
XRECORD
  5
38CB
102
{ACAD_REACTORS
330
C
102
}
330
C
100
AcDbXrecord
280
     1
 90
        1
330
18FE
  0
DICTIONARY
  5
A73
102
{ACAD_REACTORS
330
C
102
}
330
C
100
AcDbDictionary
281
     1
  3
CANNOSCALE
350
38C5
  3
CMLEADERSTYLE
350
38C4
  3
CTABLESTYLE
350
38C3
  3
DIMASSOC
350
A74
  3
INDEXCTL
350
38C7
  3
PROJECTNAME
350
18CF
  3
SORTENTS
350
38C6
  3
XCLIPFRAME
350
38C8
  0
ACAD_PROXY_OBJECT
  5
A0
102
{ACAD_REACTORS
330
C
102
}
330
C
100
AcDbProxyObject
 90
      499
 91
      511
 95
   393235
 70
     0
 93
      184
310
4C5124810100000000000000000000000000000000000053
330
A1
330
A2
330
A3
330
A4
330
A5
330
A6
330
A7
330
A9
330
AA
330
AB
330
AC
330
AD
330
AE
330
AF
330
B0
330
B1
330
B2
330
B3
 94
        0
1001
ACAD
1000
AcRTDxfName
1000
"IM_SYSVAR_MAN"
1000
AcRTDxfName
1000
"IM_SYSVAR_MAN"
  0
ACAD_PROXY_OBJECT
  5
82
102
{ACAD_REACTORS
330
C
102
}
330
C
100
AcDbProxyObject
 90
      499
 91
      504
 95
   393235
 70
     0
 93
      114
310
01010041000000000000000000003F
 94
        0
1001
ACAD
1000
AcRTDxfName
1000
ACGREFMASTER
1000
AcRTDxfName
1000
ACGREFMASTER
  0
ACAD_PROXY_OBJECT
  5
80
102
{ACAD_REACTORS
330
C
102
}
330
C
100
AcDbProxyObject
 90
      499
 91
      502
 95
   393235
 70
     0
 93
     1726
310
4280508554E444546494E4580508554E444546494E458050C41445F434F4E56455254523140805084E202D20554E444F014213880B4815539113C050C414D4C54595045434845434B41405084E202D20554E444F014313880B481312539155165411405094E202D204C41594552014313880B481312539155165411405084E
310
202D20554E444F01431053531516541150D21150D2D03014213880B4815539113C05094E202D204C41594552014213880B4815539113C0504554E444F80504554E444F80504554E444F80504554E444F80506534156454153B
 94
        0
1001
ACAD
1000
AcRTDxfName
1000
ACMECOMMANDHISTORY
1000
AcRTDxfName
1000
ACMECOMMANDHISTORY
  0
ACAD_PROXY_OBJECT
  5
7F
102
{ACAD_REACTORS
330
C
102
}
330
C
100
AcDbProxyObject
 90
      499
 91
      501
 95
   393235
 70
     0
 93
      464
310
0101004093200000000000000000000000000000000000000000000000000000000000000000000000000000000000000000000000000009010000
360
85
360
86
360
87
360
88
360
8A
360
8B
360
8C
360
8D
360
8E
360
8F
360
90
360
91
360
92
360
95
360
96
360
97
360
98
360
99
360
9C
360
9D
360
9E
360
9F
360
A1
360
A2
360
A3
360
A4
360
A5
360
A6
360
A7
360
A9
360
AA
360
AB
360
AC
360
AD
360
AE
360
AF
360
B0
360
B1
360
B2
360
B3
360
BC
360
BD
360
BE
360
BF
360
C6
360
C7
360
C8
360
C9
360
CA
360
CE
330
0
 94
        0
1001
ACAD
1000
AcRTDxfName
1000
ACMESCOPE
1000
AcRTDxfName
1000
ACMESCOPE
  0
ACAD_PROXY_OBJECT
  5
93
102
{ACAD_REACTORS
330
C
102
}
330
C
100
AcDbProxyObject
 90
      499
 91
      515
 95
   393235
 70
     0
 93
       42
310
00010200453F
330
85
 94
        0
1001
ACAD
1000
AcRTDxfName
1000
NAMEDAPPL
1000
AcRTDxfName
1000
NAMEDAPPL
  0
ACAD_PROXY_OBJECT
  5
B4
102
{ACAD_REACTORS
330
C
102
}
330
C
100
AcDbProxyObject
 90
      499
 91
      527
 95
   393235
 70
     0
 93
       42
310
00010000453F
330
9C
 94
        0
1001
ACAD
1000
AcRTDxfName
1000
AM_DWGMGR_NAME
1000
AcRTDxfName
1000
AM_DWGMGR_NAME
  0
ACAD_PROXY_OBJECT
  5
9B
102
{ACAD_REACTORS
330
C
102
}
330
C
100
AcDbProxyObject
 90
      499
 91
      522
 95
   393235
 70
     0
 93
      114
310
00000042800000000000000000003F
 94
        0
1001
ACAD
1000
AcRTDxfName
1000
AcAdGrefModule
1000
AcRTDxfName
1000
AcAdGrefModule
  0
ACAD_PROXY_OBJECT
  5
9A
102
{ACAD_REACTORS
330
C
102
}
330
C
100
AcDbProxyObject
 90
      499
 91
      521
 95
   393235
 70
     0
 93
        8
310
000C
330
99
 94
        0
1001
ACAD
1000
AcRTDxfName
1000
AM_HNTEMPLATE_MGR_NAME
1000
AcRTDxfName
1000
AM_HNTEMPLATE_MGR_NAME
  0
ACAD_PROXY_OBJECT
  5
89
102
{ACAD_REACTORS
330
C
102
}
330
C
100
AcDbProxyObject
 90
      499
 91
      511
 95
   393235
 70
     0
 93
      104
310
9094410100000000000000000000
330
8A
330
8B
330
8C
330
8D
330
8E
330
8F
330
90
330
91
330
92
 94
        0
1001
ACAD
1000
AcRTDxfName
1000
"IM_SYSVAR_MAN"
1000
AcRTDxfName
1000
"IM_SYSVAR_MAN"
  0
ACAD_PROXY_OBJECT
  5
83
102
{ACAD_REACTORS
330
C
102
}
330
C
100
AcDbProxyObject
 90
      499
 91
      505
 95
   393235
 70
     0
 93
       34
310
010000407F
 94
        0
1001
ACAD
1000
AcRTDxfName
1000
AmiMaster
1000
AcRTDxfName
1000
AmiMaster
  0
ACAD_PROXY_OBJECT
  5
C0
102
{ACAD_REACTORS
330
C
102
}
330
C
100
AcDbProxyObject
 90
      499
 91
      528
 95
   393235
 70
     0
 93
       58
310
010200420000003F
330
C8
330
CE
330
C9
 94
        0
1001
ACAD
1000
AcRTDxfName
1000
ACAMPROJECT
1000
AcRTDxfName
1000
ACAMPROJECT
  0
ACAD_PROXY_OBJECT
  5
BB
102
{ACAD_REACTORS
330
C
102
}
330
C
100
AcDbProxyObject
 90
      499
 91
      511
 95
   393235
 70
     0
 93
       64
310
904441010000000082
330
BC
330
BD
330
BE
330
BF
 94
        0
1001
ACAD
1000
AcRTDxfName
1000
"IM_SYSVAR_MAN"
1000
AcRTDxfName
1000
"IM_SYSVAR_MAN"
  0
XRECORD
  5
38CC
102
{ACAD_REACTORS
330
C
102
}
330
C
100
AcDbXrecord
280
     1
  1
DWGPROPS COOKIE
  2

  3

  4

  6

  7

  8
kleemann
  9

300
=
301
=
302
=
303
=
304
=
305
=
306
=
307
=
308
=
309
=
 40
0.0638258333333333
 41
2450973.315909248
 42
2457331.586649618
  1

 90
        0
  0
DICTIONARY
  5
3C
102
{ACAD_REACTORS
330
C
102
}
330
C
100
AcDbDictionary
281
     1
  3
*A1
350
8E5
  3
*A10
350
904
  3
*A11
350
905
  3
*A12
350
959
  3
*A13
350
913
  3
*A14
350
921
  3
*A15
350
922
  3
*A16
350
93D
  3
*A17
350
92E
  3
*A18
350
92F
  3
*A19
350
930
  3
*A2
350
975
  3
*A20
350
8E6
  3
*A21
350
93E
  3
*A22
350
94A
  3
*A23
350
95A
  3
*A24
350
94B
  3
*A25
350
94C
  3
*A26
350
958
  3
*A27
350
911
  3
*A28
350
966
  3
*A29
350
967
  3
*A3
350
976
  3
*A30
350
968
  3
*A31
350
8E7
  3
*A32
350
974
  3
*A33
350
1E0A
  3
*A34
350
1E0B
  3
*A35
350
2859
  3
*A36
350
285A
  3
*A37
350
285B
  3
*A38
350
2B1E
  3
*A39
350
2B1F
  3
*A4
350
93C
  3
*A40
350
2B20
  3
*A5
350
8F5
  3
*A6
350
8F6
  3
*A7
350
8F7
  3
*A8
350
912
  3
*A9
350
903
  0
DICTIONARY
  5
3B
102
{ACAD_REACTORS
330
C
102
}
330
C
100
AcDbDictionary
281
     1
  3
$PH$AAAGERKL_B
350
15E1
  3
$PH$AAAISCHRIFTKOPF_B
350
E1A
  3
$PH$AAAK2H
350
1722
  3
$PH$AAATHL7+5
350
1A64
  3
$PH$AAAUHL7+5
350
1C1A
  3
PH_GRPMEMBERS
350
1706
  0
PH_VARS
  5
31
102
{ACAD_REACTORS
330
C
102
}
330
C
  0
DICTIONARY
  5
38AB
102
{ACAD_REACTORS
330
38AA
102
}
330
38AA
100
AcDbDictionary
281
     1
  0
XRECORD
  5
388C
102
{ACAD_REACTORS
330
388B
102
}
330
388B
100
AcDbXrecord
280
     1
290
     1
  0
XRECORD
  5
388E
102
{ACAD_REACTORS
330
388D
102
}
330
388D
100
AcDbXrecord
280
     1
290
     1
  0
XRECORD
  5
3890
102
{ACAD_REACTORS
330
388F
102
}
330
388F
100
AcDbXrecord
280
     1
290
     1
  0
XRECORD
  5
3892
102
{ACAD_REACTORS
330
3891
102
}
330
3891
100
AcDbXrecord
280
     1
290
     1
  0
XRECORD
  5
3894
102
{ACAD_REACTORS
330
3893
102
}
330
3893
100
AcDbXrecord
280
     1
290
     1
  0
XRECORD
  5
3896
102
{ACAD_REACTORS
330
3895
102
}
330
3895
100
AcDbXrecord
280
     1
290
     1
  0
XRECORD
  5
3898
102
{ACAD_REACTORS
330
3897
102
}
330
3897
100
AcDbXrecord
280
     1
290
     1
  0
XRECORD
  5
389A
102
{ACAD_REACTORS
330
3899
102
}
330
3899
100
AcDbXrecord
280
     1
290
     1
  0
XRECORD
  5
389C
102
{ACAD_REACTORS
330
389B
102
}
330
389B
100
AcDbXrecord
280
     1
290
     1
  0
XRECORD
  5
389E
102
{ACAD_REACTORS
330
389D
102
}
330
389D
100
AcDbXrecord
280
     1
290
     1
  0
XRECORD
  5
38A0
102
{ACAD_REACTORS
330
389F
102
}
330
389F
100
AcDbXrecord
280
     1
290
     1
  0
XRECORD
  5
38A2
102
{ACAD_REACTORS
330
38A1
102
}
330
38A1
100
AcDbXrecord
280
     1
290
     1
  0
XRECORD
  5
38A4
102
{ACAD_REACTORS
330
38A3
102
}
330
38A3
100
AcDbXrecord
280
     1
290
     1
  0
XRECORD
  5
38A6
102
{ACAD_REACTORS
330
38A5
102
}
330
38A5
100
AcDbXrecord
280
     1
290
     1
  0
GROUP
  5
1926
102
{ACAD_REACTORS
330
D
102
}
330
D
100
AcDbGroup
300

 70
     0
 71
     0
  0
GROUP
  5
3D
102
{ACAD_REACTORS
330
D
102
}
330
D
100
AcDbGroup
300

 70
     0
 71
     0
  0
LAYOUT
  5
A66
102
{ACAD_XDICTIONARY
360
38CE
102
}
102
{ACAD_REACTORS
330
A63
102
}
330
A63
100
AcDbPlotSettings
  1

  2
C:\user\Programme\Autodesk\MDT6\plotters\DWF ePlot (optimized for plotting).pc3
  4

  6

 40
0.0
 41
0.0
 42
0.0
 43
0.0
 44
0.0
 45
0.0
 46
0.0
 47
0.0
 48
0.0
 49
0.0
140
0.0
141
0.0
142
1.0
143
1.0
 70
   688
 72
     0
 73
     0
 74
     5
  7

 75
    16
147
1.0
148
0.0
149
0.0
100
AcDbLayout
  1
Layout1
 70
     1
 71
     1
 10
0.0
 20
0.0
 11
420.0
 21
297.0
 12
0.0
 22
0.0
 32
0.0
 14
1.000000000000000E+20
 24
1.000000000000000E+20
 34
1.000000000000000E+20
 15
-1.000000000000000E+20
 25
-1.000000000000000E+20
 35
-1.000000000000000E+20
146
0.0
 13
0.0
 23
0.0
 33
0.0
 16
1.0
 26
0.0
 36
0.0
 17
0.0
 27
1.0
 37
0.0
 76
     0
330
17
  0
LAYOUT
  5
A65
102
{ACAD_XDICTIONARY
360
38B0
102
}
102
{ACAD_REACTORS
330
A63
102
}
330
A63
100
AcDbPlotSettings
  1

  2
none_device
  4
Letter_(8.50_x_11.00_Inches)
  6

 40
6.349999904632568
 41
6.349999904632568
 42
6.350006103515625
 43
6.350006103515625
 44
215.8999938964844
 45
279.3999938964844
 46
0.0
 47
0.0
 48
0.0
 49
0.0
140
0.0
141
0.0
142
1.0
143
75.20187695144731
 70
 11952
 72
     0
 73
     1
 74
     0
  7

 75
     0
147
0.013297540440987
148
2484.369836065571
149
11.85333333333338
100
AcDbLayout
  1
Model
 70
     1
 71
     0
 10
0.0
 20
0.0
 11
12.0
 21
9.0
 12
0.0
 22
0.0
 32
0.0
 14
0.0
 24
0.0
 34
0.0
 15
0.0
 25
0.0
 35
0.0
146
0.0
 13
0.0
 23
0.0
 33
0.0
 16
1.0
 26
0.0
 36
0.0
 17
0.0
 27
1.0
 37
0.0
 76
     0
330
1A
331
18C7
1001
ACAD_PSEXT
1000
Kein
1000
Kein
1000
Nicht anwendbar
1000
Das Layout wird erst geplottet, wenn ein neuer Plotter-Konfigurationsname ausgewählt wird.
1070
     0
  0
MATERIAL
  5
18D9
102
{ACAD_XDICTIONARY
360
18DA
102
}
102
{ACAD_REACTORS
330
14AF
102
}
330
14AF
100
AcDbMaterial
  1
ByBlock
 72
     0
 43
0.0208333333333333
 43
0.0
 43
0.0
 43
0.0
 43
0.0
 43
0.0208333333333333
 43
0.0
 43
0.0
 43
0.0
 43
0.0
 43
1.0
 43
0.0
 43
0.0
 43
0.0
 43
0.0
 43
1.0
 77
     0
 47
0.0208333333333333
 47
0.0
 47
0.0
 47
0.0
 47
0.0
 47
0.0208333333333333
 47
0.0
 47
0.0
 47
0.0
 47
0.0
 47
1.0
 47
0.0
 47
0.0
 47
0.0
 47
0.0
 47
1.0
171
     0
 49
0.0208333333333333
 49
0.0
 49
0.0
 49
0.0
 49
0.0
 49
0.0208333333333333
 49
0.0
 49
0.0
 49
0.0
 49
0.0
 49
1.0
 49
0.0
 49
0.0
 49
0.0
 49
0.0
 49
1.0
175
     0
142
0.0208333333333333
142
0.0
142
0.0
142
0.0
142
0.0
142
0.0208333333333333
142
0.0
142
0.0
142
0.0
142
0.0
142
1.0
142
0.0
142
0.0
142
0.0
142
0.0
142
1.0
179
     0
144
0.0208333333333333
144
0.0
144
0.0
144
0.0
144
0.0
144
0.0208333333333333
144
0.0
144
0.0
144
0.0
144
0.0
144
1.0
144
0.0
144
0.0
144
0.0
144
0.0
144
1.0
147
0.0208333333333333
147
0.0
147
0.0
147
0.0
147
0.0
147
0.0208333333333333
147
0.0
147
0.0
147
0.0
147
0.0
147
1.0
147
0.0
147
0.0
147
0.0
147
0.0
147
1.0
  0
MATERIAL
  5
18D1
102
{ACAD_XDICTIONARY
360
18D2
102
}
102
{ACAD_REACTORS
330
14AF
102
}
330
14AF
100
AcDbMaterial
  1
ByLayer
 72
     0
 43
0.0208333333333333
 43
0.0
 43
0.0
 43
0.0
 43
0.0
 43
0.0208333333333333
 43
0.0
 43
0.0
 43
0.0
 43
0.0
 43
1.0
 43
0.0
 43
0.0
 43
0.0
 43
0.0
 43
1.0
 77
     0
 47
0.0208333333333333
 47
0.0
 47
0.0
 47
0.0
 47
0.0
 47
0.0208333333333333
 47
0.0
 47
0.0
 47
0.0
 47
0.0
 47
1.0
 47
0.0
 47
0.0
 47
0.0
 47
0.0
 47
1.0
171
     0
 49
0.0208333333333333
 49
0.0
 49
0.0
 49
0.0
 49
0.0
 49
0.0208333333333333
 49
0.0
 49
0.0
 49
0.0
 49
0.0
 49
1.0
 49
0.0
 49
0.0
 49
0.0
 49
0.0
 49
1.0
175
     0
142
0.0208333333333333
142
0.0
142
0.0
142
0.0
142
0.0
142
0.0208333333333333
142
0.0
142
0.0
142
0.0
142
0.0
142
1.0
142
0.0
142
0.0
142
0.0
142
0.0
142
1.0
179
     0
144
0.0208333333333333
144
0.0
144
0.0
144
0.0
144
0.0
144
0.0208333333333333
144
0.0
144
0.0
144
0.0
144
0.0
144
1.0
144
0.0
144
0.0
144
0.0
144
0.0
144
1.0
147
0.0208333333333333
147
0.0
147
0.0
147
0.0
147
0.0
147
0.0208333333333333
147
0.0
147
0.0
147
0.0
147
0.0
147
1.0
147
0.0
147
0.0
147
0.0
147
0.0
147
1.0
  0
MATERIAL
  5
18E1
102
{ACAD_XDICTIONARY
360
18E2
102
}
102
{ACAD_REACTORS
330
14AF
102
}
330
14AF
100
AcDbMaterial
  1
Global
 72
     0
 43
0.0208333333333333
 43
0.0
 43
0.0
 43
0.0
 43
0.0
 43
0.0208333333333333
 43
0.0
 43
0.0
 43
0.0
 43
0.0
 43
1.0
 43
0.0
 43
0.0
 43
0.0
 43
0.0
 43
1.0
 77
     0
 47
0.0208333333333333
 47
0.0
 47
0.0
 47
0.0
 47
0.0
 47
0.0208333333333333
 47
0.0
 47
0.0
 47
0.0
 47
0.0
 47
1.0
 47
0.0
 47
0.0
 47
0.0
 47
0.0
 47
1.0
171
     0
 49
0.0208333333333333
 49
0.0
 49
0.0
 49
0.0
 49
0.0
 49
0.0208333333333333
 49
0.0
 49
0.0
 49
0.0
 49
0.0
 49
1.0
 49
0.0
 49
0.0
 49
0.0
 49
0.0
 49
1.0
175
     0
142
0.0208333333333333
142
0.0
142
0.0
142
0.0
142
0.0
142
0.0208333333333333
142
0.0
142
0.0
142
0.0
142
0.0
142
1.0
142
0.0
142
0.0
142
0.0
142
0.0
142
1.0
179
     0
144
0.0208333333333333
144
0.0
144
0.0
144
0.0
144
0.0
144
0.0208333333333333
144
0.0
144
0.0
144
0.0
144
0.0
144
1.0
144
0.0
144
0.0
144
0.0
144
0.0
144
1.0
147
0.0208333333333333
147
0.0
147
0.0
147
0.0
147
0.0
147
0.0208333333333333
147
0.0
147
0.0
147
0.0
147
0.0
147
1.0
147
0.0
147
0.0
147
0.0
147
0.0
147
1.0
  0
MLEADERSTYLE
  5
1922
102
{ACAD_REACTORS
330
1921
102
}
330
1921
100
AcDbMLeaderStyle
170
     2
171
     1
172
     0
 90
        2
 40
0.0
 41
0.0
173
     1
 91
-1056964608
340
14
 92
       -2
290
     1
 42
0.09
291
     1
 43
0.36
  3
Standard
 44
0.18
300

342
10
174
     1
178
     6
175
     1
176
     0
 93
-1056964608
 45
0.18
292
     0
297
     0
 46
0.18
 94
-1056964608
 47
1.0
 49
1.0
140
1.0
293
     1
141
0.0
294
     1
177
     0
142
1.0
295
     0
296
     0
143
0.125
1001
ACAD_MLEADERVER
1070
     2
  0
MLINESTYLE
  5
13
102
{ACAD_REACTORS
330
E
102
}
330
E
100
AcDbMlineStyle
  2
STANDARD
 70
     0
  3

 62
     0
 51
90.0
 52
90.0
 71
     2
 49
0.5
 62
   256
  6
BYLAYER
 49
-0.5
 62
   256
  6
BYLAYER
  0
ACDBPLACEHOLDER
  5
A62
102
{ACAD_REACTORS
330
A61
102
}
330
A61
  0
SCALE
  5
1900
102
{ACAD_REACTORS
330
18FF
102
}
330
18FF
100
AcDbScale
 70
     0
300
1:1
140
1.0
141
1.0
290
     1
  0
SCALE
  5
1901
102
{ACAD_REACTORS
330
18FF
102
}
330
18FF
100
AcDbScale
 70
     0
300
1:2
140
1.0
141
2.0
290
     0
  0
SCALE
  5
1902
102
{ACAD_REACTORS
330
18FF
102
}
330
18FF
100
AcDbScale
 70
     0
300
1:4
140
1.0
141
4.0
290
     0
  0
SCALE
  5
1903
102
{ACAD_REACTORS
330
18FF
102
}
330
18FF
100
AcDbScale
 70
     0
300
1:5
140
1.0
141
5.0
290
     0
  0
SCALE
  5
1904
102
{ACAD_REACTORS
330
18FF
102
}
330
18FF
100
AcDbScale
 70
     0
300
1:8
140
1.0
141
8.0
290
     0
  0
SCALE
  5
1905
102
{ACAD_REACTORS
330
18FF
102
}
330
18FF
100
AcDbScale
 70
     0
300
1:10
140
1.0
141
10.0
290
     0
  0
SCALE
  5
1906
102
{ACAD_REACTORS
330
18FF
102
}
330
18FF
100
AcDbScale
 70
     0
300
1:16
140
1.0
141
16.0
290
     0
  0
SCALE
  5
1907
102
{ACAD_REACTORS
330
18FF
102
}
330
18FF
100
AcDbScale
 70
     0
300
1:20
140
1.0
141
20.0
290
     0
  0
SCALE
  5
1908
102
{ACAD_REACTORS
330
18FF
102
}
330
18FF
100
AcDbScale
 70
     0
300
1:30
140
1.0
141
30.0
290
     0
  0
SCALE
  5
1909
102
{ACAD_REACTORS
330
18FF
102
}
330
18FF
100
AcDbScale
 70
     0
300
1:40
140
1.0
141
40.0
290
     0
  0
SCALE
  5
190A
102
{ACAD_REACTORS
330
18FF
102
}
330
18FF
100
AcDbScale
 70
     0
300
1:50
140
1.0
141
50.0
290
     0
  0
SCALE
  5
190B
102
{ACAD_REACTORS
330
18FF
102
}
330
18FF
100
AcDbScale
 70
     0
300
1:100
140
1.0
141
100.0
290
     0
  0
SCALE
  5
190C
102
{ACAD_REACTORS
330
18FF
102
}
330
18FF
100
AcDbScale
 70
     0
300
2:1
140
2.0
141
1.0
290
     0
  0
SCALE
  5
190D
102
{ACAD_REACTORS
330
18FF
102
}
330
18FF
100
AcDbScale
 70
     0
300
4:1
140
4.0
141
1.0
290
     0
  0
SCALE
  5
190E
102
{ACAD_REACTORS
330
18FF
102
}
330
18FF
100
AcDbScale
 70
     0
300
8:1
140
8.0
141
1.0
290
     0
  0
SCALE
  5
190F
102
{ACAD_REACTORS
330
18FF
102
}
330
18FF
100
AcDbScale
 70
     0
300
10:1
140
10.0
141
1.0
290
     0
  0
SCALE
  5
1910
102
{ACAD_REACTORS
330
18FF
102
}
330
18FF
100
AcDbScale
 70
     0
300
100:1
140
100.0
141
1.0
290
     0
  0
SCALE
  5
1911
102
{ACAD_REACTORS
330
18FF
102
}
330
18FF
100
AcDbScale
 70
     0
300
1/128" = 1'-0"
140
0.0078125
141
12.0
290
     0
  0
SCALE
  5
1912
102
{ACAD_REACTORS
330
18FF
102
}
330
18FF
100
AcDbScale
 70
     0
300
1/64" = 1'-0"
140
0.015625
141
12.0
290
     0
  0
SCALE
  5
1913
102
{ACAD_REACTORS
330
18FF
102
}
330
18FF
100
AcDbScale
 70
     0
300
1/32" = 1'-0"
140
0.03125
141
12.0
290
     0
  0
SCALE
  5
1914
102
{ACAD_REACTORS
330
18FF
102
}
330
18FF
100
AcDbScale
 70
     0
300
1/16" = 1'-0"
140
0.0625
141
12.0
290
     0
  0
SCALE
  5
1915
102
{ACAD_REACTORS
330
18FF
102
}
330
18FF
100
AcDbScale
 70
     0
300
3/32" = 1'-0"
140
0.09375
141
12.0
290
     0
  0
SCALE
  5
1916
102
{ACAD_REACTORS
330
18FF
102
}
330
18FF
100
AcDbScale
 70
     0
300
1/8" = 1'-0"
140
0.125
141
12.0
290
     0
  0
SCALE
  5
1917
102
{ACAD_REACTORS
330
18FF
102
}
330
18FF
100
AcDbScale
 70
     0
300
3/16" = 1'-0"
140
0.1875
141
12.0
290
     0
  0
SCALE
  5
1918
102
{ACAD_REACTORS
330
18FF
102
}
330
18FF
100
AcDbScale
 70
     0
300
1/4" = 1'-0"
140
0.25
141
12.0
290
     0
  0
SCALE
  5
1919
102
{ACAD_REACTORS
330
18FF
102
}
330
18FF
100
AcDbScale
 70
     0
300
3/8" = 1'-0"
140
0.375
141
12.0
290
     0
  0
SCALE
  5
191A
102
{ACAD_REACTORS
330
18FF
102
}
330
18FF
100
AcDbScale
 70
     0
300
1/2" = 1'-0"
140
0.5
141
12.0
290
     0
  0
SCALE
  5
191B
102
{ACAD_REACTORS
330
18FF
102
}
330
18FF
100
AcDbScale
 70
     0
300
3/4" = 1'-0"
140
0.75
141
12.0
290
     0
  0
SCALE
  5
191C
102
{ACAD_REACTORS
330
18FF
102
}
330
18FF
100
AcDbScale
 70
     0
300
1" = 1'-0"
140
1.0
141
12.0
290
     0
  0
SCALE
  5
191D
102
{ACAD_REACTORS
330
18FF
102
}
330
18FF
100
AcDbScale
 70
     0
300
1-1/2" = 1'-0"
140
1.5
141
12.0
290
     0
  0
SCALE
  5
191E
102
{ACAD_REACTORS
330
18FF
102
}
330
18FF
100
AcDbScale
 70
     0
300
3" = 1'-0"
140
3.0
141
12.0
290
     0
  0
SCALE
  5
191F
102
{ACAD_REACTORS
330
18FF
102
}
330
18FF
100
AcDbScale
 70
     0
300
6" = 1'-0"
140
6.0
141
12.0
290
     0
  0
SCALE
  5
1920
102
{ACAD_REACTORS
330
18FF
102
}
330
18FF
100
AcDbScale
 70
     0
300
1'-0" = 1'-0"
140
12.0
141
12.0
290
     0
  0
TABLESTYLE
  5
18FE
102
{ACAD_XDICTIONARY
360
38C9
102
}
102
{ACAD_REACTORS
330
18FD
102
}
330
18FD
100
AcDbTableStyle
  3
Standard
 70
     0
 71
     0
 40
0.06
 41
0.06
280
     0
281
     0
  7
STANDARD
140
0.18
170
     2
 62
     0
 63
     7
283
     0
274
    -2
284
     1
 64
     0
275
    -2
285
     1
 65
     0
276
    -2
286
     1
 66
     0
277
    -2
287
     1
 67
     0
278
    -2
288
     1
 68
     0
279
    -2
289
     1
 69
     0
  7
STANDARD
140
0.25
170
     5
 62
     0
 63
     7
283
     0
274
    -2
284
     1
 64
     0
275
    -2
285
     1
 65
     0
276
    -2
286
     1
 66
     0
277
    -2
287
     1
 67
     0
278
    -2
288
     1
 68
     0
279
    -2
289
     1
 69
     0
  7
STANDARD
140
0.18
170
     5
 62
     0
 63
     7
283
     0
274
    -2
284
     1
 64
     0
275
    -2
285
     1
 65
     0
276
    -2
286
     1
 66
     0
277
    -2
287
     1
 67
     0
278
    -2
288
     1
 68
     0
279
    -2
289
     1
 69
     0
  0
VISUALSTYLE
  5
18EF
102
{ACAD_XDICTIONARY
360
38DD
102
}
102
{ACAD_REACTORS
330
18E9
102
}
330
18E9
100
AcDbVisualStyle
  2
2dWireframe
 70
     4
 71
     0
 72
     2
 73
     0
 90
        0
 40
-0.6
 41
-30.0
 62
     5
 63
     7
 74
     1
 91
        4
 64
     7
 65
   257
 75
     1
175
     1
 42
1.0
 92
        0
 66
   257
 43
1.0
 76
     1
 77
     6
 78
     2
 67
     7
 79
     5
170
     0
171
     0
290
     0
174
     0
 93
        1
 44
0.0
173
     0
291
     0
 45
0.0
1001
ACAD
1000
AcDbSavedByObjectVersion
1070
     0
  0
VISUALSTYLE
  5
18F1
102
{ACAD_XDICTIONARY
360
38E1
102
}
102
{ACAD_REACTORS
330
18E9
102
}
330
18E9
100
AcDbVisualStyle
  2
3D Hidden
 70
     6
 71
     1
 72
     2
 73
     2
 90
        0
 40
-0.6
 41
-30.0
 62
     5
 63
     7
 74
     2
 91
        2
 64
     7
 65
   257
 75
     2
175
     1
 42
179.0
 92
        0
 66
   257
 43
1.0
 76
     1
 77
     6
 78
     2
 67
     7
 79
     3
170
     0
171
     0
290
     0
174
     0
 93
        1
 44
0.0
173
     0
291
     0
 45
0.0
1001
ACAD
1000
AcDbSavedByObjectVersion
1070
     0
  0
VISUALSTYLE
  5
18F0
102
{ACAD_XDICTIONARY
360
38DF
102
}
102
{ACAD_REACTORS
330
18E9
102
}
330
18E9
100
AcDbVisualStyle
  2
3dWireframe
 70
     5
 71
     0
 72
     2
 73
     0
 90
        0
 40
-0.6
 41
-30.0
 62
     5
 63
     7
 74
     1
 91
        4
 64
     7
 65
   257
 75
     1
175
     1
 42
1.0
 92
        0
 66
   257
 43
1.0
 76
     1
 77
     6
 78
     2
 67
     7
 79
     5
170
     0
171
     0
290
     0
174
     0
 93
        1
 44
0.0
173
     0
291
     0
 45
0.0
1001
ACAD
1000
AcDbSavedByObjectVersion
1070
     0
  0
VISUALSTYLE
  5
18EE
102
{ACAD_XDICTIONARY
360
38DB
102
}
102
{ACAD_REACTORS
330
18E9
102
}
330
18E9
100
AcDbVisualStyle
  2
Basic
 70
     7
 71
     1
 72
     0
 73
     1
 90
        0
 40
-0.6
 41
-30.0
 62
     5
 63
     7
 74
     0
 91
        4
 64
     7
 65
   257
 75
     1
175
     1
 42
1.0
 92
        8
 66
     7
 43
1.0
 76
     1
 77
     6
 78
     2
 67
     7
 79
     5
170
     0
171
     0
290
     0
174
     0
 93
        1
 44
0.0
173
     0
291
     1
 45
0.0
1001
ACAD
1000
AcDbSavedByObjectVersion
1070
     0
  0
VISUALSTYLE
  5
18F5
102
{ACAD_XDICTIONARY
360
38E9
102
}
102
{ACAD_REACTORS
330
18E9
102
}
330
18E9
100
AcDbVisualStyle
  2
Brighten
 70
    12
 71
     2
 72
     2
 73
     0
 90
        0
 40
-0.6
 41
-30.0
 62
     5
 63
     7
 74
     1
 91
        4
 64
     7
 65
   257
 75
     1
175
     1
 42
1.0
 92
        8
 66
     7
 43
1.0
 76
     1
 77
     6
 78
     2
 67
     7
 79
     5
170
     0
171
     0
290
     0
174
     0
 93
        1
 44
50.0
173
     0
291
     1
 45
0.0
1001
ACAD
1000
AcDbSavedByObjectVersion
1070
     0
  0
VISUALSTYLE
  5
18F9
102
{ACAD_XDICTIONARY
360
38F1
102
}
102
{ACAD_REACTORS
330
18E9
102
}
330
18E9
100
AcDbVisualStyle
  2
ColorChange
 70
    16
 71
     2
 72
     2
 73
     3
 90
        0
 40
-0.6
 41
-30.0
 62
     5
 63
     8
 74
     1
 91
        4
 64
     7
 65
   257
 75
     1
175
     1
 42
1.0
 92
        8
 66
     8
 43
1.0
 76
     1
 77
     6
 78
     2
 67
     7
 79
     5
170
     0
171
     0
290
     0
174
     0
 93
        1
 44
0.0
173
     0
291
     1
 45
0.0
1001
ACAD
1000
AcDbSavedByObjectVersion
1070
     0
  0
VISUALSTYLE
  5
18F2
102
{ACAD_XDICTIONARY
360
38E3
102
}
102
{ACAD_REACTORS
330
18E9
102
}
330
18E9
100
AcDbVisualStyle
  2
Conceptual
 70
     9
 71
     3
 72
     2
 73
     0
 90
        0
 40
-0.6
 41
-30.0
 62
     5
 63
     7
 74
     2
 91
        2
 64
     7
 65
   257
 75
     1
175
     1
 42
179.0
 92
        8
 66
     7
 43
1.0
 76
     1
 77
     6
 78
     2
 67
     7
 79
     3
170
     0
171
     0
290
     0
174
     0
 93
        1
 44
0.0
173
     0
291
     0
 45
0.0
1001
ACAD
1000
AcDbSavedByObjectVersion
1070
     0
  0
VISUALSTYLE
  5
18F4
102
{ACAD_XDICTIONARY
360
38E7
102
}
102
{ACAD_REACTORS
330
18E9
102
}
330
18E9
100
AcDbVisualStyle
  2
Dim
 70
    11
 71
     2
 72
     2
 73
     0
 90
        0
 40
-0.6
 41
-30.0
 62
     5
 63
     7
 74
     1
 91
        4
 64
     7
 65
   257
 75
     1
175
     1
 42
1.0
 92
        8
 66
     7
 43
1.0
 76
     1
 77
     6
 78
     2
 67
     7
 79
     5
170
     0
171
     0
290
     0
174
     0
 93
        1
 44
-50.0
173
     0
291
     1
 45
0.0
1001
ACAD
1000
AcDbSavedByObjectVersion
1070
     0
  0
VISUALSTYLE
  5
18FC
102
{ACAD_XDICTIONARY
360
38F7
102
}
102
{ACAD_REACTORS
330
18E9
102
}
330
18E9
100
AcDbVisualStyle
  2
EdgeColorOff
 70
    22
 71
     2
 72
     2
 73
     0
 90
        0
 40
-0.6
 41
-30.0
 62
     5
 63
     7
 74
     1
 91
        4
 64
     7
 65
   257
 75
     1
175
     1
 42
1.0
 92
        8
 66
     7
 43
1.0
 76
     1
 77
     6
 78
     2
 67
     7
 79
     5
170
     0
171
     0
290
     0
174
     0
 93
        1
 44
0.0
173
     0
291
     1
 45
0.0
1001
ACAD
1000
AcDbSavedByObjectVersion
1070
     0
  0
VISUALSTYLE
  5
18F8
102
{ACAD_XDICTIONARY
360
38EF
102
}
102
{ACAD_REACTORS
330
18E9
102
}
330
18E9
100
AcDbVisualStyle
  2
Facepattern
 70
    15
 71
     2
 72
     2
 73
     0
 90
        0
 40
-0.6
 41
-30.0
 62
     5
 63
     7
 74
     1
 91
        4
 64
     7
 65
   257
 75
     1
175
     1
 42
1.0
 92
        8
 66
     7
 43
1.0
 76
     1
 77
     6
 78
     2
 67
     7
 79
     5
170
     0
171
     0
290
     0
174
     0
 93
        1
 44
0.0
173
     0
291
     1
 45
0.0
1001
ACAD
1000
AcDbSavedByObjectVersion
1070
     0
  0
VISUALSTYLE
  5
18EA
102
{ACAD_XDICTIONARY
360
38D3
102
}
102
{ACAD_REACTORS
330
18E9
102
}
330
18E9
100
AcDbVisualStyle
  2
Flat
 70
     0
 71
     2
 72
     1
 73
     1
 90
        2
 40
-0.6
 41
30.0
 62
     5
 63
     7
 74
     0
 91
        4
 64
     7
 65
   257
 75
     1
175
     1
 42
1.0
 92
        8
 66
     7
 43
1.0
 76
     1
 77
     6
 78
     2
 67
     7
 79
     5
170
     0
171
     0
290
     0
174
     0
 93
       13
 44
0.0
173
     0
291
     1
 45
0.0
1001
ACAD
1000
AcDbSavedByObjectVersion
1070
     0
  0
VISUALSTYLE
  5
18EB
102
{ACAD_XDICTIONARY
360
38D5
102
}
102
{ACAD_REACTORS
330
18E9
102
}
330
18E9
100
AcDbVisualStyle
  2
FlatWithEdges
 70
     1
 71
     2
 72
     1
 73
     1
 90
        2
 40
-0.6
 41
30.0
 62
     5
 63
     7
 74
     1
 91
        4
 64
     7
 65
   257
 75
     1
175
     1
 42
1.0
 92
        0
 66
   257
 43
1.0
 76
     1
 77
     6
 78
     2
 67
     7
 79
     5
170
     0
171
     0
290
     0
174
     0
 93
       13
 44
0.0
173
     0
291
     1
 45
0.0
1001
ACAD
1000
AcDbSavedByObjectVersion
1070
     0
  0
VISUALSTYLE
  5
18EC
102
{ACAD_XDICTIONARY
360
38D7
102
}
102
{ACAD_REACTORS
330
18E9
102
}
330
18E9
100
AcDbVisualStyle
  2
Gouraud
 70
     2
 71
     2
 72
     2
 73
     1
 90
        2
 40
-0.6
 41
30.0
 62
     5
 63
     7
 74
     0
 91
        4
 64
     7
 65
   257
 75
     1
175
     1
 42
1.0
 92
        0
 66
     7
 43
1.0
 76
     1
 77
     6
 78
     2
 67
     7
 79
     5
170
     0
171
     0
290
     0
174
     0
 93
       13
 44
0.0
173
     0
291
     1
 45
0.0
1001
ACAD
1000
AcDbSavedByObjectVersion
1070
     0
  0
VISUALSTYLE
  5
18ED
102
{ACAD_XDICTIONARY
360
38D9
102
}
102
{ACAD_REACTORS
330
18E9
102
}
330
18E9
100
AcDbVisualStyle
  2
GouraudWithEdges
 70
     3
 71
     2
 72
     2
 73
     1
 90
        2
 40
-0.6
 41
30.0
 62
     5
 63
     7
 74
     1
 91
        4
 64
     7
 65
   257
 75
     1
175
     1
 42
1.0
 92
        0
 66
   257
 43
1.0
 76
     1
 77
     6
 78
     2
 67
     7
 79
     5
170
     0
171
     0
290
     0
174
     0
 93
       13
 44
0.0
173
     0
291
     1
 45
0.0
1001
ACAD
1000
AcDbSavedByObjectVersion
1070
     0
  0
VISUALSTYLE
  5
18FA
102
{ACAD_XDICTIONARY
360
38F3
102
}
102
{ACAD_REACTORS
330
18E9
102
}
330
18E9
100
AcDbVisualStyle
  2
JitterOff
 70
    20
 71
     2
 72
     2
 73
     0
 90
        0
 40
-0.6
 41
-30.0
 62
     5
 63
     7
 74
     1
 91
        4
 64
     7
 65
   257
 75
     1
175
     1
 42
1.0
 92
       10
 66
     7
 43
1.0
 76
     1
 77
     6
 78
     2
 67
     7
 79
     5
170
     0
171
     0
290
     0
174
     0
 93
        1
 44
0.0
173
     0
291
     1
 45
0.0
1001
ACAD
1000
AcDbSavedByObjectVersion
1070
     0
  0
VISUALSTYLE
  5
18F7
102
{ACAD_XDICTIONARY
360
38ED
102
}
102
{ACAD_REACTORS
330
18E9
102
}
330
18E9
100
AcDbVisualStyle
  2
Linepattern
 70
    14
 71
     2
 72
     2
 73
     0
 90
        0
 40
-0.6
 41
-30.0
 62
     5
 63
     7
 74
     1
 91
        4
 64
     7
 65
   257
 75
     7
175
     7
 42
1.0
 92
        8
 66
     7
 43
1.0
 76
     1
 77
     6
 78
     2
 67
     7
 79
     5
170
     0
171
     0
290
     0
174
     0
 93
        1
 44
0.0
173
     0
291
     1
 45
0.0
1001
ACAD
1000
AcDbSavedByObjectVersion
1070
     0
  0
VISUALSTYLE
  5
18FB
102
{ACAD_XDICTIONARY
360
38F5
102
}
102
{ACAD_REACTORS
330
18E9
102
}
330
18E9
100
AcDbVisualStyle
  2
OverhangOff
 70
    21
 71
     2
 72
     2
 73
     0
 90
        0
 40
-0.6
 41
-30.0
 62
     5
 63
     7
 74
     1
 91
        4
 64
     7
 65
   257
 75
     1
175
     1
 42
1.0
 92
        9
 66
     7
 43
1.0
 76
     1
 77
     6
 78
     2
 67
     7
 79
     5
170
     0
171
     0
290
     0
174
     0
 93
        1
 44
0.0
173
     0
291
     1
 45
0.0
1001
ACAD
1000
AcDbSavedByObjectVersion
1070
     0
  0
VISUALSTYLE
  5
18F3
102
{ACAD_XDICTIONARY
360
38E5
102
}
102
{ACAD_REACTORS
330
18E9
102
}
330
18E9
100
AcDbVisualStyle
  2
Realistic
 70
     8
 71
     2
 72
     2
 73
     0
 90
        0
 40
-0.6
 41
-30.0
 62
     5
 63
     7
 74
     1
 91
        0
 64
     7
 65
   257
 75
     1
175
     1
 42
1.0
 92
        8
 66
     8
 43
1.0
 76
     1
 77
     6
 78
     2
 67
     7
 79
     5
170
     0
171
     0
290
     0
174
     0
 93
       13
 44
0.0
173
     0
291
     0
 45
0.0
1001
ACAD
1000
AcDbSavedByObjectVersion
1070
     0
  0
VISUALSTYLE
  5
18F6
102
{ACAD_XDICTIONARY
360
38EB
102
}
102
{ACAD_REACTORS
330
18E9
102
}
330
18E9
100
AcDbVisualStyle
  2
Thicken
 70
    13
 71
     2
 72
     2
 73
     0
 90
        0
 40
-0.6
 41
-30.0
 62
     5
 63
     7
 74
     1
 91
        4
 64
     7
 65
   257
 75
     1
175
     1
 42
1.0
 92
       12
 66
     7
 43
1.0
 76
     1
 77
     6
 78
     2
 67
     7
 79
     5
170
     0
171
     0
290
     0
174
     0
 93
        1
 44
0.0
173
     0
291
     1
 45
0.0
1001
ACAD
1000
AcDbSavedByObjectVersion
1070
     0
  0
ACAD_PROXY_OBJECT
  5
D2
330
0
100
AcDbProxyObject
 90
      499
 91
      538
 95
   393235
 70
     0
 93
      736
310
9084D2E312E3232336407014B7269BC41100000000000000E03F1EC52B91F85EA10FE1EC52B91F85EA10FD034153471EC52B91F85EA10FC000000FC83D797414650540C000000000000E03F3F2A7C749358940FC000000FC83D7974100
 94
        0
1001
ACAD
1000
AcRTDxfName
1000
ASSYSVARS
1000
AcRTDxfName
1000
ASSYSVARS
  0
DICTIONARYVAR
  5
38C5
102
{ACAD_REACTORS
330
A73
102
}
330
A73
100
DictionaryVariables
280
     0
  1
1:1
  0
DICTIONARYVAR
  5
38C4
102
{ACAD_REACTORS
330
A73
102
}
330
A73
100
DictionaryVariables
280
     0
  1
STANDARD
  0
DICTIONARYVAR
  5
38C3
102
{ACAD_REACTORS
330
A73
102
}
330
A73
100
DictionaryVariables
280
     0
  1
STANDARD
  0
DICTIONARYVAR
  5
A74
102
{ACAD_REACTORS
330
A73
102
}
330
A73
100
DictionaryVariables
280
     0
  1
1
  0
DICTIONARYVAR
  5
38C7
102
{ACAD_REACTORS
330
A73
102
}
330
A73
100
DictionaryVariables
280
     0
  1
0
  0
DICTIONARYVAR
  5
18CF
102
{ACAD_REACTORS
330
A73
102
}
330
A73
100
DictionaryVariables
280
     0
  1

  0
DICTIONARYVAR
  5
38C6
102
{ACAD_REACTORS
330
A73
102
}
330
A73
100
DictionaryVariables
280
     0
  1
127
  0
DICTIONARYVAR
  5
38C8
102
{ACAD_REACTORS
330
A73
102
}
330
A73
100
DictionaryVariables
280
     0
  1
2
  0
ACAD_PROXY_OBJECT
  5
85
330
0
100
AcDbProxyObject
 90
      499
 91
      507
 95
   393235
 70
     0
 93
      354
310
000000000000405AA6A9AA40504646174650142118B8C4B8C8C8CD9C0504646174650142118B8C4B8C8C8CD9FF
330
7F
330
86
330
87
330
89
330
0
330
0
 94
        0
1001
ACAD
1000
AcRTDxfName
1000
ADAPPL
1000
AcRTDxfName
1000
ADAPPL
  0
ACAD_PROXY_OBJECT
  5
86
330
0
100
AcDbProxyObject
 90
      499
 91
      508
 95
   393235
 70
     0
 93
      120
310
00009024410100000092080002A6A6FF
330
7F
330
96
330
95
330
0
 94
        0
1001
ACAD
1000
AcRTDxfName
1000
DEPMGR
1000
AcRTDxfName
1000
DEPMGR
  0
ACAD_PROXY_OBJECT
  5
87
330
0
100
AcDbProxyObject
 90
      499
 91
      509
 95
   393235
 70
     0
 93
       46
310
00000000920B
330
7F
330
0
330
88
 94
        0
1001
ACAD
1000
AcRTDxfName
1000
PARAMMGR
1000
AcRTDxfName
1000
PARAMMGR
  0
ACAD_PROXY_OBJECT
  5
88
330
0
100
AcDbProxyObject
 90
      499
 91
      510
 95
   393235
 70
     0
 93
       22
310
0000AB
330
7F
 94
        0
1001
ACAD
1000
AcRTDxfName
1000
PARAMSCOPE
1000
AcRTDxfName
1000
PARAMSCOPE
  0
ACAD_PROXY_OBJECT
  5
8A
330
0
100
AcDbProxyObject
 90
      499
 91
      512
 95
   393235
 70
     0
 93
      124
310
00000142905350D3D39114D414D6905F
330
7F
 94
        0
1001
ACAD
1000
AcRTDxfName
1000
SYSTEM_VAR_INT
1000
AcRTDxfName
1000
SYSTEM_VAR_INT
  0
ACAD_PROXY_OBJECT
  5
8B
330
0
100
AcDbProxyObject
 90
      499
 91
      512
 95
   393235
 70
     0
 93
      124
310
000001429053549553115353D111501F
330
7F
 94
        0
1001
ACAD
1000
AcRTDxfName
1000
SYSTEM_VAR_INT
1000
AcRTDxfName
1000
SYSTEM_VAR_INT
  0
ACAD_PROXY_OBJECT
  5
8C
330
0
100
AcDbProxyObject
 90
      499
 91
      512
 95
   393235
 70
     0
 93
      108
310
00000142105354D2D353D111501F
330
7F
 94
        0
1001
ACAD
1000
AcRTDxfName
1000
SYSTEM_VAR_INT
1000
AcRTDxfName
1000
SYSTEM_VAR_INT
  0
ACAD_PROXY_OBJECT
  5
8D
330
0
100
AcDbProxyObject
 90
      499
 91
      512
 95
   393235
 70
     0
 93
      140
310
000001435053511253511254D41353D1116F
330
7F
 94
        0
1001
ACAD
1000
AcRTDxfName
1000
SYSTEM_VAR_INT
1000
AcRTDxfName
1000
SYSTEM_VAR_INT
  0
ACAD_PROXY_OBJECT
  5
8E
330
0
100
AcDbProxyObject
 90
      499
 91
      513
 95
   393235
 70
     0
 93
      180
310
00000142905354D2D05391D513D300000000000001040F
330
7F
 94
        0
1001
ACAD
1000
AcRTDxfName
1000
SYSTEM_VAR_REAL
1000
AcRTDxfName
1000
SYSTEM_VAR_REAL
  0
ACAD_PROXY_OBJECT
  5
8F
330
0
100
AcDbProxyObject
 90
      499
 91
      514
 95
   393235
 70
     0
 93
      164
310
00000142505354D2D4D516531140505434F4E542AF
330
7F
 94
        0
1001
ACAD
1000
AcRTDxfName
1000
SYSTEM_VAR_STR
1000
AcRTDxfName
1000
SYSTEM_VAR_STR
  0
ACAD_PROXY_OBJECT
  5
90
330
0
100
AcDbProxyObject
 90
      499
 91
      512
 95
   393235
 70
     0
 93
      108
310
00000142105350D351111253501F
330
7F
 94
        0
1001
ACAD
1000
AcRTDxfName
1000
SYSTEM_VAR_INT
1000
AcRTDxfName
1000
SYSTEM_VAR_INT
  0
ACAD_PROXY_OBJECT
  5
91
330
0
100
AcDbProxyObject
 90
      499
 91
      514
 95
   393235
 70
     0
 93
      116
310
00000142505354105491925311406F
330
7F
 94
        0
1001
ACAD
1000
AcRTDxfName
1000
SYSTEM_VAR_STR
1000
AcRTDxfName
1000
SYSTEM_VAR_STR
  0
ACAD_PROXY_OBJECT
  5
92
330
0
100
AcDbProxyObject
 90
      499
 91
      512
 95
   393235
 70
     0
 93
      100
310
00000142105350D3D35414D5AF
330
7F
 94
        0
1001
ACAD
1000
AcRTDxfName
1000
SYSTEM_VAR_INT
1000
AcRTDxfName
1000
SYSTEM_VAR_INT
  0
ACAD_PROXY_OBJECT
  5
95
330
0
100
AcDbProxyObject
 90
      499
 91
      517
 95
   393235
 70
     0
 93
      164
310
000092090148200A00000440000FFFFFFFF000000F
330
7F
330
96
330
86
330
0
 94
        0
1001
ACAD
1000
AcRTDxfName
1000
ADBASE
1000
AcRTDxfName
1000
ADBASE
  0
ACAD_PROXY_OBJECT
  5
96
330
0
100
AcDbProxyObject
 90
      499
 91
      518
 95
   393235
 70
     0
 93
       82
310
000040520802482A80003F
330
7F
330
95
330
86
330
0
 94
        0
1001
ACAD
1000
AcRTDxfName
1000
BODYID
1000
AcRTDxfName
1000
BODYID
  0
ACAD_PROXY_OBJECT
  5
97
330
0
100
AcDbProxyObject
 90
      499
 91
      510
 95
   393235
 70
     0
 93
       22
310
0000AB
330
7F
 94
        0
1001
ACAD
1000
AcRTDxfName
1000
PARAMSCOPE
1000
AcRTDxfName
1000
PARAMSCOPE
  0
ACAD_PROXY_OBJECT
  5
98
330
0
100
AcDbProxyObject
 90
      499
 91
      519
 95
   393235
 70
     0
 93
       38
310
000000920B
330
7F
330
0
 94
        0
1001
ACAD
1000
AcRTDxfName
1000
WORKPLANEDISPLAYMGR
1000
AcRTDxfName
1000
WORKPLANEDISPLAYMGR
  0
ACAD_PROXY_OBJECT
  5
99
330
0
100
AcDbProxyObject
 90
      499
 91
      520
 95
   393235
 70
     0
 93
     3204
310
0000419208050A44555243485F424F4852014254D050D2D7D093D2148050C44555243485F5A594C494E440142D4D050D2D7D696531253910050B44555243485F4B4547454C014294D050D2D7D2D151D15310648201451EC94958C8094950535112504811155490D20B9F4051D7B252563202525414D4449412058202525414
310
D4445502054494546457D014F5EC94958C8094950535112504811155490D20B9F57141ED6965312539108094958C80949505350D112504816080949505350D09111540815125151915F405467B252563202525414D4449412058202525414D4445502054494546457D5C507B5A594C494E4420252563202525414D43444941
310
2058202525414D43424445502054494546457D014E5EC94958C8094950535112504811155490D20B9F57141ED2D151D15308094958C80949505350D112504816080949505350D4D05391C949591F405427B252563202525414D4449412058202525414D4445502054494546457D5C507B4B4547454C20252563202525414D4
310
34449412058202525414D4353414E472525647DF
330
7F
 94
        0
1001
ACAD
1000
AcRTDxfName
1000
ADHNTMPLT
1000
AcRTDxfName
1000
ADHNTMPLT
  0
ACAD_PROXY_OBJECT
  5
9C
330
0
100
AcDbProxyObject
 90
      499
 91
      523
 95
   393235
 70
     0
 93
      332
310
0000014119185D1940508442E312E32323362014119185D1940508442E312E323233624050100000000F
330
7F
330
9D
330
9F
330
A0
330
0
 94
        0
1001
ACAD
1000
AcRTDxfName
1000
AM_DRAWING_MGR
1000
AcRTDxfName
1000
AM_DRAWING_MGR
  0
ACAD_PROXY_OBJECT
  5
9D
330
0
100
AcDbProxyObject
 90
      499
 91
      524
 95
   393235
 70
     0
 93
       56
310
0000901441010000
330
7F
330
9E
 94
        0
1001
ACAD
1000
AcRTDxfName
1000
AM_DWG_DOCUMENT
1000
AcRTDxfName
1000
AM_DWG_DOCUMENT
  0
ACAD_PROXY_OBJECT
  5
9E
330
0
100
AcDbProxyObject
 90
      499
 91
      525
 95
   393235
 70
     0
 93
       40
310
0000A4410100
330
7F
 94
        0
1001
ACAD
1000
AcRTDxfName
1000
AM_DWG_SHEET
1000
AcRTDxfName
1000
AM_DWG_SHEET
  0
ACAD_PROXY_OBJECT
  5
9F
330
0
100
AcDbProxyObject
 90
      499
 91
      526
 95
   393235
 70
     0
 93
       68
310
0000A44101920A482F
330
7F
 94
        0
1001
ACAD
1000
AcRTDxfName
1000
AM_VIEWDIMPARMAP
1000
AcRTDxfName
1000
AM_VIEWDIMPARMAP
  0
ACAD_PROXY_OBJECT
  5
A1
330
0
100
AcDbProxyObject
 90
      499
 91
      512
 95
   393235
 70
     0
 93
      108
310
000001421053521310D05310D01F
330
7F
 94
        0
1001
ACAD
1000
AcRTDxfName
1000
SYSTEM_VAR_INT
1000
AcRTDxfName
1000
SYSTEM_VAR_INT
  0
ACAD_PROXY_OBJECT
  5
A2
330
0
100
AcDbProxyObject
 90
      499
 91
      512
 95
   393235
 70
     0
 93
      124
310
000001429053541493D295165411501F
330
7F
 94
        0
1001
ACAD
1000
AcRTDxfName
1000
SYSTEM_VAR_INT
1000
AcRTDxfName
1000
SYSTEM_VAR_INT
  0
ACAD_PROXY_OBJECT
  5
A3
330
0
100
AcDbProxyObject
 90
      499
 91
      512
 95
   393235
 70
     0
 93
      124
310
00000142905354915554D1511253501F
330
7F
 94
        0
1001
ACAD
1000
AcRTDxfName
1000
SYSTEM_VAR_INT
1000
AcRTDxfName
1000
SYSTEM_VAR_INT
  0
ACAD_PROXY_OBJECT
  5
A4
330
0
100
AcDbProxyObject
 90
      499
 91
      512
 95
   393235
 70
     0
 93
      132
310
00000143105354D150D51253D39112536F
330
7F
 94
        0
1001
ACAD
1000
AcRTDxfName
1000
SYSTEM_VAR_INT
1000
AcRTDxfName
1000
SYSTEM_VAR_INT
  0
ACAD_PROXY_OBJECT
  5
A5
330
0
100
AcDbProxyObject
 90
      499
 91
      512
 95
   393235
 70
     0
 93
      124
310
00000142905355941093D4911154901F
330
7F
 94
        0
1001
ACAD
1000
AcRTDxfName
1000
SYSTEM_VAR_INT
1000
AcRTDxfName
1000
SYSTEM_VAR_INT
  0
ACAD_PROXY_OBJECT
  5
A6
330
0
100
AcDbProxyObject
 90
      499
 91
      512
 95
   393235
 70
     0
 93
      116
310
0000014290535115D1D0D3D313D4AF
330
7F
 94
        0
1001
ACAD
1000
AcRTDxfName
1000
SYSTEM_VAR_INT
1000
AcRTDxfName
1000
SYSTEM_VAR_INT
  0
ACAD_PROXY_OBJECT
  5
A7
330
0
100
AcDbProxyObject
 90
      499
 91
      514
 95
   393235
 70
     0
 93
      196
310
0000014290535212511315165411405085645524445434B54F
330
7F
 94
        0
1001
ACAD
1000
AcRTDxfName
1000
SYSTEM_VAR_STR
1000
AcRTDxfName
1000
SYSTEM_VAR_STR
  0
ACAD_PROXY_OBJECT
  5
A9
330
0
100
AcDbProxyObject
 90
      499
 91
      514
 95
   393235
 70
     0
 93
      196
310
00000142905354D150D315165411405085048414E544F4D32F
330
7F
 94
        0
1001
ACAD
1000
AcRTDxfName
1000
SYSTEM_VAR_STR
1000
AcRTDxfName
1000
SYSTEM_VAR_STR
  0
ACAD_PROXY_OBJECT
  5
AA
330
0
100
AcDbProxyObject
 90
      499
 91
      512
 95
   393235
 70
     0
 93
      108
310
00000142105354D51114D0D5102F
330
7F
 94
        0
1001
ACAD
1000
AcRTDxfName
1000
SYSTEM_VAR_INT
1000
AcRTDxfName
1000
SYSTEM_VAR_INT
  0
ACAD_PROXY_OBJECT
  5
AB
330
0
100
AcDbProxyObject
 90
      499
 91
      512
 95
   393235
 70
     0
 93
      108
310
00000142105354D511151054102F
330
7F
 94
        0
1001
ACAD
1000
AcRTDxfName
1000
SYSTEM_VAR_INT
1000
AcRTDxfName
1000
SYSTEM_VAR_INT
  0
ACAD_PROXY_OBJECT
  5
AC
330
0
100
AcDbProxyObject
 90
      499
 91
      512
 95
   393235
 70
     0
 93
      108
310
00000142105354D511111513102F
330
7F
 94
        0
1001
ACAD
1000
AcRTDxfName
1000
SYSTEM_VAR_INT
1000
AcRTDxfName
1000
SYSTEM_VAR_INT
  0
ACAD_PROXY_OBJECT
  5
AD
330
0
100
AcDbProxyObject
 90
      499
 91
      513
 95
   393235
 70
     0
 93
      148
310
00000141905350D310D34295C8FC2F528BC3FF
330
7F
 94
        0
1001
ACAD
1000
AcRTDxfName
1000
SYSTEM_VAR_REAL
1000
AcRTDxfName
1000
SYSTEM_VAR_REAL
  0
ACAD_PROXY_OBJECT
  5
AE
330
0
100
AcDbProxyObject
 90
      499
 91
      513
 95
   393235
 70
     0
 93
      156
310
00000141D05350D311D05402B8716D9CEF7C33FF
330
7F
 94
        0
1001
ACAD
1000
AcRTDxfName
1000
SYSTEM_VAR_REAL
1000
AcRTDxfName
1000
SYSTEM_VAR_REAL
  0
ACAD_PROXY_OBJECT
  5
AF
330
0
100
AcDbProxyObject
 90
      499
 91
      513
 95
   393235
 70
     0
 93
      164
310
00000142105350D313D4D2150295C8FC2F528BC3FF
330
7F
 94
        0
1001
ACAD
1000
AcRTDxfName
1000
SYSTEM_VAR_REAL
1000
AcRTDxfName
1000
SYSTEM_VAR_REAL
  0
ACAD_PROXY_OBJECT
  5
B0
330
0
100
AcDbProxyObject
 90
      499
 91
      512
 95
   393235
 70
     0
 93
      100
310
00000141D05350D3141054901F
330
7F
 94
        0
1001
ACAD
1000
AcRTDxfName
1000
SYSTEM_VAR_INT
1000
AcRTDxfName
1000
SYSTEM_VAR_INT
  0
ACAD_PROXY_OBJECT
  5
B1
330
0
100
AcDbProxyObject
 90
      499
 91
      512
 95
   393235
 70
     0
 93
      100
310
0000014210535590539254D22F
330
7F
 94
        0
1001
ACAD
1000
AcRTDxfName
1000
SYSTEM_VAR_INT
1000
AcRTDxfName
1000
SYSTEM_VAR_INT
  0
ACAD_PROXY_OBJECT
  5
B2
330
0
100
AcDbProxyObject
 90
      499
 91
      513
 95
   393235
 70
     0
 93
      188
310
00000142D0535312539155121250D2C295C8FC2F5289C3FF
330
7F
 94
        0
1001
ACAD
1000
AcRTDxfName
1000
SYSTEM_VAR_REAL
1000
AcRTDxfName
1000
SYSTEM_VAR_REAL
  0
ACAD_PROXY_OBJECT
  5
B3
330
0
100
AcDbProxyObject
 90
      499
 91
      514
 95
   393235
 70
     0
 93
      156
310
00000142105350D315165411405054D49545445F
330
7F
 94
        0
1001
ACAD
1000
AcRTDxfName
1000
SYSTEM_VAR_STR
1000
AcRTDxfName
1000
SYSTEM_VAR_STR
  0
ACAD_PROXY_OBJECT
  5
BC
330
0
100
AcDbProxyObject
 90
      499
 91
      512
 95
   393235
 70
     0
 93
      132
310
00000142D05050555513D4D3D31591501F
330
7F
 94
        0
1001
ACAD
1000
AcRTDxfName
1000
SYSTEM_VAR_INT
1000
AcRTDxfName
1000
SYSTEM_VAR_INT
  0
ACAD_PROXY_OBJECT
  5
BD
330
0
100
AcDbProxyObject
 90
      499
 91
      512
 95
   393235
 70
     0
 93
      156
310
00000143905050555513D054D4D153509311501F
330
7F
 94
        0
1001
ACAD
1000
AcRTDxfName
1000
SYSTEM_VAR_INT
1000
AcRTDxfName
1000
SYSTEM_VAR_INT
  0
ACAD_PROXY_OBJECT
  5
BE
330
0
100
AcDbProxyObject
 90
      499
 91
      512
 95
   393235
 70
     0
 93
      148
310
00000143505055925155D49154D513D491501F
330
7F
 94
        0
1001
ACAD
1000
AcRTDxfName
1000
SYSTEM_VAR_INT
1000
AcRTDxfName
1000
SYSTEM_VAR_INT
  0
ACAD_PROXY_OBJECT
  5
BF
330
0
100
AcDbProxyObject
 90
      499
 91
      512
 95
   393235
 70
     0
 93
      124
310
00000142D050525394D15495105094EF
330
7F
 94
        0
1001
ACAD
1000
AcRTDxfName
1000
SYSTEM_VAR_INT
1000
AcRTDxfName
1000
SYSTEM_VAR_INT
  0
ACAD_PROXY_OBJECT
  5
C6
330
0
100
AcDbProxyObject
 90
      499
 91
      531
 95
   393235
 70
     0
 93
       32
310
0000000000
330
7F
340
C3
330
C7
330
C3
 94
        0
1001
ACAD
1000
AcRTDxfName
1000
ACAMGRCOMPDEF
1000
AcRTDxfName
1000
ACAMGRCOMPDEF
  0
ACAD_PROXY_OBJECT
  5
C7
330
0
100
AcDbProxyObject
 90
      499
 91
      532
 95
   393235
 70
     0
 93
      143
310
0000014213905351539313D4D0400522080D
330
7F
330
C6
 94
        0
1001
ACAD
1000
AcRTDxfName
1000
ACAMCOMPDEF
1000
AcRTDxfName
1000
ACAMCOMPDEF
  0
ACAD_PROXY_OBJECT
  5
C8
330
0
100
AcDbProxyObject
 90
      499
 91
      533
 95
   393235
 70
     0
 93
       72
310
000000A44101A4410100
330
7F
330
C7
 94
        0
1001
ACAD
1000
AcRTDxfName
1000
ACAMCOMPDEFMGR
1000
AcRTDxfName
1000
ACAMCOMPDEFMGR
  0
ACAD_PROXY_OBJECT
  5
C9
330
0
100
AcDbProxyObject
 90
      499
 91
      534
 95
   393235
 70
     0
 93
       80
310
0000901441010000000066
330
7F
330
CA
330
CA
330
CA
330
CA
 94
        0
1001
ACAD
1000
AcRTDxfName
1000
AMCONTEXTMGR
1000
AcRTDxfName
1000
AMCONTEXTMGR
  0
ACAD_PROXY_OBJECT
  5
CA
330
0
100
AcDbProxyObject
 90
      499
 91
      535
 95
   393235
 70
     0
 93
      173
310
00000000406AAAAAAAAAAAAAAAAA806A44101A441017
330
7F
330
C9
330
C7
 94
        0
1001
ACAD
1000
AcRTDxfName
1000
ACAMCONTEXTMODELER
1000
AcRTDxfName
1000
ACAMCONTEXTMODELER
  0
ACAD_PROXY_OBJECT
  5
CE
330
0
100
AcDbProxyObject
 90
      499
 91
      536
 95
   393235
 70
     0
 93
       26
310
0000803F
330
7F
330
0
 94
        0
1001
ACAD
1000
AcRTDxfName
1000
ACAMDRAWINGMAN
1000
AcRTDxfName
1000
ACAMDRAWINGMAN
  0
PH_ENTDIMREACTOR
  5
8E5
102
{ACAD_REACTORS
330
3C
102
}
330
3C
  0
PH_ENTDIMREACTOR
  5
904
102
{ACAD_REACTORS
330
3C
102
}
330
3C
  0
PH_DIMENTREACTOR
  5
905
102
{ACAD_REACTORS
330
3C
102
}
330
3C
  0
PH_ENTDIMREACTOR
  5
959
102
{ACAD_REACTORS
330
3C
102
}
330
3C
  0
PH_DIMENTREACTOR
  5
913
102
{ACAD_REACTORS
330
3C
102
}
330
3C
  0
PH_ENTDIMREACTOR
  5
921
102
{ACAD_REACTORS
330
3C
102
}
330
3C
  0
PH_DIMENTREACTOR
  5
922
102
{ACAD_REACTORS
330
3C
102
}
330
3C
  0
PH_ENTDIMREACTOR
  5
93D
102
{ACAD_REACTORS
330
3C
102
}
330
3C
  0
PH_ENTDIMREACTOR
  5
92E
102
{ACAD_REACTORS
330
3C
102
}
330
3C
  0
PH_ENTDIMREACTOR
  5
92F
102
{ACAD_REACTORS
330
3C
102
}
330
3C
  0
PH_DIMENTREACTOR
  5
930
102
{ACAD_REACTORS
330
3C
102
}
330
3C
  0
PH_ENTDIMREACTOR
  5
975
102
{ACAD_REACTORS
330
3C
102
}
330
3C
  0
PH_ENTDIMREACTOR
  5
8E6
102
{ACAD_REACTORS
330
3C
102
}
330
3C
  0
PH_DIMENTREACTOR
  5
93E
102
{ACAD_REACTORS
330
3C
102
}
330
3C
  0
PH_ENTDIMREACTOR
  5
94A
102
{ACAD_REACTORS
330
3C
102
}
330
3C
  0
PH_DIMENTREACTOR
  5
95A
102
{ACAD_REACTORS
330
3C
102
}
330
3C
  0
PH_ENTDIMREACTOR
  5
94B
102
{ACAD_REACTORS
330
3C
102
}
330
3C
  0
PH_DIMENTREACTOR
  5
94C
102
{ACAD_REACTORS
330
3C
102
}
330
3C
  0
PH_ENTDIMREACTOR
  5
958
102
{ACAD_REACTORS
330
3C
102
}
330
3C
  0
PH_ENTDIMREACTOR
  5
911
102
{ACAD_REACTORS
330
3C
102
}
330
3C
  0
PH_ENTDIMREACTOR
  5
966
102
{ACAD_REACTORS
330
3C
102
}
330
3C
  0
PH_ENTDIMREACTOR
  5
967
102
{ACAD_REACTORS
330
3C
102
}
330
3C
  0
PH_DIMENTREACTOR
  5
976
102
{ACAD_REACTORS
330
3C
102
}
330
3C
  0
PH_DIMENTREACTOR
  5
968
102
{ACAD_REACTORS
330
3C
102
}
330
3C
  0
PH_DIMENTREACTOR
  5
8E7
102
{ACAD_REACTORS
330
3C
102
}
330
3C
  0
PH_ENTDIMREACTOR
  5
974
102
{ACAD_REACTORS
330
3C
102
}
330
3C
  0
PH_ENTDIMREACTOR
  5
1E0A
102
{ACAD_REACTORS
330
3C
102
}
330
3C
  0
PH_DIMENTREACTOR
  5
1E0B
102
{ACAD_REACTORS
330
3C
102
}
330
3C
  0
PH_ENTDIMREACTOR
  5
2859
102
{ACAD_REACTORS
330
3C
102
}
330
3C
  0
PH_ENTDIMREACTOR
  5
285A
102
{ACAD_REACTORS
330
3C
102
}
330
3C
  0
PH_DIMENTREACTOR
  5
285B
102
{ACAD_REACTORS
330
3C
102
}
330
3C
  0
PH_ENTDIMREACTOR
  5
2B1E
102
{ACAD_REACTORS
330
3C
102
}
330
3C
  0
PH_ENTDIMREACTOR
  5
2B1F
102
{ACAD_REACTORS
330
3C
102
}
330
3C
  0
PH_ENTDIMREACTOR
  5
93C
102
{ACAD_REACTORS
330
3C
102
}
330
3C
  0
PH_DIMENTREACTOR
  5
2B20
102
{ACAD_REACTORS
330
3C
102
}
330
3C
  0
PH_ENTDIMREACTOR
  5
8F5
102
{ACAD_REACTORS
330
3C
102
}
330
3C
  0
PH_ENTDIMREACTOR
  5
8F6
102
{ACAD_REACTORS
330
3C
102
}
330
3C
  0
PH_DIMENTREACTOR
  5
8F7
102
{ACAD_REACTORS
330
3C
102
}
330
3C
  0
PH_ENTDIMREACTOR
  5
912
102
{ACAD_REACTORS
330
3C
102
}
330
3C
  0
PH_ENTDIMREACTOR
  5
903
102
{ACAD_REACTORS
330
3C
102
}
330
3C
  0
DICTIONARY
  5
15E1
102
{ACAD_REACTORS
330
3B
102
}
330
3B
100
AcDbDictionary
280
     1
281
     1
  3
$PH$AAAA
360
15E2
  3
PH_GRPMEMBERS
360
15E4
  0
DICTIONARY
  5
E1A
102
{ACAD_REACTORS
330
3B
102
}
330
3B
100
AcDbDictionary
280
     1
281
     1
  3
$PH$AAAA
360
E1B
  3
PH_GRPMEMBERS
360
E23
  0
DICTIONARY
  5
1722
102
{ACAD_REACTORS
330
3B
102
}
330
3B
100
AcDbDictionary
280
     1
281
     1
  3
$PH$AAAA2H
360
1723
  3
PH_GRPMEMBERS
360
1725
  0
DICTIONARY
  5
1A64
102
{ACAD_REACTORS
330
3B
102
}
330
3B
100
AcDbDictionary
281
     1
  3
PH_GRPMEMBERS
350
1A6E
  0
DICTIONARY
  5
1C1A
102
{ACAD_REACTORS
330
3B
102
}
330
3B
100
AcDbDictionary
281
     1
  3
PH_GRPMEMBERS
350
1C1B
  0
PH_GROUP
  5
1706
102
{ACAD_REACTORS
330
3B
102
}
330
3B
  0
DICTIONARY
  5
38CE
330
A66
100
AcDbDictionary
280
     1
281
     1
  3
ACAD_XREC_ROUNDTRIP
360
38CF
  0
DICTIONARY
  5
38B0
330
A65
100
AcDbDictionary
280
     1
281
     1
  3
ACAD_XREC_ROUNDTRIP
360
38CD
  3
ADSK_XREC_LAYOUTTHUMBNAIL
360
38B1
  0
DICTIONARY
  5
18DA
330
18D9
100
AcDbDictionary
280
     1
281
     1
  3
ACAD_XREC_ROUNDTRIP
360
38D1
  3
BUMPTILE
360
18DC
  3
DIFFUSETILE
360
18DB
  3
OPACITYTILE
360
18DF
  3
REFLECTIONTILE
360
18DE
  3
REFRACTIONTILE
360
18E0
  3
SPECULARTILE
360
18DD
  0
DICTIONARY
  5
18D2
330
18D1
100
AcDbDictionary
280
     1
281
     1
  3
ACAD_XREC_ROUNDTRIP
360
38D0
  3
BUMPTILE
360
18D4
  3
DIFFUSETILE
360
18D3
  3
OPACITYTILE
360
18D7
  3
REFLECTIONTILE
360
18D6
  3
REFRACTIONTILE
360
18D8
  3
SPECULARTILE
360
18D5
  0
DICTIONARY
  5
18E2
330
18E1
100
AcDbDictionary
280
     1
281
     1
  3
ACAD_XREC_ROUNDTRIP
360
38D2
  3
BUMPTILE
360
18E4
  3
DIFFUSETILE
360
18E3
  3
OPACITYTILE
360
18E7
  3
REFLECTIONTILE
360
18E6
  3
REFRACTIONTILE
360
18E8
  3
SPECULARTILE
360
18E5
  0
DICTIONARY
  5
38C9
330
18FE
100
AcDbDictionary
280
     1
281
     1
  3
ACAD_ROUNDTRIP_2008_TABLESTYLE_CELLSTYLEMAP
360
38CA
  3
ACAD_XREC_ROUNDTRIP
360
38F9
  0
DICTIONARY
  5
38DD
330
18EF
100
AcDbDictionary
280
     1
281
     1
  3
ACAD_XREC_ROUNDTRIP
360
38DE
  0
DICTIONARY
  5
38E1
330
18F1
100
AcDbDictionary
280
     1
281
     1
  3
ACAD_XREC_ROUNDTRIP
360
38E2
  0
DICTIONARY
  5
38DF
330
18F0
100
AcDbDictionary
280
     1
281
     1
  3
ACAD_XREC_ROUNDTRIP
360
38E0
  0
DICTIONARY
  5
38DB
330
18EE
100
AcDbDictionary
280
     1
281
     1
  3
ACAD_XREC_ROUNDTRIP
360
38DC
  0
DICTIONARY
  5
38E9
330
18F5
100
AcDbDictionary
280
     1
281
     1
  3
ACAD_XREC_ROUNDTRIP
360
38EA
  0
DICTIONARY
  5
38F1
330
18F9
100
AcDbDictionary
280
     1
281
     1
  3
ACAD_XREC_ROUNDTRIP
360
38F2
  0
DICTIONARY
  5
38E3
330
18F2
100
AcDbDictionary
280
     1
281
     1
  3
ACAD_XREC_ROUNDTRIP
360
38E4
  0
DICTIONARY
  5
38E7
330
18F4
100
AcDbDictionary
280
     1
281
     1
  3
ACAD_XREC_ROUNDTRIP
360
38E8
  0
DICTIONARY
  5
38F7
330
18FC
100
AcDbDictionary
280
     1
281
     1
  3
ACAD_XREC_ROUNDTRIP
360
38F8
  0
DICTIONARY
  5
38EF
330
18F8
100
AcDbDictionary
280
     1
281
     1
  3
ACAD_XREC_ROUNDTRIP
360
38F0
  0
DICTIONARY
  5
38D3
330
18EA
100
AcDbDictionary
280
     1
281
     1
  3
ACAD_XREC_ROUNDTRIP
360
38D4
  0
DICTIONARY
  5
38D5
330
18EB
100
AcDbDictionary
280
     1
281
     1
  3
ACAD_XREC_ROUNDTRIP
360
38D6
  0
DICTIONARY
  5
38D7
330
18EC
100
AcDbDictionary
280
     1
281
     1
  3
ACAD_XREC_ROUNDTRIP
360
38D8
  0
DICTIONARY
  5
38D9
330
18ED
100
AcDbDictionary
280
     1
281
     1
  3
ACAD_XREC_ROUNDTRIP
360
38DA
  0
DICTIONARY
  5
38F3
330
18FA
100
AcDbDictionary
280
     1
281
     1
  3
ACAD_XREC_ROUNDTRIP
360
38F4
  0
DICTIONARY
  5
38ED
330
18F7
100
AcDbDictionary
280
     1
281
     1
  3
ACAD_XREC_ROUNDTRIP
360
38EE
  0
DICTIONARY
  5
38F5
330
18FB
100
AcDbDictionary
280
     1
281
     1
  3
ACAD_XREC_ROUNDTRIP
360
38F6
  0
DICTIONARY
  5
38E5
330
18F3
100
AcDbDictionary
280
     1
281
     1
  3
ACAD_XREC_ROUNDTRIP
360
38E6
  0
DICTIONARY
  5
38EB
330
18F6
100
AcDbDictionary
280
     1
281
     1
  3
ACAD_XREC_ROUNDTRIP
360
38EC
  0
DICTIONARY
  5
15E2
102
{ACAD_REACTORS
330
15E1
102
}
330
15E1
100
AcDbDictionary
280
     1
281
     1
  3
PH_GRPMEMBERS
360
15E3
  0
PH_GROUP
  5
15E4
102
{ACAD_REACTORS
330
15E1
102
}
330
15E1
  0
DICTIONARY
  5
E1B
102
{ACAD_REACTORS
330
E1A
102
}
330
E1A
100
AcDbDictionary
280
     1
281
     1
  3
$PH$AAAA
360
E1C
  3
PH_GRPMEMBERS
360
E22
  0
PH_GROUP
  5
E23
102
{ACAD_REACTORS
330
E1A
102
}
330
E1A
  0
DICTIONARY
  5
1723
102
{ACAD_REACTORS
330
1722
102
}
330
1722
100
AcDbDictionary
280
     1
281
     1
  3
PH_GRPMEMBERS
360
1724
  0
PH_GROUP
  5
1725
102
{ACAD_REACTORS
330
1722
102
}
330
1722
  0
PH_GROUP
  5
1A6E
102
{ACAD_REACTORS
330
1A64
102
}
330
1A64
  0
PH_GROUP
  5
1C1B
102
{ACAD_REACTORS
330
1C1A
102
}
330
1C1A
  0
XRECORD
  5
38CF
102
{ACAD_REACTORS
330
38CE
102
}
330
38CE
100
AcDbXrecord
280
     1
102
SHADEPLOT
 70
     0
102
SHADEPLOTRESLEVEL
 70
     2
102
SHADEPLOTCUSTOMDPI
 70
   300
  0
XRECORD
  5
38CD
102
{ACAD_REACTORS
330
38B0
102
}
330
38B0
100
AcDbXrecord
280
     1
102
SHADEPLOT
 70
     0
102
SHADEPLOTRESLEVEL
 70
     2
102
SHADEPLOTCUSTOMDPI
 70
   300
  0
XRECORD
  5
38B1
102
{ACAD_REACTORS
330
38B0
102
}
330
38B0
100
AcDbXrecord
280
     1
310
28000000000100008800000001000800000000000088000000000000000000000001000000000000F0FCFE0000000000FFFFFF000000000000000000000000000000000000000000000000000000000000000000330000006600000099000000CC000000FF00000000330000333300006633000099330000CC330000FF3300
310
0000660000336600006666000099660000CC660000FF66000000990000339900006699000099990000CC990000FF99000000CC000033CC000066CC000099CC0000CCCC0000FFCC000000FF000033FF000066FF000099FF0000CCFF0000FFFF000000003300330033006600330099003300CC003300FF003300003333003333
310
33006633330099333300CC333300FF33330000663300336633006666330099663300CC663300FF66330000993300339933006699330099993300CC993300FF99330000CC330033CC330066CC330099CC3300CCCC3300FFCC330000FF330033FF330066FF330099FF3300CCFF3300FFFF330000006600330066006600660099
310
006600CC006600FF00660000336600333366006633660099336600CC336600FF33660000666600336666006666660099666600CC666600FF66660000996600339966006699660099996600CC996600FF99660000CC660033CC660066CC660099CC6600CCCC6600FFCC660000FF660033FF660066FF660099FF6600CCFF6600
310
FFFF660000009900330099006600990099009900CC009900FF00990000339900333399006633990099339900CC339900FF33990000669900336699006666990099669900CC669900FF66990000999900339999006699990099999900CC999900FF99990000CC990033CC990066CC990099CC9900CCCC9900FFCC990000FF99
310
0033FF990066FF990099FF9900CCFF9900FFFF99000000CC003300CC006600CC009900CC00CC00CC00FF00CC000033CC003333CC006633CC009933CC00CC33CC00FF33CC000066CC003366CC006666CC009966CC00CC66CC00FF66CC000099CC003399CC006699CC009999CC00CC99CC00FF99CC0000CCCC0033CCCC0066CC
310
CC0099CCCC00CCCCCC00FFCCCC0000FFCC0033FFCC0066FFCC0099FFCC00CCFFCC00FFFFCC000000FF003300FF006600FF009900FF00CC00FF00FF00FF000033FF003333FF006633FF009933FF00CC33FF00FF33FF000066FF003366FF006666FF009966FF00CC66FF00FF66FF000099FF003399FF006699FF009999FF00CC
310
99FF00FF99FF0000CCFF0033CCFF0066CCFF0099CCFF00CCCCFF00FFCCFF0000FFFF0033FFFF0066FFFF0099FFFF00CCFFFF00FFFFFF00000000000D0D0D001A1A1A00282828003535350043434300505050005D5D5D006B6B6B00787878008686860093939300A1A1A100AEAEAE00BBBBBB00C9C9C900D6D6D600E4E4E400
310
F1F1F100FFFFFF0000000000000000000000000000000000000000000000000000000000000000000000000000000000E1E1E1E1E1E1E1E1E1E1E1E1E1E1E1E1E1E1E1E1E1E1E1E1E1E1E1E1E1E1E1E1BEBEBEBEBEBEBEBEBEBEBEBEBEBEBEBEBEBEBEBEBEBEBEBEBEBEBEBEBEBEBEBEBEBEBEBEBEBEBEBEBEBEBEBEBEBEBE
310
BEBEBEBEBEBEBEBEBEBEBEBEBEBEBEBEBEBEBEBEBEBEBEBEBEBEBEBEBEBEBEBEBEBEBEBEBEBEBEBEBEBEBEBEBEBEBEBEBEBEBEBEBEBEBEBEBEBEBEBEBEBEBEBEBEBEBEBEBEBEBEBEBEBEBEBEBEBEBEBEBEBEBEBEBEBEBEBEBEBEBEBEBEBEBEBEBEBEBEBEBEBEBEBEBEBEBEBEBEBEBEBEBEBEBEBEBEBEBEBEBEBEBEBEBEBEBE
310
BEBEBEBEBEBEBEBEBEBEBEBEBEBEBEBEBEBEE1E1E1E1E1E1E1E1E1E1E1E1E1E1E1E1E1E1E1E1E1E1E1E1E1E1E1E1E1E1E1E1E1E1E1E1E1E1E1E1E1E1E1E1E1E1E1E1E1E1E1E1E1E1E1E1E1E1E1E1E1E1E1E1BEE1E1E1E1E1E1E1E1E1E1E1E1E1E1E1E1E1E1E1E1E1E1E1E1E1E1E1E1E1E1E1E1E1E1E1E1BEE1E1E1E1E1E1E1
310
E1E1E1E1E1E1E1E1E1E1E1E1E1E1E1E1E1E1E1E1E1E1E1BEE1E1E1E1E1E1E1E1E1E1E1E1E1E1E1E1E1E1E1E1E1E1E1E1E1E1E1E1E1E1E1E1E1E1E1E1E1E1E1E1E1E1E1E1E1E1E1E1E1E1E1E1E1E1E1E1E1E1E1E1E1BEE1E1E1E1E1E1E1E1E1E1E1E1E1E1E1E1E1E1E1E1E1E1E1E1E1E1E1E1E1E1E1E1E1E1E1E1E1E1E1E1E1
310
E1E1E1E1E1E1E1E1E1E1E1E1E1E1E1E1E1E1E1BEE1E1E1E1E1E1E1E1E1E1E1E1E1E1E1E1E1E1E1E1E1E1E1E1E1E1E1E1E1E1E1E1E1E1E1E1E1E1E1E1E1E1E1E1E1E1E1E1E1E1E1E1E1E1E1E1E1E1E1E1E1E1E1E1BEE1E1E1E1E128282828282828282828282828282828282828282828282828282828282828BE2828282828
310
28282828282828282828282828282828282828282828282828BE28282828282828282828282828282828282828282828282828282828282828282828282828282828282828282828282828282828282828282828282828BE282828282828282828282828282828282828282828282828282828282828282828282828282828
310
282828282828282828282828282828282828282828BEE1E1E1E1E1E1E1E1E1E1E1E1E1E1E1E1E1E1E1E1E1E1E1E1E1E1E1E1E1E1E1E1E1E1E1E1E1E1E1E1E1E1E1E1E1E1E1E1E1E1E1E1E1E1E1E1E1E1E1E1E1E1E1E1BEE1E1E1E1E128E1E1E1E1E1E1E1E1E1E1E1E1E1E1E1E1E1E1E1E1E1E1E1E1E1E1E1E1E1E1E1E1E1E1
310
E1E1E1E1E1E1E1E1E1E1E1E1E1E1E1E1E1E1E1E1E1E1E1E1E1E1E1E1E1E1E1E1E1E1E1E1E1E1E1E1E1E1E1E1E1E1E1E1E1E1E1E1E1E1E1E1E1E1E1E1E1E1E1E1E1E1E1E1E1E1E1E1E1E1E1E1E1E1E1E1E1E1E1E1E1E1E1E1E1E1E1E1E1E1E1E1E1E1E1E1E1E1E1E1E1E1E1E1E1E1E1E1E1E1E1E1E1E1E1BEBEBEBEBEBEBEBE
310
BE0FBEBEBEBEBEBEBEBEBEBEBEBEBEBEBEBEBEBEBEBE28BEE1E1E1E1E1E1E1E1E1E1E1E1E1E1E1E1E1E1E1E1E1E1E1E1E1E1E1E1E1E1E1E1E1E1E1E1E1E1E1E1E1E1E1E1E1E1E1E1E1E1E1E1E1E1E1E1E1E1E1E1E1E1E1E1BEE1E1E1E1E128E1E1E1E1E1E1E1E1E1E1E1E1E1E1E1E1E1E1E1E1E1E1E1E1E1E1E1E1E1E1E1E1
310
E1E1E1E1E1E1E1E1E1E1E1E1E1E1E1E1E1E1E1E1E1E1E1E1E1E1E1E1E1E1E1E1E1E1E1E1E1E1E1E1E1E1E1E1E1E1E1E1E1E1E1E1E1E1E1E1E1E1E1E1E1E1E1E1E1E1E1E1E1E1E1E1E1E1E1E1E1E1E1E1E1E1E1E1E1E1E1E1E1E1E1E1E1E1E1E1E1E1E1E1E1E1E1E1E1E1E1E1E1E1E1E1E1E1E1E1E1E1E1E1E1BEBEBEBEE1E1
310
E1E1E10FE1E1E1E1E1E1E1BEE1E1E1E1E1E1E1E1E1E1E1E128BEE1E1E1E1E1E1E1E1E1E1E1E1E1E1E1E1E1E1E1E1E1E1E1E1E1E1E1E1E1E1E1E1E1E1E1E1E1E1E1E1E1E1E1E1E1E1E1E1E1E1E1E1E1E1E1E1E1E1E1E1E1E1E1E1BEE1E1E1E1E128E1E1E1E1E1E1E1E1E1E1E1E1E1E1E1E1E1E1E1E1E1E1E1E1E1E1E1E1E1E1
310
E1E1E1E1E1E1E1E1E1E1E1E1E1E1E1E1E1E1E1E1E1E1E1E1E1E1E1E1E1E1E1E1E1E1E1E1E1E1E1E1E1E1E1E1E1E1E1E1E1E1E1E1E1E1E1E1E1E1E1E1E1E1E1E1E1E1E1E1E1E1E1E1E1E1E1E1E1E1E1E1E1E1E1E1E1E1E1E1E1E1E1E1E1E1E1E1E1E1E1E1E1E1E1E1E1E1E1E1E1E1E1E1E1E1E1E1E1E1E1E1E1E1E10F0F0F0F
310
0F0F0F0F0F0F0F0F0FBEBEBE0FBE0F0F0FBEBEBEBEBE0F0F0F0F28BEE1E1E1E1E1E1E1E1E1E1E1E1E1E1E1E1E1E1E1E1E1E1E1E1E1E1E1E1E1E1E1E1E1E1E1E1E1E1E1E1E1E1E1E1E1E1E1E1E1E1E1E1E1E1E1E1E1E1E1E1E1E1E1E1BEE1E1E1E1E128E1E1E1E1E1E1E1E1E1E1E1E1E1E1E1E1E1E1E1E1E1E1E1E1E1E1E1E1
310
E1E1E1E1E1E1E1E1E1E1E1E1E1E1E1E1E1E1E1E1E1E1E1E1E1E1E1E1E1E1E1E1E1E1E1E1E1E1E1E1E1E1E1E1E1E1E1E1E1E1E1E1E1E1E1E1E1E1E1E1E1E1E1E1E1E1E1E1E1E1E1E1E1E1E1E1E1E1E1E1E1E1E1E1E1E1E1E1E1E1E1E1E1E1E1E1E1E1E1E1E1E1E1E1E1E1E1E1E1E1E1E1E1E1E1E1E1E1E1E1E1E1E1E1E10FE1
310
E1E1E1E1E1E1E10FE1E1E1BEBEBEE1BEE1E1E1BEBEBEBEBEBEE1E1E128BEE1E1E1E1E1E1E1E1E1E1E1E1E1E1E1E1E1E1E1E1E1E1E1E1E1E1E1E1E1E1E1E1E1E1E1E1E1E1E1E1E1E1E1E1E1E1E1E1E1E1E1E1E1E1E1E1E1E1E1E1E1E1E1E1BEE1E1E1E1E128E1E1E1E1E1E1E1E1E1E1E1E1E1E1E1E1E1E1E1E1E1E1E1E1E1E1
310
E1E1E1E1E1E1E1E1E1E1E1E1E1E1E1E1E1E1E1E1E1E1E1E1E1E1E1E1E1E1E1E1E1E1E1E1E1E1E1E1E1E1E1E1E1E1E1E1E1E1E1E1E1E1E1E1E1E1E1E1E1E1E1E1E1E1E1E1E1E1E1E1E1E1E1E1E1E1E1E1E1E1E1E1E1E1E1E1E1E1E1E1E1E1E1E1E1E1E1E1E1E1E1E1E1E1E1E1E1E1E1E1E1E1E1E1E1E1E1E1E1E1E1E1E1E1E1
310
BEBEBEBE0FBEBEBE0F0F0F0F0F0F0F0F0FBE0F0F0F0F0F0F0F0F0F0F0F0F28BEE1E1E1E1E1E1E1E1E1E1E1E1E1E1E1E1E1E1E1E1E1E1E1E1E1E1E1E1E1E1E1E1E1E1E1E1E1E1E1E1E1E1E1E1E1E1E1E1E1E1E1E1E1E1E1E1E1E1E1E1E1E1E1E1BEE1E1E1E1E128E1E1E1E1E1E1E1E1E1E1E1E1E1E1E1E1E1E1E1E1E1E1E1E1
310
E1E1E1E1E1E1E1E1E1E1E1E1E1E1E1E1E1E1E1E1E1E1E1E1E1E1E1E1E1E1E1E1E1E1E1E1E1E1E1E1E1E1E1E1E1E1E1E1E1E1E1E1E1E1E1E1E1E1E1E1E1E1E1E1E1E1E1E1E1E1E1E1E1E1E1E1E1E1E1E1E1E1E1E1E1E1E1E1E1E1E1E1E1E1E1E1E1E1E1E1E1E1E1E1E1E1E1E1E1E1E1E1E1E1E1E1E1E1E1E1E1E1E1E1E1E1E1
310
E1E1BE0F0F0F0FBE0F0F0F0FE10F0F0FE1E1E10F0F0F0F0F0F0FE1E1E1E1E1E128BEE1E1E1E1E1E1E1E1E1E1E1E1E1E1E1E1E1E1E1E1E1E1E1E1E1E1E1E1E1E1E1E1E1E1E1E1E1E1E1E1E1E1E1E1E1E1E1E1E1E1E1E1E1E1E1E1E1E1E1E1E1E1E1E1BEE1E1E1E1E128E1E1E1E1E1E1E1E1E1E1E1E1E1E1E1E1E1E1E1E1E1E1
310
E1E1E1E1E1E1E1E1E1E1E1E1E1E1E1E1E1E1E1E1E1E1E1E1E1E1E1E1E1E1E1E1E1E1E1E1E1E1E1E1E1E1E1E1E1E1E1E1E1E1E1E1E1E1E1E1E1E1E1E1E1E1E1E1E1E1E1E1E1E1E1E1E1E1E1E1E1E1E1E1E1E1E1E1E1E1E1E1E1E1E1E1E1E1E1E1E1E1E1E1E1E1E1E1E1E1E1E1E1E1E1E1E1E1E1E1E1E1E1E1E1E1E1E1E1E1E1
310
E1E1E1E1BEE1E1E1E1BEE1E1E10FE10F0F0FE10FE10F0F0F0F0F0F0FE1E1E1E1E1E128BEE1E1E1E1E1E1E1E1E1E1E1E1E1E1E1E1E1E1E1E1E1E1E1E1E1E1E1E1E1E1E1E1E1E1E1E1E1E1E1E1E1E1E1E1E1E1E1E1E1E1E1E1E1E1E1E1E1E1E1E1E1E1E1E1BEE1E1E1E1E128E1E1E1E1E1E1E1E1E1E1E1E1E1E1E1E1E1E1E1E1
310
E1E1E1E1E1E1E1E1E1E1E1E1E1E1E1E1E1E1E1E1E1E1E1E1E1E1E1E1E1E1E1E1E1E1E1E1E1E1E1E1E1E1E1E1E1E1E1E1E1E1E1E1E1E1E1E1E1E1E1E1E1E1E1E1E1E1E1E1E1E1E1E1E1E1E1E1E1E1E1E1E1E1E1E1E1E1E1E1E1E1E1E1E1E1E1E1E1E1E1E1E1E1E1E1E1E1E1E1E1E1E1E1E1E1E1E1E1E1E1E1E1E1E1E1E1E1E1
310
E1E1E1E1E1E10FE1E1E1E1BEE1E1E10F0F0F0F0F0F0F0F0F0F0F0F0F0F0F0F0F0F0F0F0F28BEE1E1E1E1E1E1E1E1E1E1E1E1E1E1E1E1E1E1E1E1E1E1E1E1E1E1E1E1E1E1E1E1E1E1E1E1E1E1E1E1E1E1E1E1E1E1E1E1E1E1E1E1E1E1E1E1E1E1E1E1E1E1E1E1BEE1E1E1E1E128E1E1E1E1E1E1E1E1E1E1E1E1E1E1E1E1E1E1
310
E1E1E1E1E1E1E1E1E1E1E1E1E1E1E1E1E1E1E1E1E1E1E1E1E1E1E1E1E1E1E1E1E1E1E1E1E1E1E1E1E1E1E1E1E1E1E1E1E1E1E1E1E1E1E1E1E1E1E1E1E1E1E1E1E1E1E1E1E1E1E1E1E1E1E1E1E1E1E1E1E1E1E1E1E1E1E1E1E1E1E1E1E1E1E1E1E1E1E1E1E1E1E1E1E1E1E1E1E1E1E1E1E1E1E1E1E1E1E1E1E1E1E1E1E1E1E1
310
E1E1E1E1E1E1E1E1BEE1E1E1E1BEE1E1E10FE1E1E1E1E1E1E1E1E1E1E1BEBEBEBEBEBEBEBEBE28BEE1E1E1E1E1E1E1E1E1E1E1E1E1E1E1E1E1E1E1E1E1E1E1E1E1E1E1E1E1E1E1E1E1E1E1E1E1E1E1E1E1E1E1E1E1E1E1E1E1E1E1E1E1E1E1E1E1E1E1E1E1E1E1E1BEE1E1E1E1E128E1E1E1E1E1E1E1E1E1E1E1E1E1E1E1E1
310
E1E1E1E1E1E1E1E1E1E1E1E1E1E1E1E1E1E1E1E1E1E1E1E1E1E1E1E1E1E1E1E1E1E1E1E1E1E1E1E1E1E1E1E1E1E1E1E1E1E1E1E1E1E1E1E1E1E1E1E1E1E1E1E1E1E1E1E1E1E1E1E1E1E1E1E1E1E1E1E1E1E1E1E1E1E1E1E1E1E1E1E1E1E1E1E1E1E1E1E1E1E1E1E1E1E1E1E1E1E1E1E1E1E1E1E1E1E1E1E1E1E1E1E1E1E1E1
310
E1E1E1E1E1E1E1E1E1E1BEE1E1E1E1BEE1E1E10FE1E1E1E1E1E1E1E1E1E1E1E1E1E10F0F0F0F0F0F28BEE1E1E1E1E1E1E1E1E1E1E1E1E1E1E1E1E1E1E1E1E1E1E1E1E1E1E1E1E1E1E1E1E1E1E1E1E1E1E1E1E1E1E1E1E1E1E1E1E1E1E1E1E1E1E1E1E1E1E1E1E1E1E1E1BEE1E1E1E1E128E1E1E1E1E1E1E1E1E1E1E1E1E1E1
310
E1E1E1E1E1E1E1E1E1E1E1E1E1E1E1E1E1E1E1E1E1E1E1E1E1E1E1E1E1E1E1E1E1E1E1E1E1E1E1E1E1E1E1E1E1E1E1E1E1E1E1E1E1E1E1E1E1E1E1E1E1E1E1E1E1E1E1E1E1E1E1E1E1E1E1E1E1E1E1E1E1E1E1E1E1E1E1E1E1E1E1E1E1E1E1E1E1E1E1E1E1E1E1E1E1E1E1E1E1E1E1E1E1E1E1E1E1E1E1E1E1E1E1E1E1E1E1
310
E1E1E1E1E1E1E1E1E1E1E1E1BEE1E1E1E1BEE1E1E10FE1E1E1E1E1E1E1E1E1E1E1E1E1E10F0F0F0F0F0F28BEE1E1E1E1E1E1E1E1E1E1E1E1E1E1E1E1E1E1E1E1E1E1E1E1E1E1E1E1E1E1E1E1E1E1E1E1E1E1E1E1E1E1E1E1E1E1E1E1E1E1E1E1E1E1E1E1E1E1E1E1E1E1E1E1BEE1E1E1E1E128E1E1E1E1E1E1E1E1E1E1E1E1
310
E1E1E1E1E1E1E1E1E1E1E1E1E1E1E1E1E1E1E1E1E1E1E1E1E1E1E1E1E1E1E1E1E1E1E1E1E1E1E1E1E1E1E1E1E1E1E1E1E1E1E1E1E1E1E1E1E1E1E1E1E1E1E1E1E1E1E1E1E1E1E1E1E1E1E1E1E1E1E1E1E1E1E1E1E1E1E1E1E1E1E1E1E1E1E1E1E1E1E1E1E1E1E1E1E1E1E1E1E1E1E1E1E1E1E1E1E1E1E1E1E1E1E1E1E1E1E1
310
E1E1E1E1E1E1E1E1E1E1E1E1E1E1BEE1E1E1E1BEE1E1E10FE1E1E1E1E1E1E1E1E1E1E1E1E1E1E10F0FBEBEBE28BEE1E1E1E1E1E1E1E1E1E1E1E1E1E1E1E1E1E1E1E1E1E1E1E1E1E1E1E1E1E1E1E1E1E1E1E1E1E1E1E1E1E1E1E1E1E1E1E1E1E1E1E1E1E1E1E1E1E1E1E1E1E1E1E1BEE1E1E1E1E128E1E1E1E1E1E1E1E1E1E1
310
E1E1E1E1E1E1E1E1E1E1E1E1E1E1E1E1E1E1E1E1E1E1E1E1E1E1E1E1E1E1E1E1E1E1E1E1E1E1E1E1E1E1E1E1E1E1E1E1E1E1E1E1E1E1E1E1E1E1E1E1E1E1E1E1E1E1E1E1E1E1E1E1E1E1E1E1E1E1E1E1E1E1E1E1E1E1E1E1E1E1E1E1E1E1E1E1E1E1E1E1E1E1E1E1E1E1E1E1E1E1E1E1E1E1E1E1E1E1E1E1E1E1E1E1E1E1E1
310
E1E1E1E1E1E1E1E1E1E1E1E1E1E1E1E10FE1E1E1E1BEE1E1E10FE1E1E1E1E1E1E1E1E1E1E1E1E1E1E10F0F0FBEBE28BEE1E1E1E1E1E1E1E1E1E1E1E1E1E1E1E1E1E1E1E1E1E1E1E1E1E1E1E1E1E1E1E1E1E1E1E1E1E1E1E1E1E1E1E1E1E1E1E1E1E1E1E1E1E1E1E1E1E1E1E1E1E1E1E1BEE1E1E1E1E128E1E1E1E1E1E1E1E1
310
E1E1E1E1E1E1E1E1E1E1E1E1E1E1E1E1E1E1E1E1E1E1E1E1E1E1E1E1E1E1E1E1E1E1E1E1E1E1E1E1E1E1E1E1E1E1E1E1E1E1E1E1E1E1E1E1E1E1E1E1E1E1E1E1E1E1E1E1E1E1E1E1E1E1E1E1E1E1E1E1E1E1E1E1E1E1E1E1E1E1E1E1E1E1E1E1E1E1E1E1E1E1E1E1E1E1E1E1E1E1E1E1E1E1E1E1E1E1E1E1E1E1E1E1E1E1E1
310
E1E1E1E1E1E1E1E1E1E1E1E1E1E1E1E1E1E10FE1E1E1E1BEE1E1E10FE1E1E1E1E1E1E1E1E1E1E1E1E1E1E10F0FE1BEBE28BEE1E1E1E1E1E1E1E1E1E1E1E1E1E1E1E1E1E1E1E1E1E1E1E1E1E1E1E1E1E1E1E1E1E1E1E1E1E1E1E1E1E1E1E1E1E1E1E1E1E1E1E1E1E1E1E1E1E1E1E1E1E1E1E1BEE1E1E1E1E128E1E1E1E1E1E1
310
E1E1E1E1E1E1E1E1E1E1E1E1E1E1E1E1E1E1E1E1E1E1E1E1E1E1E1E1E1E1E1E1E1E1E1E1E1E1E1E1E1E1E1E1E1E1E1E1E1E1E1E1E1E1E1E1E1E1E1E1E1E1E1E1E1E1E1E1E1E1E1E1E1E1E1E1E1E1E1E1E1E1E1E1E1E1E1E1E1E1E1E1E1E1E1E1E1E1E1E1E1E1E1E1E1E1E1E1E1E1E1E1E1E1E1E1E1E1E1E1E1E1E1E1E1E1E1
310
E1E1E1E1E1E1E1E1E1E1E1E1E1E1E1E1E1E1E1E10F0F0F0F0FBE0F0F0F0F0F0F0F0F0F0F0F0F0F0F0F0F0F0F0F0F0F0F0F0F28BEE1E1E1E1E1E1E1E1E1E1E1E1E1E1E1E1E1E1E1E1E1E1E1E1E1E1E1E1E1E1E1E1E1E1E1E1E1E1E1E1E1E1E1E1E1E1E1E1E1E1E1E1E1E1E1E1E1E1E1E1E1E1E1E1BEE1E1E1E1E128E1E1E1E1
310
E1E1E1E1E1E1E1E1E1E1E1E1E1E1E1E1E1E1E1E1E1E1E1E1E1E1E1E1E1E1E1E1E1E1E1E1E1E1E1E1E1E1E1E1E1E1E1E1E1E1E1E1E1E1E1E1E1E1E1E1E1E1E1E1E1E1E1E1E1E1E1E1E1E1E1E1E1E1E1E1E1E1E1E1E1E1E1E1E1E1E1E1E1E1E1E1E1E1E1E1E1E1E1E1E1E1E1E1E1E1E1E1E1E1E1E1E1E1E1E1E1E1E1E1E1E1E1
310
E1E1E1E1E1E1E1E1E1E1E1E1E1E1E1E1E1E1E1E1E1E10FE2E2E2E2E2E1E2E2E2E2E2E2E2E2E2E2E2E2E2E2E2E2E1E1E1E1E1E1E128BEE1E1E1E1E1E1E1E1E1E1E1E1E1E1E1E1E1E1E1E1E1E1E1E1E1E1E1E1E1E1E1E1E1E1E1E1E1E1E1E1E1E1E1E1E1E1E1E1E1E1E1E1E1E1E1E1E1E1E1E1E1E1E1E1BEE1E1E1E1E128E1E1
310
E1E1E1E1E1E1E1E1E1E1E1E1E1E1E1E1E1E1E1E1E1E1E1E1E1E1E1E1E1E1E1E1E1E1E1E1E1E1E1E1E1E1E1E1E1E1E1E1E1E1E1E1E1E1E1E1E1E1E1E1E1E1E1E1E1E1E1E1E1E1E1E1E1E1E1E1E1E1E1E1E1E1E1E1E1E1E1E1E1E1E1E1E1E1E1E1E1E1E1E1E1E1E1E1E1E1E1E1E1E1E1E1E1E1E1E1E1E1E1E1E1E1E1E1E1E1E1
310
E1E1E1E1E1E1E1E1E1E1E1E1E1E1E1E1E1E1E1E1E1E1E1E10FE2E2E2E2E2E1E2E2E2E2E2E2E2E2E2E2E2E2E2E2E2E2E1E1E1E1E1E1E128BEE1E1E1E1E1E1E1E1E1E1E1E1E1E1E1E1E1E1E1E1E1E1E1E1E1E1E1E1E1E1E1E1E1E1E1E1E1E1E1E1E1E1E1E1E1E1E1E1E1E1E1E1E1E1E1E1E1E1E1E1E1E1E1E1BEE1E1E1E1E128
310
E1E1E1E1E1E1E1E1E1E1E1E1E1E1E1E1E1E1E1E1E1E1E1E1E1E1E1E1E1E1E1E1E1E1E1E1E1E1E1E1E1E1E1E1E1E1E1E1E1E1E1E1E1E1E1E1E1E1E1E1E1E1E1E1E1E1E1E1E1E1E1E1E1E1E1E1E1E1E1E1E1E1E1E1E1E1E1E1E1E1E1E1E1E1E1E1E1E1E1E1E1E1E1E1E1E1E1E1E1E1E1E1E1E1E1E1E1E1E1E1E1E1E1E1E1E1E1
310
E1E1E1E1E1E1E1E1E1E1E1E1E1E1E1E1E1E1E1E1E1E1E1E1E1E10FE2E2E2E2E2E2E2E2E2E2E2E2E2E2E2E2E2E2E1E2E2E2E2E2E2E2E2E1E128BEE1E1E1E1E1E1E1E1E1E1E1E1E1E1E1E1E1E1E1E1E1E1E1E1E1E1E1E1E1E1E1E1E1E1E1E1E1E1E1E1E1E1E1E1E1E1E1E1E1E1E1E1E1E1E1E1E1E1E1E1E1E1E1E1BEE1E1E1E1
310
E128E1E1E1E1E1E1E1E1E1E1E1E1E1E1E1E1E1E1E1E1E1E1E1E1E1E1E1E1E1E1E1E1E1E1E1E1E1E1E1E1E1E1E1E1E1E1E1E1E1E1E1E1E1E1E1E1E1E1E1E1E1E1E1E1E1E1E1E1E1E1E1E1E1E1E1E1E1E1E1E1E1E1E1E1E1E1E1E1E1E1E1E1E1E1E1E1E1E1E1E1E1E1E1E1E1E1E1E1E1E1E1E1E1E1E1E1E1E1E1E1E1E1E1E1E1
310
E1E1E1E1E1E1E1E1E1E1E1E1E1E1E1E1E1E1E1E1E1E1E1E1E1E1E1E10FE2E2E2E2E2E2E2E2E2E2E2E2E2E2E2E2E2E2E1E2E2E2E2E2E2E2E2E1E128BEE1E1E1E1E1E1E1E1E1E1E1E1E1E1E1E1E1E1E1E1E1E1E1E1E1E1E1E1E1E1E1E1E1E1E1E1E1E1E1E1E1E1E1E1E1E1E1E1E1E1E1E1E1E1E1E1E1E1E1E1E1E1E1E1BEE1E1
310
E1E1E128E1E1E1E1E1E1E1E1E1E1E1E1E1E1E1E1E1E1E1E1E1E1E1E1E1E1E1E1E1E1E1E1E1E1E1E1E1E1E1E1E1E1E1E1E1E1E1E1E1E1E1E1E1E1E1E1E1E1E1E1E1E1E1E1E1E1E1E1E1E1E1E1E1E1E1E1E1E1E1E1E1E1E1E1E1E1E1E1E1E1E1E1E1E1E1E1E1E1E1E1E1E1E1E1E1E1E1E1E1E1E1E1E1E1E1E1E1E1E1E1E1E1E1
310
E1E1E1E1E1E1E1E1E1E1E1E1E1E1E1E1E1E1E1E1E1E1E1E1E1E1E1E1E1E10F0F0F0F0F0F0F0F0F0F0F0F0F0F0F0F0F0F0F0F0F0F0F0F0F0F0F0F0F0F28BEE1E1E1E1E1E1E1E1E1E1E1E1E1E1E1E1E1E1E1E1E1E1E1E1E1E1E1E1E1E1E1E1E1E1E1E1E1E1E1E1E1E1E1E1E1E1E1E1E1E1E1E1E1E1E1E1E1E1E1E1E1E1E1E1BE
310
E1E1E1E1E128E1E1E1E1E1E1E1E1E1E1E1E1E1E1E1E1E1E1E1E1E1E1E1E1E1E1E1E1E1E1E1E1E1E1E1E1E1E1E1E1E1E1E1E1E1E1E1E1E1E1E1E1E1E1E1E1E1E1E1E1E1E1E1E1E1E1E1E1E1E1E1E1E1E1E1E1E1E1E1E1E1E1E1E1E1E1E1E1E1E1E1E1E1E1E1E1E1E1E1E1E1E1E1E1E1E1E1E1E1E1E1E1E1E1E1E1E1E1E1E1E1
310
E1E1E1E1E1E1E1E1E1E1E1E1E1E1E1E1E1E1E1E1E1E1E1E1E1E1E1E1E1E1E1E10F0F0F0F0F0F0F0F0F0F0F0F0F0F0F0F0F0F0F0F0F0FE1E1E1E1E1E1E1E128BEE1E1E1E1E1E1E1E1E1E1E1E1E1E1E1E1E1E1E1E1E1E1E1E1E1E1E1E1E1E1E1E1E1E1E1E1E1E1E1E1E1E1E1E1E1E1E1E1E1E1E1E1E1E1E1E1E1E1E1E1E1E1E1
310
E1BEE1E1E1E1E128E1E1E1E1E1E1E1E1E1E1E1E1E1E1E1E1E1E1E1E1E1E1E1E1E1E1E1E1E1E1E1E1E1E1E1E1E1E1E1E1E1E1E1E1E1E1E1E1E1E1E1E1E1E1E1E1E1E1E1E1E1E1E1E1E1E1E1E1E1E1E1E1E1E1E1E1E1E1E1E1E1E1E1E1E1E1E1E1E1E1E1E1E1E1E1E1E1E1E1E1E1E1E1E1E1E1E1E1E1E1E1E1E1E1E1E1E1E1E1
310
E1E1E1E1E1E1E1E1E1E1E1E1E1E1E1E1E1E1E1E1E1E1E1E1E1E1E1E1E1E1E1E1E1E10F0FE1E1E1E10FE10F0FE10F0F0F0F0F0F0FE1E1E1E1E1E1E1E1E1E1E1E128BEE1E1E1E1E1E1E1E1E1E1E1E1E1E1E1E1E1E1E1E1E1E1E1E1E1E1E1E1E1E1E1E1E1E1E1E1E1E1E1E1E1E1E1E1E1E1E1E1E1E1E1E1E1E1E1E1E1E1E1E1E1
310
E1E1E1BEE1E1E1E1E128E1E1E1E1E1E1E1E1E1E1E1E1E1E1E1E1E1E1E1E1E1E1E1E1E1E1E1E1E1E1E1E1E1E1E1E1E1E1E1E1E1E1E1E1E1E1E1E1E1E1E1E1E1E1E1E1E1E1E1E1E1E1E1E1E1E1E1E1E1E1E1E1E1E1E1E1E1E1E1E1E1E1E1E1E1E1E1E1E1E1E1E1E1E1E1E1E1E1E1E1E1E1E1E1E1E1E1E1E1E1E1E1E1E1E1E1E1
310
E1E1E1E1E1E1E1E1E1E1E1E1E1E1E1E1E1E1E1E1E1E1E1E1E1E1E1E1E1E1E1E1E1E1E1E10FE2E2E2E2E2E2E2E2E2E2E2E2E2E2E2E2E2E2E2E2E2E2E2E2E2E1E1E1E128BEE1E1E1E1E1E1E1E1E1E1E1E1E1E1E1E1E1E1E1E1E1E1E1E1E1E1E1E1E1E1E1E1E1E1E1E1E1E1E1E1E1E1E1E1E1E1E1E1E1E1E1E1E1E1E1E1E1E1E1
310
E1E1E1E1E1BEE1E1E1E1E128E1E1E1E1E1E1E1E1E1E1E1E1E1E1E1E1E1E1E1E1E1E1E1E1E1E1E1E1E1E1E1E1E1E1E1E1E1E1E1E1E1E1E1E1E1E1E1E1E1E1E1E1E1E1E1E1E1E1E1E1E1E1E1E1E1E1E1E1E1E1E1E1E1E1E1E1E1E1E1E1E1E1E1E1E1E1E1E1E1E1E1E1E1E1E1E1E1E1E1E1E1E1E1E1E1E1E1E1E1E1E1E1E1E1E1
310
E1E1E1E1E1E1E1E1E1E1E1E1E1E1E1E1E1E1E1E1E1E1E1E1E1E1E1E1E1E1E1E1E1E1E1E1E1E10FE2E2E2E2E2E1E2E2E2E1E2E2E2E2E2E2E2E2E2E2E2E2E2E2E2E1E1E1E128BEE1E1E1E1E1E1E1E1E1E1E1E1E1E1E1E1E1E1E1E1E1E1E1E1E1E1E1E1E1E1E1E1E1E1E1E1E1E1E1E1E1E1E1E1E1E1E1E1E1E1E1E1E1E1E1E1E1
310
E1E1E1E1E1E1E1BEE1E1E1E1E128E1E1E1E1E1E1E1E1E1E1E1E1E1E1E1E1E1E1E1E1E1E1E1E1E1E1E1E1E1E1E1E1E1E1E1E1E1E1E1E1E1E1E1E1E1E1E1E1E1E1E1E1E1E1E1E1E1E1E1E1E1E1E1E1E1E1E1E1E1E1E1E1E1E1E1E1E1E1E1E1E1E1E1E1E1E1E1E1E1E1E1E1E1E1E1E1E1E1E1E1E1E1E1E1E1E1E1E1E1E1E1E1E1
310
E1E1E1E1E1E1E1E1E1E1E1E1E1E1E1E1E1E1E1E1E1E1E1E1E1E1E1E1E1E1E1E1E1E1E1E1E1E1E1E10F0F0F0F0F0F0F0F0F0F0F0F0F0F0F0F0F0F0F0F0F0F0F0F0F0F0F0FBE0F28BEE1E1E1E1E1E1E1E1E1E1E1E1E1E1E1E1E1E1E1E1E1E1E1E1E1E1E1E1E1E1E1E1E1E1E1E1E1E1E1E1E1E1E1E1E1E1E1E1E1E1E1E1E1E1E1
310
E1E1E1E1E1E1E1E1E1BEE1E1E1E1E128E1E1E1E1E1E1E1E1E1E1E1E1E1E1E1E1E1E1E1E1E1E1E1E1E1E1E1E1E1E1E1E1E1E1E1E1E1E1E1E1E1E1E1E1E1E1E1E1E1E1E1E1E1E1E1E1E1E1E1E1E1E1E1E1E1E1E1E1E1E1E1E1E1E1E1E1E1E1E1E1E1E1E1E1E1E1E1E1E1E1E1E1E1E1E1E1E1E1E1E1E1E1E1E1E1E1E1E1E1E1E1
310
E1E1E1E1E1E1E1E1E1E1E1E1E1E1E1E1E1E1E1E1E1E1E1E1E1E1E1E1E1E1E1E1E1E1E1E1E1E1E1E1E1E10FBEBEBEBEBEBEBEE2E2E2E2E1E1E1E1E1E1E1E1E1E1E1E10F0FE10FBE0F28BEE1E1E1E1E1E1E1E1E1E1E1E1E1E1E1E1E1E1E1E1E1E1E1E1E1E1E1E1E1E1E1E1E1E1E1E1E1E1E1E1E1E1E1E1E1E1E1E1E1E1E1E1E1
310
E1E1E1E1E1E1E1E1E1E1E1BEE1E1E1E1E128E1E1E1E1E1E1E1E1E1E1E1E1E1E1E1E1E1E1E1E1E1E1E1E1E1E1E1E1E1E1E1E1E1E1E1E1E1E1E1E1E1E1E1E1E1E1E1E1E1E1E1E1E1E1E1E1E1E1E1E1E1E1E1E1E1E1E1E1E1E1E1E1E1E1E1E1E1E1E1E1E1E1E1E1E1E1E1E1E1E1E1E1E1E1E1E1E1E1E1E1E1E1E1E1E1E1E1E1E1
310
E1E1E1E1E1E1E1E1E1E1E1E1E1E1E1E1E1E1E1E1E1E1E1E1E1E1E1E1E1E1E1E1E1E1E1E1E1E1E1E1E1E1E1E10FE1E1E1E1E1E1E1E2E2E2E2E1E1E1E1E1E1E1E1E1E1E1E10F0FBEBEBEBE28BEE1E1E1E1E1E1E1E1E1E1E1E1E1E1E1E1E1E1E1E1E1E1E1E1E1E1E1E1E1E1E1E1E1E1E1E1E1E1E1E1E1E1E1E1E1E1E1E1E1E1E1
310
E1E1E1E1E1E1E1E1E1E1E1E1E1BEE1E1E1E1E128E1E1E1E1E1E1E1E1E1E1E1E1E1E1E1E1E1E1E1E1E1E1E1E1E1E1E1E1E1E1E1E1E1E1E1E1E1E1E1E1E1E1E1E1E1E1E1E1E1E1E1E1E1E1E1E1E1E1E1E1E1E1E1E1E1E1E1E1E1E1E1E1E1E1E1E1E1E1E1E1E1E1E1E1E1E1E1E1E1E1E1E1E1E1E1E1E1E1E1E1E1E1E1E1E1E1E1
310
E1E1E1E1E1E1E1E1E1E1E1E1E1E1E1E1E1E1E1E1E1E1E1E1E1E1E1E1E1E1E1E1E1E1E1E1E1E1E1E1E1E1E1E1E1E10FBEBEBEBEBEBEBEBEBEBEBEBEBEBEBEBEBEBEBEBEBEBEBEBEBEBEBEBEBE28BEE1E1E1E1E1E1E1E1E1E1E1E1E1E1E1E1E1E1E1E1E1E1E1E1E1E1E1E1E1E1E1E1E1E1E1E1E1E1E1E1E1E1E1E1E1E1E1E1E1
310
E1E1E1E1E1E1E1E1E1E1E1E1E1E1E1BEE1E1E1E1E128E1E1E1E1E1E1E1E1E1E1E1E1E1E1E1E1E1E1E1E1E1E1E1E1E1E1E1E1E1E1E1E1E1E1E1E1E1E1E1E1E1E1E1E1E1E1E1E1E1E1E1E1E1E1E1E1E1E1E1E1E1E1E1E1E1E1E1E1E1E1E1E1E1E1E1E1E1E1E1E1E1E1E1E1E1E1E1E1E1E1E1E1E1E1E1E1E1E1E1E1E1E1E1E1E1
310
E1E1E1E1E1E1E1E1E1E1E1E1E1E1E1E1E1E1E1E1E1E1E1E1E1E1E1E1E1E1E1E1E1E1E1E1E1E1E1E1E1E1E1E1E1E1E1E10FBEBEBEBEBEBEE1BEBEBEBEBEBEBEBEBEBEBEBEBEBEBEBEBEBEBEBEBEBE28BEE1E1E1E1E1E1E1E1E1E1E1E1E1E1E1E1E1E1E1E1E1E1E1E1E1E1E1E1E1E1E1E1E1E1E1E1E1E1E1E1E1E1E1E1E1E1E1
310
E1E1E1E1E1E1E1E1E1E1E1E1E1E1E1E1E1BEE1E1E1E1E128E1E1E1E1E1E1E1E1E1E1E1E1E1E1E1E1E1E1E1E1E1E1E1E1E1E1E1E1E1E1E1E1E1E1E1E1E1E1E1E1E1E1E1E1E1E1E1E1E1E1E1E1E1E1E1E1E1E1E1E1E1E1E1E1E1E1E1E1E1E1E1E1E1E1E1E1E1E1E1E1E1E1E1E1E1E1E1E1E1E1E1E1E1E1E1E1E1E1E1E1E1E1E1
310
E1E1E1E1E1E1E1E1E1E1E1E1E1E1E1E1E1E1E1E1E1E1E1E1E1E1E1E1E1E1E1E1E1E1E1E1E1E1E1E1E1E1E1E1E1E1E1E1E1E10FE1E1E1E1E1E1E1BEBEBEBEBEBEBEBEBEBEBEBEBEBEBEBEBEBEBEE1E1E128BEE1E1E1E1E1E1E1E1E1E1E1E1E1E1E1E1E1E1E1E1E1E1E1E1E1E1E1E1E1E1E1E1E1E1E1E1E1E1E1E1E1E1E1E1E1
310
E1E1E1E1E1E1E1E1E1E1E1E1E1E1E1E1E1E1E1BEE1E1E1E1E128E1E1E1E1E1E1E1E1E1E1E1E1E1E1E1E1E1E1E1E1E1E1E1E1E1E1E1E1E1E1E1E1E1E1E1E1E1E1E1E1E1E1E1E1E1E1E1E1E1E1E1E1E1E1E1E1E1E1E1E1E1E1E1E1E1E1E1E1E1E1E1E1E1E1E1E1E1E1E1E1E1E1E1E1E1E1E1E1E1E1E1E1E1E1E1E1E1E1E1E1E1
310
E1E1E1E1E1E1E1E1E1E1E1E1E1E1E1E1E1E1E1E1E1E1E1E1E1E1E1E1E1E1E1E1E1E1E1E1E1E1E1E1E1E1E1E1E1E1E1E1E1E1E1E10FBEBEBEBEBEBEBEBEBEBEBEBEBEBEBEBEBEBEBEBEBEBEBEE1E1E1E1E1E128BEE1E1E1E1E1E1E1E1E1E1E1E1E1E1E1E1E1E1E1E1E1E1E1E1E1E1E1E1E1E1E1E1E1E1E1E1E1E1E1E1E1E1E1
310
E1E1E1E1E1E1E1E1E1E1E1E1E1E1E1E1E1E1E1E1E1BEE1E1E1E1E128E1E1E1E1E1E1E1E1E1E1E1E1E1E1E1E1E1E1E1E1E1E1E1E1E1E1E1E1E1E1E1E1E1E1E1E1E1E1E1E1E1E1E1E1E1E1E1E1E1E1E1E1E1E1E1E1E1E1E1E1E1E1E1E1E1E1E1E1E1E1E1E1E1E1E1E1E1E1E1E1E1E1E1E1E1E1E1E1E1E1E1E1E1E1E1E1E1E1E1
310
E1E1E1E1E1E1E1E1E1E1E1E1E1E1E1E1E1E1E1E1E1E1E1E1E1E1E1E1E1E1E1E1E1E1E1E1E1E1E1E1E1E1E1E1E1E1E1E1E1E1E1E1E1E10FBEBEBEBEBEBEBEBEBEBEBEBEBEBEBEBEBEBEBEBEBEBEBEE1E1E1E1E1E128BEE1E1E1E1E1E1E1E1E1E1E1E1E1E1E1E1E1E1E1E1E1E1E1E1E1E1E1E1E1E1E1E1E1E1E1E1E1E1E1E1E1
310
E1E1E1E1E1E1E1E1E1E1E1E1E1E1E1E1E1E1E1E1E1E1E1BEE1E1E1E1E128E1E1E1E1E1E1E1E1E1E1E1E1E1E1E1E1E1E1E1E1E1E1E1E1E1E1E1E1E1E1E1E1E1E1E1E1E1E1E1E1E1E1E1E1E1E1E1E1E1E1E1E1E1E1E1E1E1E1E1E1E1E1E1E1E1E1E1E1E1E1E1E1E1E1E1E1E1E1E1E1E1E1E1E1E1E1E1E1E1E1E1E1E1E1E1E1E1
310
E1E1E1E1E1E1E1E1E1E1E1E1E1E1E1E1E1E1E1E1E1E1E1E1E1E1E1E1E1E1E1E1E1E1E1E1E1E1E1E1E1E1E1E1E1E1E1E1E1E1E1E1E1E1E1E10FE1E1E1E1E1E1E1BEBEBEBEBEBEBEBEBEBEBEBEBEBEBEE1E1E1E1E1E1E128BEE1E1E1E1E1E1E1E1E1E1E1E1E1E1E1E1E1E1E1E1E1E1E1E1E1E1E1E1E1E1E1E1E1E1E1E1E1E1E1
310
E1E1E1E1E1E1E1E1E1E1E1E1E1E1E1E1E1E1E1E1E1E1E1E1E1BEE1E1E1E1E128E1E1E1E1E1E1E1E1E1E1E1E1E1E1E1E1E1E1E1E1E1E1E1E1E1E1E1E1E1E1E1E1E1E1E1E1E1E1E1E1E1E1E1E1E1E1E1E1E1E1E1E1E1E1E1E1E1E1E1E1E1E1E1E1E1E1E1E1E1E1E1E1E1E1E1E1E1E1E1E1E1E1E1E1E1E1E1E1E1E1E1E1E1E1E1
310
E1E1E1E1E1E1E1E1E1E1E1E1E1E1E1E1E1E1E1E1E1E1E1E1E1E1E1E1E1E1E1E1E1E1E1E1E1E1E1E1E1E1E1E1E1E1E1E1E1E1E1E1E1E1E1E1E1E10F0F0F0F0F0F0F0F0F28BEBEBE0FBE0F0F0F0FBEBE0FBE0F0F0F0F0F0F0F28BEE1E1E1E1E1E1E1E1E1E1E1E1E1E1E1E1E1E1E1E1E1E1E1E1E1E1E1E1E1E1E1E1E1E1E1E1E1
310
E1E1E1E1E1E1E1E1E1E1E1E1E1E1E1E1E1E1E1E1E1E1E1E1E1E1E1BEE1E1E1E1BE28E1E1E1E1E1E1E1E1E1E1E1E1E1E1E1E1E1E1E1E1E1E1E1E1E1E1E1E1E1E1E1E1E1E1E1E1E1E1E1E1E1E1E1E1E1E1E1E1E1E1E1E1E1E1E1E1E1E1E1E1E1E1E1E1E1E1E1E1E1E1E1E1E1E1E1E1E1E1E1E1E1E1E1E1E1E1E1E1E1E1E1E1E1
310
E1E1E1E1E1E1E1E1E1E1E1E1E1E1E1E1E1E1E1E1E1E1E1E1E1E1E1E1E1E1E1E1E1E1E1E1E1E1E1E1E1E1E1E1E1E1E1E1E1E1E1E1E1E1E1E1E1E1E1E10F0F0F0F0F0F0F0F0F28E1E1E1E1E1E1E1E1E1E1E1E1E1E1E1E1E1E1E1E128BEE1E1E1E1E1E1E1E1E1E1E1E1E1E1E1E1E1E1E1E1E1E1E1E1E1E1E1E1E1E1E1E1E1E1E1
310
E1E1E1E1E1E1E1E1E1E1E1E1E1E1E1E1E1E1E1E1E1E1E1E1E1E1E1E1E1BEE1E1E1E1BE28E1E1E1E1E1E1E1E1E1E1E1E1E1E1E1E1E1E1E1E1E1E1E1E1E1E1E1E1E1E1E1E1E1E1E1E1E1E1E1E1E1E1E1E1E1E1E1E1E1E1E1E1E1E1E1E1E1E1E1E1E1E1E1E1E1E1E1E1E1E1E1E1E1E1E1E1E1E1E1E1E1E1E1E1E1E1E1E1E1E1E1
310
E1E1E1E1E1E1E1E1E1E1E1E1E1E1E1E1E1E1E1E1E1E1E1E1E1E1E1E1E1E1E1E1E1E1E1E1E1E1E1E1E1E1E1E1E1E1E1E1E1E1E1E1E1E1E1E1E1E1E1E1E1E10F0F0F0F0F0F0F0F0FE1E1E1E1E1E1E1E1E1E1E1E1E1E1E1E1E1E1E1E1E128BEE1E1E1E1E1E1E1E1E1E1E1E1E1E1E1E1E1E1E1E1E1E1E1E1E1E1E1E1E1E1E1E1E1
310
E1E1E1E1E1E1E1E1E1E1E1E1E1E1E1E1E1E1E1E1E1E1E1E1E1E1E1E1E1E1E1BEE1E1E1E1BE28E1E1E1E1E1E1E1E1E1E1E1E1E1E1E1E1E1E1E1E1E1E1E1E1E1E1E1E1E1E1E1E1E1E1E1E1E1E1E1E1E1E1E1E1E1E1E1E1E1E1E1E1E1E1E1E1E1E1E1E1E1E1E1E1E1E1E1E1E1E1E1E1E1E1E1E1E1E1E1E1E1E1E1E1E1E1E1E1E1
310
E1E1E1E1E1E1E1E1E1E1E1E1E1E1E1E1E1E1E1E1E1E1E1E1E1E1E1E1E1E1E1E1E1E1E1E1E1E1E1E1E1E1E1E1E1E1E1E1E1E1E1E1E1E1E1E1E1E1E1E1E1E1E1E10F0F0F0F0F0F0F0F0F0F0F0F0F0F0F0F0F0F0F0F0F0F0F0F0F0F0F0F0F0F28BEE1E1E1E1E1E1E1E1E1E1E1E1E1E1E1E1E1E1E1E1E1E1E1E1E1E1E1E1E1E1E1
310
E1E1E1E1E1E1E1E1E1E1E1E1E1E1E1E1E1E1E1E1E1E1E1E1E1E1E1E1E1E1E1E1E1BEE1E1E1E1BE28E1E1E1E1E1E1E1E1E1E1E1E1E1E1E1E1E1E1E1E1E1E1E1E1E1E1E1E1E1E1E1E1E1E1E1E1E1E1E1E1E1E1E1E1E1E1E1E1E1E1E1E1E1E1E1E1E1E1E1E1E1E1E1E1E1E1E1E1E1E1E1E1E1E1E1E1E1E1E1E1E1E1E1E1E1E1E1
310
E1E1E1E1E1E1E1E1E1E1E1E1E1E1E1E1E1E1E1E1E1E1E1E1E1E1E1E1E1E1E1E1E1E1E1E1E1E1E1E1E1E1E1E1E1E1E1E1E1E1E1E1E1E1E1E1E1E1E1E1E1E1E1E1E1E1E1E1E1E1E1E1E1E1E1E1E1E1E1E1E1E1E1E1E1E1E1E1E1E1E1E1E1E1E1E128BEE1E1E1E1E1E1E1E1E1E1E1E1E1E1E1E1E1E1E1E1E1E1E1E1E1E1E1E1E1
310
E1E1E1E1E1E1E1E1E1E1E1E1E1E1E1E1E1E1E1E1E1E1E1E1E1E1E1E1E1E1E1E1E1E1E1BEE1E1E1E1BE28E1E1E1E1E1E1E1E1E1E1E1E1E1E1E1E1E1E1E1E1E1E1E1E1E1E1E1E1E1E1E1E1E1E1E1E1E1E1E1E1E1E1E1E1E1E1E1E1E1E1E1E1E1E1E1E1E1E1E1E1E1E1E1E1E1E1E1E1E1E1E1E1E1E1E1E1E1E1E1E1E1E1E1E1E1
310
E1E1E1E1E1E1E1E1E1E1E1E1E1E1E1E1E1E1E1E1E1E1E1E1E1E1E1E1E1E1E1E1E1E1E1E1E1E1E1E1E1E1E1E1E1E1E1E1E1E1E1E1E1E1E1E1E1E1E1E1E1E1E1E1E1E1E1E1E1E1E1E1E1E1E1E1E1E1E1E1E1E1E1E1E1E1E1E1E1E1E1E1E1E1E1E1E1E128BEE1E1E1E1E1E1E1E1E1E1E1E1E1E1E1E1E1E1E1E1E1E1E1E1E1E1E1
310
E1E1E1E1E1E1E1E1E1E1E1E1E1E1E1E1E1E1E1E1E1E1E1E1E1E1E1E1E1E1E1E1E1E1E1E1E1BEE1E1E1E1BE28E1E1E1E1E1E1E1E1E1E1E1E1E1E1E1E1E1E1E1E1E1E1E1E1E1E1E1E1E1E1E1E1E1E1E1E1E1E1E1E1E1E1E1E1E1E1E1E1E1E1E1E1E1E1E1E1E1E1E1E1E1E1E1E1E1E1E1E1E1E1E1E1E1E1E1E1E1E1E1E1E1E1E1
310
E1E1E1E1E1E1E1E1E1E1E1E1E1E1E1E1E1E1E1E1E1E1E1E1E1E1E1E1E1E1E1E1E1E1E1E1E1E1E1E1E1E1E1E1E1E1E1E1E1E1E1E1E1E1E1E1E1E1E1E1E1E1E1E1E1E1E1E1E1E1E1E1E1E1E1E1E1E1E1E1E1E1E1E1E1E1E1E1E1E1E1E1E1E1E1E1E1E1E1E128BEE1E1E1E1E1E1E1E1E1E1E1E1E1E1E1E1E1E1E1E1E1E1E1E1E1
310
E1E1E1E1E1E1E1E1E1E1E1E1E1E1E1E1E1E1E1E1E1E1E1E1E1E1E1E1E1E1E1E1E1E1E1E1E1E1E1BEE1E1E1E1BE28E1E1E1E1E1E1E1E1E1E1E1E1E1E1E1E1E1E1E1E1E1E1E1E1E1E1E1E1E1E1E1E1E1E1E1E1E1E1E1E1E1E1E1E1E1E1E1E1E1E1E1E1E1E1E1E1E1E1E1E1E1E1E1E1E1E1E1E1E1E1E1E1E1E1E1E1E1E1E1E1E1
310
E1E1E1E1E1E1E1E1E1E1E1E1E1E1E1E1E1E1E1E1E1E1E1E1E1E1E1E1E1E1E1E1E1E1E1E1E1E1E1E1E1E1E1E1E1E1E1E1E1E1E1E1E1E1E1E1E1E1E1E1E1E1E1E1E1E1E1E1E1E1E1E1E1E1E1E1E1E1E1E1E1E1E1E1E1E1E1E1E1E1E1E1E1E1E1E1E1E1E1E1E1E128BEE1E1E1E1E1E1E1E1E1E1E1E1E1E1E1E1E1E1E1E1E1E1E1
310
E1E1E1E1E1E1E1E1E1E1E1E1E1E1E1E1E1E1E1E1E1E1E1E1E1E1E1E1E1E1E1E1E1E1E1E1E1E1E1E1E1BEE1E1E1E1BE28E1E1E1E1E1E1E1E1E1E1E1E1E1E1E1E1E1E1E1E1E1E1E1E1E1E1E1E1E1E1E1E1E1E1E1E1E1E1E1E1E1E1E1E1E1E1E1E1E1E1E1E1E1E1E1E1E1E1E1E1E1E1E1E1E1E1E1E1E1E1E1E1E1E1E1E1E1E1E1
310
E1E1E1E1E1E1E1E1E1E1E1E1E1E1E1E1E1E1E1E1E1E1E1E1E1E1E1E1E1E1E1E1E1E1E1E1E1E1E1E1E1E1E1E1E1E1E1E1E1E1E1E1E1E1E1E1E1E1E1E1E1E1E1E1E1E1E1E1E1E1E1E1E1E1E1E1E1E1E1E1E1E1E1E1E1E1E1E1E1E1E1E1E1E1E1E1E1E1E1E1E1E1E1E128BEE1E1E1E1E1E1E1E1E1E1E1E1E1E1E1E1E1E1E1E1E1
310
E1E1E1E1E1E1E1E1E1E1E1E1E1E1E1E1E1E1E1E1E1E1E1E1E1E1E1E1E1E1E1E1E1E1E1E1E1E1E1E1E1E1E1BEE1E1E1E1BE28E1E1E1E1E1E1E1E1E1E1E1E1E1E1E1E1E1E1E1E1E1E1E1E1E1E1E1E1E1E1E1E1E1E1E1E1E1E1E1E1E1E1E1E1E1E1E1E1E1E1E1E1E1E1E1E1E1E1E1E1E1E1E1E1E1E1E1E1E1E1E1E1E1E1E1E1E1
310
E1E1E1E1E1E1E1E1E1E1E1E1E1E1E1E1E1E1E1E1E1E1E1E1E1E1E1E1E1E1E1E1E1E1E1E1E1E1E1E1E1E1E1E1E1E1E1E1E1E1E1E1E1E1E1E1E1E1E1E1E1E1E1E1E1E1E1E1E1E1E1E1E1E1E1E1E1E1E1E1E1E1E1E1E1E1E1E1E1E1E1E1E1E1E1E1E1E1E1E1E1E1E1E1E1E128BEE1E1E1E1E1E1E1E1E1E1E1E1E1E1E1E1E1E1E1
310
E1E1E1E1E1E1E1E1E1E1E1E1E1E1E1E1E1E1E1E1E1E1E1E1E1E1E1E1E1E1E1E1E1E1E1E1E1E1E1E1E1E1E1E1E1BEE1E1E1E1BE28E1E1E1E1E1E1E1E1E1E1E1E1E1E1E1E1E1E1E1E1E1E1E1E1E1E1E1E1E1E1E1E1E1E1E1E1E1E1E1E1E1E1E1E1E1E1E1E1E1E1E1E1E1E1E1E1E1E1E1E1E1E1E1E1E1E1E1E1E1E1E1E1E1E1E1
310
E1E1E1E1E1E1E1E1E1E1E1E1E1E1E1E1E1E1E1E1E1E1E1E1E1E1E1E1E1E1E1E1E1E1E1E1E1E1E1E1E1E1E1E1E1E1E1E1E1E1E1E1E1E1E1E1E1E1E1E1E1E1E1E1E1E1E1E1E1E1E1E1E1E1E1E1E1E1E1E1E1E1E1E1E1E1E1E1E1E1E1E1E1E1E1E1E1E1E1E1E1E1E1E1E1E1E1E128BEE1E1E1E1E1E1E1E1E1E1E1E1E1E1E1E1E1
310
E1E1E1E1E1E1E1E1E1E1E1E1E1E1E1E1E1E1E1E1E1E1E1E1E1E1E1E1E1E1E1E1E1E1E1E1E1E1E1E1E1E1E1E1E1E1E1BEE1E1E1E1BE28E1E1E1E1E1E1E1E1E1E1E1E1E1E1E1E1E1E1E1E1E1E1E1E1E1E1E1E1E1E1E1E1E1E1E1E1E1E1E1E1E1E1E1E1E1E1E1E1E1E1E1E1E1E1E1E1E1E1E1E1E1E1E1E1E1E1E1E1E1E1E1E1E1
310
E1E1E1E1E1E1E1E1E1E1E1E1E1E1E1E1E1E1E1E1E1E1E1E1E1E1E1E1E1E1E1E1E1E1E1E1E1E1E1E1E1E1E1E1E1E1E1E1E1E1E1E1E1E1E1E1E1E1E1E1E1E1E1E1E1E1E1E1E1E1E1E1E1E1E1E1E1E1E1E1E1E1E1E1E1E1E1E1E1E1E1E1E1E1E1E1E1E1E1E1E1E1E1E1E1E1E1E1E1E128BEE1E1E1E1E1E1E1E1E1E1E1E1E1E1E1
310
E1E1E1E1E1E1E1E1E1E1E1E1E1E1E1E1E1E1E1E1E1E1E1E1E1E1E1E1E1E1E1E1E1E1E1E1E1E1E1E1E1E1E1E1E1E1E1E1E1BEE1E1E1E1BE28E1E1E1E1E1E1E1E1E1E1E1E1E1E1E1E1E1E1E1E1E1E1E1E1E1E1E1E1E1E1E1E1E1E1E1E1E1E1E1E1E1E1E1E1E1E1E1E1E1E1E1E1E1E1E1E1E1E1E1E1E1E1E1E1E1E1E1E1E1E1E1
310
E1E1E1E1E1E1E1E1E1E1E1E1E1E1E1E1E1E1E1E1E1E1E1E1E1E1E1E1E1E1E1E1E1E1E1E1E1E1E1E1E1E1E1E1E1E1E1E1E1E1E1E1E1E1E1E1E1E1E1E1E1E1E1E1E1E1E1E1E1E1E1E1E1E1E1E1E1E1E1E1E1E1E1E1E1E1E1E1E1E1E1E1E1E1E1E1E1E1E1E1E1E1E1E1E1E1E1E1E1E1E1E128BEE1E1E1E1E1E1E1E1E1E1E1E1E1
310
E1E1E1E1E1E1E1E1E1E1E1E1E1E1E1E1E1E1E1E1E1E1E1E1E1E1E1E1E1E1E1E1E1E1E1E1E1E1E1E1E1E1E1E1E1E1E1E1E1E1E1BEE1E1E1E1BE28E1E1E1E1E1E1E1E1E1E1E1E1E1E1E1E1E1E1E1E1E1E1E1E1E1E1E1E1E1E1E1E1E1E1E1E1E1E1E1E1E1E1E1E1E1E1E1E1E1E1E1E1E1E1E1E1E1E1E1E1E1E1E1E1E1E1E1E1E1
310
E1E1E1E1E1E1E1E1E1E1E1E1E1E1E1E1E1E1E1E1E1E1E1E1E1E1E1E1E1E1E1E1E1E1E1E1E1E1E1E1E1E1E1E1E1E1E1E1E1E1E1E1E1E1E1E1E1E1E1E1E1E1E1E1E1E1E1E1E1E1E1E1E1E1E1E1E1E1E1E1E1E1E1E1E1E1E1E1E1E1E1E1E1E1E1E1E1E1E1E1E1E1E1E1E1E1E1E1E1E1E1E1E1E128BEE1E1E1E1E1E1E1E1E1E1E1
310
E1E1E1E1E1E1E1E1E1E1E1E1E1E1E1E1E1E1E1E1E1E1E1E1E1E1E1E1E1E1E1E1E1E1E1E1E1E1E1E1E1E1E1E1E1E1E1E1E1E1E1E1E1BEE1E1E1E1BE28E1E1E1E1E1E1E1E1E1E1E1E1E1E1E1E1E1E1E1E1E1E1E1E1E1E1E1E1E1E1E1E1E1E1E1E1E1E1E1E1E1E1E1E1E1E1E1E1E1E1E1E1E1E1E1E1E1E1E1E1E1E1E1E1E1E1E1
310
E1E1E1E1E1E1E1E1E1E1E1E1E1E1E1E1E1E1E1E1E1E1E1E1E1E1E1E1E1E1E1E1E1E1E1E1E1E1E1E1E1E1E1E1E1E1E1E1E1E1E1E1E1E1E1E1E1E1E1E1E1E1E1E1E1E1E1E1E1E1E1E1E1E1E1E1E1E1E1E1E1E1E1E1E1E1E1E1E1E1E1E1E1E1E1E1E1E1E1E1E1E1E1E1E1E1E1E1E1E1E1E1E1E1E1E128BEE1E1E1E1E1E1E1E1E1
310
E1E1E1E1E1E1E1E1E1E1E1E1E1E1E1E1E1E1E1E1E1E1E1E1E1E1E1E1E1E1E1E1E1E1E1E1E1E1E1E1E1E1E1E1E1E1E1E1E1E1E1E1E1E1E1BEE1E1E1E1BE28E1E1E1E1E1E1E1E1E1E1E1E1E1E1E1E1E1E1E1E1E1E1E1E1E1E1E1E1E1E1E1E1E1E1E1E1E1E1E1E1E1E1E1E1E1E1BEBEBEBEBEBEBEBEBEBEBEBEBEBEBEBEBEBEBE
310
BEBEBEBEBEBEBEBEBEBEBEBEBEBEBEBEBEBEBEBEBEBEBEBEBEBEBEBEBEBEBEBEBEBEBEBEBEBEBEBEBEBEBEBEBEBEBEBEBEBEBEBEBEBEBEBEBEBEBEBEBEBEBEBEBEBEBEE2E1E1E1E1E1E1E1E1E1E1E1E1E1E1E1E1E1E1E1E1E1E1E1E1E1E1E1E1E1E1E1E1E1E1E1E1E1E1E1E1E1E1E1E1E1E1E1E1E1E128BEE1E1E1E1E1E1E1
310
E1E1E1E1E1E1E1E1E1E1E1E1E1E1E1E1E1E1E1E1E1E1E1E1E1E1E1E1E1E1E1E1E1E1E1E1E1E1E1E1E1E1E1E1E1E1E1E1E1E1E1E1E1E1E1E1E1BEE1E1E1E1BE28E1E1E1E1E1E1E1E1E1E1E1E1E1E1E1E1E1E1E1E1E1E1E1E1E1E1E1E1E1E1E1E1E1E1E1E1E1E1E1E1E1E1E1E1E1E1BEE1E1E1E1E1E1E1E1E1E1E1E1E1E1E1E1
310
E1E1E1E1E1E1E1E1E1E1E1E1E1E1E1E1E1E1E1E1E1E1E10F0F0F0F0F0F0FE1E1E1E1E1E1E1E1E1E1E1E1E1E1E1E1E1E1E1E1E1E1E1E1E1E1E1E1E1E1E1E1E1E1E1E1E1E1E1BEE1E1E1E1E1E1E1E1E1E1E1E1E1E1E1E1E1E1E1E1E1E1E1E1E1E1E1E1E1E1E1E1E1E1E1E1E1E1E1E1E1E1E1E1E1E1E1E1E1E128BEE1E1E1E1E1
310
E1E1E1E1E1E1E1E1E1E1E1E1E1E1E1E1E1E1E1E1E1E1E1E1E1E1E1E1E1E1E1E1E1E1E1E1E1E1E1E1E1E1E1E1E1E1E1E1E1E1E1E1E1E1E1E1E1E1E1BEE1E1E1E1BE28E1E1E1E1E1E1E1E1E1E1E1E1E1E1E1E1E1E1E1E1E1E1E1E1E1E1E1E1E1E1E1E1E1E1E1E1E1E1E1E1E1E1E1E1E1E1BEE1E1BEBEE1E1E1E1E1E1E1E1E1E1
310
E1E1E1E1E1E1E1E1E1E1E1E1E1E1E1E1E1E1E1E1E1E1E1E1E10F0F0F0F0F0F0FE1E1E1E1E1E1E1E1E1E1E1E1E1E1E1E1E1E1E1E1E1E1E1E1E1E1E1E1E1E1E1E1E1E1E1BEBEE1E1BEE1E1E1E1E1E1E1E1E1E1E1E1E1E1E1E1E1E1E1E1E1E1E1E1E1E1E1E1E1E1E1E1E1E1E1E1E1E1E1E1E1E1E1E1E1E1E1E1E1E128BEE1E1E1
310
E1E1E1E1E1E1E1E1E1E1E1E1E1E1E1E1E1E1E1E1E1E1E1E1E1E1E1E1E1E1E1E1E1E1E1E1E1E1E1E1E1E1E1E1E1E1E1E1E1E1E1E1E1E1E1E1E1E1E1E1E1BEE1E1E1E1BE28E1E1E1E1E1E1E1E1E1E1E1E1E1E1E1E1E1E1E1E1E1E1E1E1E1E1E1E1E1E1E1E1E1E1E1E1E1E1E1E1E1E1E1E1E1E1BEE1E1BEBEBEBEBEBEBEBEBEBE
310
BEBEBEBEBEBEBEBEBEBEBEBEBEBEBEBEBEBEBEBEBEBEBEBEBEBEBE0F0F0F0F0F0F0FBEBEBEBEBEBEBEBEBEBEBEBEBEBEBEBEBEBEBEBEBEBEBEBEBEBEBEBEBEBEBEBEBEBEBEBEE2E1E1BEE1E1E1E1E1E1E1E1E1E1E1E1E1E1E1E1E1E1E1E1E1E1E1E1E1E1E1E1E1E1E1E1E1E1E1E1E1E1E1E1E1E1E1E1E1E1E1E1E1E128BEE1
310
E1E1E1E1E1E1E1E1E1E1E1E1E1E1E1E1E1E1E1E1E1E1E1E1E1E1E1E1E1E1E1E1E1E1E1E1E1E1E1E1E1E1E1E1E1E1E1E1E1E1E1E1E1E1E1E1E1E1E1E1E1E1E1BEE1E1E1E1BE28E1E1E1E1E1E1E1E1E1E1E1E1E1E1E1E1E1E1E1E1E1E1E1E1E1E1E1E1E1E1E1E1E1E1E1E1E1E1E1E1E1E1E1E1E1E1BEE1E1BEBEE1E1E1E1E1E1
310
E1E1E1E1E1E1E1E1E1E1E1E1E1E1E1E1E1E1E1E1E1E1E1E1E1E1E1E1E10F0F0F0F0F0F0FE1E1E1E1E1E1E1E1E1E1E1E1E1E1E1E1E1E1E1E1E1E1E1E1E1E1E1E1E1E1E1E1E1E1E1BEBEE1E1BEE1E1E1E1E1E1E1E1E1E1E1E1E1E1E1E1E1E1E1E1E1E1E1E1E1E1E1E1E1E1E1E1E1E1E1E1E1E1E1E1E1E1E1E1E1E1E1E1E1E128
310
BEE1E1E1E1E1E1E1E1E1E1E1E1E1E1E1E1E1E1E1E1E1E1E1E1E1E1E1E1E1E1E1E1E1E1E1E1E1E1E1E1E1E1E1E1E1E1E1E1E1E1E1E1E1E1E1E1E1E1E1E1E1E1E1E1BEE1E1E1E1BE28E1E1E1E1E1E1E1E1E1E1E1E1E1E1E1E1E1E1E1E1E1E1E1E1E1E1E1E1E1E1E1E1E1E1E1E1E1E1E1E1E1E1E1E1E1E1BEE1E1BEBEBEBEBEBE
310
BEBEBEBEBEBEBEBEBEBEBEBEBEBEBEBEBEBEBEBEBEBEBEBEBEBEBEBEBEBEBE0F0F0F0F0F0F0FBEBEBEBEBEBEBEBEBEBEBEBEBEBEBEBEBEBEBEBEBEBEBEBEBEBEBEBEBEBEBEBEBEBEBEE2BEE1E1BEE1E1E1E1E1E1E1E1E1E1E1E1E1E1E1E1E1E1E1E1E1E1E1E1E1E1E1E1E1E1E1E1E1E1E1E1E1E1E1E1E1E1E1E1E1E1E1E1E1
310
E128BEE1E1E1E1E1E1E1E1E1E1E1E1E1E1E1E1E1E1E1E1E1E1E1E1E1E1E1E1E1E1E1E1E1E1E1E1E1E1E1E1E1E1E1E1E1E1E1E1E1E1E1E1E1E1E1E1E1E1E1E1E1E1E1E1BEE1E1E1E1BE28E1E1E1E1E1E1E1E1E1E1E1E1E1E1E1E1E1E1E1E1E1E1E1E1E1E1E1E1E1E1E1E1E1E1E1E1E1E1E1E1E1E1E1E1E1E1BEE1E1BEBEE1E1
310
E1E1E1E1E1E1E1E1E1E1E1E1E1E1E1E1E1E1E1E1E1E1E1E1E1E1E1E1E1E1E1E1E10F0F0F0F0F0F0FE1E1E1E1E1E1E1E1E1E1E1E1E1E1E1E1E1E1E1E1E1E1E1E1E1E1E1E1E1E1E1E1E1E1E1BEBEE1E1BEE1E1E1E1E1E1E1E1E1E1E1E1E1E1E1E1E1E1E1E1E1E1E1E1E1E1E1E1E1E1E1E1E1E1E1E1E1E1E1E1E1E1E1E1E1E1E1
310
E1E1E128BEE1E1E1E1E1E1E1E1E1E1E1E1E1E1E1E1E1E1E1E1E1E1E1E1E1E1E1E1E1E1E1E1E1E1E1E1E1E1E1E1E1E1E1E1E1E1E1E1E1E1E1E1E1E1E1E1E1E1E1E1E1E1E1E1BEE1E1E1E1BE28E1E1E1E1E1E1E1E1E1E1E1E1E1E1E1E1E1E1E1E1E1E1E1E1E1E1E1E1E1E1E1E1E1E1E1E1E1E1E1E1E1E1E1E1E1E1BEE1E1BEBE
310
E1E1E1E1E1E1BEBEBEBEBEBEBEBEBEBEBEBEBEBEBEBEBEBEBEBEBEBEBEBEBEBEBEBEBEBEBEBEBEBEBEBEBEBEBEBEBEBEBEBEBEBEBEBEBEBEBEBEBEBEBEBEBEBEBEBEBEBEBEBEE2E1E1E1E1E1E1BEBEE1E1BEE1E1E1E1E1E1E1E1E1E1E1E1E1E1E1E1E1E1E1E1E1E1E1E1E1E1E1E1E1E1E1E1E1E1E1E1E1E1E1E1E1E1E1E1E1
310
E1E1E1E1E128BEE1E1E1E1E1E1E1E1E1E1E1E1E1E1E1E1E1E1E1E1E1E1E1E1E1E1E1E1E1E1E1E1E1E1E1E1E1E1E1E1E1E1E1E1E1E1E1E1E1E1E1E1E1E1E1E1E1E1E1E1E1E1E1E1BEE1E1E1E1BE28E1E1E1E1E1E1E1E1E1E1E1E1E1E1E1E1E1E1E1E1E1E1E1E1E1E1E1E1E1E1E1E1E1E1E1E1E1E1E1E1E1E1E1E1E1E1BEE1E1
310
BEBEE1E1E1E1E1E1BEE1E1E1E1E1E1E1E1E1E1E1E1E1E1E1E1E1E1E1E1E1E1E1E1E1E1E1E1E1E10F0F0F0FE1E1E1E1E1E1E1E1E1E1E1E1E1E1E1E1E1E1E1E1E1E1E1E1E1E1E1E1E1BEE1E1E1E1E1E1BEBEE1E1BEE1E1E1E1E1E1E1E1E1E1E1E1E1E1E1E1E1E1E1E1E1E1E1E1E1E1E1E1E1E1E1E1E1E1E1E1E1E1E1E1E1E1E1
310
E1E1E1E1E1E1E128BEE1E1E1E1E1E1E1E1E1E1E1E1E1E1E1E1E1E1E1E1E1E1E1E1E1E1E1E1E1E1E1E1E1E1E1E1E1E1E1E1E1E1E1E1E1E1E1E1E1E1E1E1E1E1E1E1E1E1E1E1E1E1E1E1BEE1E1E1E1E128E1E1E1E1E1E1E1E1E1E1E1E1E1E1E1E1E1E1E1E1E1E1E1E1E1E1E1E1E1E1E1E1E1E1E1E1E1E1E1E1E1E1E1E1E1E1BE
310
E1E1BEBEE1E1E1BEBEBEBEBEBEBEBEE1E1E1E1E1E1E1E1E1E1E1E1E1E1E1E1E1E1E1E1E1E1E1E1E1E10F0F0FE1E1E1E1E1E1E1E1E1E1E1E1E1E1E1E1E1E1E1E1E1E1E1E1E1E1E1E1E1E1BEE1E1E1E1E1E1BEBEE1E1BEE1E1E1E1E1E1E1E1BEBEBEBEBEE2BEBEE1E1E1E1E1E1E1E1E1E1E1E1E1E1E1E1E1E1E1E1E1E1E1E1E1
310
E1E1E1E1E1E1E1E1E128BEE1E1E1E1E1E1E1E1E1E1E1E1E1E1E1E1E1E1E1E1E1E1E1E1E1E1E1E1E1E1E1E1E1E1E1E1E1E1E1E1E1E1E1E1E1E1E1E1E1E1E1E1E1E1E1E1E1E1E1E1E1E1E1E1BEE1E1E1E1E128E1E1E1E1E1E1E1E1E1E1E1E1E1E1E1E1E1E1E1E1E1E1E1E1E1E1E1E1E1E1E1E1E1E1E1E1E1E1E1E1E1E1E1E1E1
310
E1BEE1E1BEBEE1E1E1E1E1BEBEE1E10F0FE1E1E1E1E1E1E1E1E1E1E1E1E1E1E1E1E1E1E1E1E1E1E1E1E1E1E1E1E1E1E1E1E1E1E1E1E1E1E1E1E1E1E1E1E1E1E1E1E1E1E1E1E1E1E1E1E1E1E1BEE1E1E1E1E1E1BEBEE1E1BEE1E1E1E1E1E1E1E1E10FE1E1BEBEE1E1E1E1E1E1E1E1E1E1E1E1E1E1E1E1E1E1E1E1E1E1E1E1E1
310
E1E1E1E1E1E1E1E1E1E1E128BEE1E1E1E1E1E1E1E1E1E1E1E1E1E1E1E1E1E1E1E1E1E1E1E1E1E1E1E1E1E1E1E1E1E1E1E1E1E1E1E1E1E1E1E1E1E1E1E1E1E1E1E1E1E1E1E1E1E1E1E1E1E1E1E1BEE1E1E1E1E128E1E1E1E1E1E1E1E1E1E1E1E1E1E1E1E1E1E1E1E1E1E1E1E1E1E1E1E1E1E1E1E1E1E1E1E1E1E1E1E1E1E1E1
310
BEE1E1BEE1E1BEBEE1E1E1E1E1BEBEE1E1E10FE1E1E1E1E1E1E1E1E1E1E1E1E1E1E1E1E1E1E1E1E1E1E1E1E1E1E1E1E1E1E1E1E1E1E1E1E1E1E1E1E1E1E1E1E1E1E1E1E1E1E1E1E1E1E1E1E1E1E1BEE1E1E1E1E1E1BEBEE1E1BEE1E1E1E1E1E1E1E1E10FE1E1BEBEE1E1E1E1E1E1E1E1E1E1E1E1E1E1E1E1E1E1E1E1E1E1E1
310
E1E1E1E1E1E1E1E1E1E1E1E1E128BEE1E1E1E1E1E1E1E1E1E1E1E1E1E1E1E1E1E1E1E1E1E1E1E1E1E1E1E1E1E1E1E1E1E1E1E1E1E1E1E1E1E1E1E1E1E1E1E1E1E1E1E1E1E1E1E1E1E1E1E1E1E1E1E1BEE1E1E1E1E128E1E1E1E1E1E1E1E1E1E1E1E1E1E1E1E1E1E1E1E1E1E1E1E1E1E1E1E1E1E1E1E1E1E1E1E1E1E1E1E1E1
310
E1E1BEBEE1BEE1E1BEBEE1E1E1E1E1BEBEE1E1E1E1E1E1E1E1E1E1E1E1E1E1E1E1E1E1E1E1E1E1E1E1E1E1E1E1E1E1E1BEE1E1E1E1E1E1E1E1E1E1E1E1E1E1E1E1E1E1E1E1E1E1E1E1E1E1E1E1E1E1E1BEE1E1E1E1E1E1BEBEE1E1BEE1E1E1E1E1E1E1E1E1E1E1E1BEBEE1E1E1E1E1E1E1E1E1E1E1E1E1E1E1E1E1E1E1E1E1
310
E1E1E1E1E1E1E1E1E1E1E1E1E1E1E128BEE1E1E1E1E1E1E1E1E1E1E1E1E1E1E1E1E1E1E1E1E1E1E1E1E1E1E1E1E1E1E1E1E1E1E1E1E1E1E1E1E1E1E1E1E1E1E1E1E1E1E1E1E1E1E1E1E1E1E1E1E1E1E1E1BEE1E1E1E1E128E1E1E1E1E1E1E1E1E1E1E1E1E1E1E1E1E1E1E1E1E1E1E1E1E1E1E1E1E1E1E1E1E1E1E1E1E1E1BE
310
BEBEBEBEBEBEBEBEBEBEE2E2E2E2E2E2E2BEE2E2E2E2E2E2E2E2E2E2E2E2E2E2E2E2E2E2E2E2E2E2E2E2E2E2E2E2E2E2E2E2E2E2E2E2E2E2E2E2E2E2E2E2E2E2E2E2E2E2E2E2E2E2E2E2E2E2E2E2E2E2E2E2E2E2E2E2E2E2E2E2E2E1E1BEE1E1E1E1E1E1E1E1E1E1E1E1E2E2E1E1E1E1E1E1E1E1E1E1E1E1E1E1E1E1E1E1E1
310
E1E1E1E1E1E1E1E1E1E1E1E1E1E1E1E1E128BEE1E1E1E1E1E1E1E1E1E1E1E1E1E1E1E1E1E1E1E1E1E1E1E1E1E1E1E1E1E1E1E1E1E1E1E1E1E1E1E1E1E1E1E1E1E1E1E1E1E1E1E1E1E1E1E1E1E1E1E1E1E1E1E1BEE1E1E1E1E128E1E1E1E1E1E1E1E1E1E1E1E1E1E1E1E1E1E1E1E1E1E1E1E1E1E1E1E1E1E1E1E1E1E1E1E1E1
310
E1BEBEE1E1E1BEE1E1BEE1BEBEBEBEE1E1E1E1E2E2BEE1E1E1E1E1E1E1E1E1E1E1E1E1E1E1E1E1E1E1E1E1E1E1E1E1E1E1E1E1E1BEE1E1E1E1E1E1E1E1E1E1E1E1E1E1E1E1E1E1E1E1E1E1E1E1E1E1E1E1E1E1BEE2E2E1E1E1E1BEBEBEE2BEBEBEBEBEE2BEE1E1E1E1E1E1E1E2E2BEE1E1E1E1E1E1E1E1E1E1E1E1E1E1E1E1
310
E1E1E1E1E1E1E1E1E1E1E1E1E1E1E1E1E1E1E128BEE1E1E1E1E1E1E1E1E1E1E1E1E1E1E1E1E1E1E1E1E1E1E1E1E1E1E1E1E1E1E1E1E1E1E1E1E1E1E1E1E1E1E1E1E1E1E1E1E1E1E1E1E1E1E1E1E1E1E1E1E1E1E1E1BEE1E1E1E1E128E1E1E1E1E1E1E1E1E1E1E1E1E1E1E1E1E1E1E1E1E1E1E1E1E1E1E1E1E1E1E1E1E1E1E1
310
E1E1E1E1BEE1E1E1E2BEBEBEBEBEE2BEE1E1E1E1E1E1E2E1E1E1E1E1E1E1E1E1E1E1E1E1E1E1E1E1E1E1E1E1E1E1E1E1E1E1E1E1E1E1BEE1E1E1E1E1E1E1E1E1E1E1E1E1E1E1E1E1E1E1E1E1E1E1E1E1E1E1E1E1E1E1E2E1E1E1E1E1E1BEE2E1E1BEE1E1E1BEE1E1E1E1E1E1E1E1E2E2E1E1E1E1E1E1E1E1E1E1E1E1E1E1E1
310
E1E1E1E1E1E1E1E1E1E1E1E1E1E1E1E1E1E1E1E1E128BEE1E1E1E1E1E1E1E1E1E1E1E1E1E1E1E1E1E1E1E1E1E1E1E1E1E1E1E1E1E1E1E1E1E1E1E1E1E1E1E1E1E1E1E1E1E1E1E1E1E1E1E1E1E1E1E1E1E1E1E1E1E1E1E1BEE1E1E1E1E128E1E1E1E1E1E1E1E1E1E1E1E1E1E1E1E1E1E1E1E1E1E1E1E1E1E1E1E1E1E1E1E1E1
310
E1E1E1E1E1E1BEE1E1E1BEBEE1BEE1E1E2E1E1E1E1E1E1E1E1E1E1E1E1E1E1E1E1E1E1E1E1E1E1E1E1E1E1E1E1E1E1E1E1E1E1E1E1E1E1E1BEE1E1E1E1E1E1E1E1E1E1E1E1E1E1E1E1E1E1E1E1E1E1E1E1E1E1E1E1E1E1E1E1E1E1E1E1E1E1E1E2E1E1BEE1E1E1BEE1E1E1E1E1E1E1E1E2E2E1E1E1E1E1E1E1E1E1E1E1E1E1
310
E1E1E1E1E1E1E1E1E1E1E1E1E1E1E1E1E1E1E1E1E1E1E128BEE1E1E1E1E1E1E1E1E1E1E1E1E1E1E1E1E1E1E1E1E1E1E1E1E1E1E1E1E1E1E1E1E1E1E1E1E1E1E1E1E1E1E1E1E1E1E1E1E1E1E1E1E1E1E1E1E1E1E1E1E1E1E1E1BEE1E1E1E1E128E1E1E1E1E1E1E1E1E1E1E1E1E1E1E1E1E1E1E1E1E1E1E1E1E1E1E1E1E1E1E1
310
E1E1E1E1E1E1E1E1BEE1E1E10FE1E1BEE1E1E2E1E1E1E1E1E1E1E1E1E1E1E1E1E1E1E1E1E1E1E1E1E1E1E1E1E1E1E1E1E1E1E1E1E1E1E1E1E1E1BEE1E1E1E1E1E1E1E1E1E1E1E1E1E1E1E1E1E1E1E1E1E1E1E1E1E1E1E1E1E1E1E1E1E1E1E1E1E1E1E2E1E1BEE1E1E1BEE1E1E1E1E1E1E1E1E2E2E1E1E1E1E1E1E1E1E1E1E1
310
E1E1E1E1E1E1E1E1E1E1E1E1E1E1E1E1E1E1E1E1E1E1E1E1E128BEE1E1E1E1E1E1E1E1E1E1E1E1E1E1E1E1E1E1E1E1E1E1E1E1E1E1E1E1E1E1E1E1E1E1E1E1E1E1E1E1E1E1E1E1E1E1E1E1E1E1E1E1E1E1E1E1E1E1E1E1E1E1E1E1BEE1E1E1E1E128E1E1E1E1E1E1E1E1E1E1E1E1E1E1E1E1E1E1E1E1E1E1E1E1E1E1E1E1E1
310
E1E1E1E1E1E1E1E1E1E1BEE1E10F0FE1E1BEE1E1E2E1E1E1E1E1E1E1E1E1E1E1E1E1E1E1E1E1E1E1E1E1E1E1E1E1E1E1E1E1E1E1E1E1E1E1E1E1E1E1BEE1E1E1E1E1E1E1E1E1E1E1E1E1E1E1E1E1E1E1E1E1E1E1E1E1E1E1E1E1E1E1E1E1E1E1E1E1E1E1E2E1E1BEE1E1E1BEE1E1E1E1E1E1E1E1E2E2E1E1E1E1E1E1E1E1E1
310
E1E1E1E1E1E1E1E1E1E1E1E1E1E1E1E1E1E1E1E1E1E1E1E1E1E1E128BEE1E1E1E1E1E1E1E1E1E1E1E1E1E1E1E1E1E1E1E1E1E1E1E1E1E1E1E1E1E1E1E1E1E1E1E1E1E1E1E1E1E1E1E1E1E1E1E1E1E1E1E1E1E1E1E1E1E1E1E1E1E1E1E1BEE1E1E1E1E128E1E1E1E1E1E1E1E1E1E1E1E1E1E1E1E1E1E1E1E1E1E1E1E1E1E1E1
310
E1E1E1E1E1E1E1E1E1E1E1E1BEE1E1E1BEE1E1BEE1E1E2E1E1E1E1E1E1E1E1E1E1E1E1E1E1E1E1E1E1E1E1E1E1E1E1E1E1E1E1E1E1E1E1E1E1E1E1E1E1E1BEE1E1E1E1E1E1E1E1E1E1E1E1E1E1E1E1E1E1E1E1E1E1E1E1E1E1E1E1E1E1E1E1E1E1E1E1E1E1E1E2E1E1BEE1E1E1BEE1E1E1E1E1E1E1E1E2E2E1E1E1E1E1E1E1
310
E1E1E1E1E1E1E1E1E1E1E1E1E1E1E1E1E1E1E1E1E1E1E1E1E1E1E1E1E128BEE1E1E1E1E1E1E1E1E1E1E1E1E1E1E1E1E1E1E1E1E1E1E1E1E1E1E1E1E1E1E1E1E1E1E1E1E1E1E1E1E1E1E1E1E1E1E1E1E1E1E1E1E1E1E1E1E1E1E1E1E1E1E1E1BEE1E1E1E1E128E1E1E1E1E1E1E1E1E1E1E1E1E1E1E1E1E1E1E1E1E1E1E1E1E1
310
E1E1E1E1E1E1E1E1E1E1E1E1E1E1BEE1E1E1E1E1E1BEE1E1E2E1E1E1E1E1E1E1E1E1E1E1E1E1E1E1E1E1E1E1E1E1E1E1E1E1E1E1E1E1E1E1E1E1E1E1E1E1E1E1BEE1E1E1E1E1E1E1E1E1E1E1E1E1E1E1E1E1E1E1E1E1E1E1E1E1E1E1E1E1E1E1E1E1E1E1E1E1E1E1E2E1E1BEE1E1E1BEE1E1E1E1E1E1E1E1E2E2E1E1E1E1E1
310
E1E1E1E1E1E1E1E1E1E1E1E1E1E1E1E1E1E1E1E1E1E1E1E1E1E1E1E1E1E1E128BEE1E1E1E1E1E1E1E1E1E1E1E1E1E1E1E1E1E1E1E1E1E1E1E1E1E1E1E1E1E1E1E1E1E1E1E1E1E1E1E1E1E1E1E1E1E1E1E1E1E1E1E1E1E1E1E1E1E1E1E1E1E1E1E1BEE1E1E1E1E128E1E1E1E1E1E1E1E1E1E1E1E1E1E1E1E1E1E1E1E1E1E1E1
310
E1E1E1E1E1E1E1E1E1E1E1E1E1E1E1E1BEE1E1E1E1E1E1E2E2E2E1E1E1E1E1E1E1E1E1E1E1E1E1E1E1E1E1E1E1E1E1E1E1E1E1E1E1E1E1E1E1E1E1E1E1E1E1E1E1E1BEE1E1E1E1E1E1E1E1E1E1E1E1E1E1E1E1E1E1E1E1E1E1E1E1E1E1E1E1E1E1E1E1E1E1E1E1E1E1E1E1E2E2E2BEBEE2BEE1E1E1E1E1E1E1E1E2E2E1E1E1
310
E1E1E1E1E1E1E1E1E1E1E1E1E1E1E1E1E1E1E1E1E1E1E1E1E1E1E1E1E1E1E1E1E128BEE1E1E1E1E1E1E1E1E1E1E1E1E1E1E1E1E1E1E1E1E1E1E1E1E1E1E1E1E1E1E1E1E1E1E1E1E1E1E1E1E1E1E1E1E1E1E1E1E1E1E1E1E1E1E1E1E1E1E1E1E1E1E1E1BEE1E1E1E1E128E1E1E1E1E1E1E1E1E1E1E1E1E1E1E1E1E1E1E1E1E1
310
E1E1E1E1E1E1E1E1E1E1E1E1E1E1E1E1E1E1BEE1E1E1E1E1E1E2E1E1E1E1E1E1E1E1E1E1E1E1E1E1E1E1E1E1E1E1E1E1E1E1E1E1E1E1E1E1E1E1E1E1E1E1E1E1E1E1E1E1BEE1E1E1E1E1E1E1E1E1E1E1E1E1E1E1E1E1E1E1E1E1E1E1E1E1E1E1E1E1E1E1E1E1E1E1E1E1E1E1E1E1E1E2E1E1BEBEE1E1E1E1E1E1E1E1E2E2E1
310
E1E1E1E1E1E1E1E1E1E1E1E1E1E1E1E1E1E1E1E1E1E1E1E1E1E1E1E1E1E1E1E1E1E1E128BEE1E1E1E1E1E1E1E1E1E1E1E1E1E1E1E1E1E1E1E1E1E1E1E1E1E1E1E1E1E1E1E1E1E1E1E1E1E1E1E1E1E1E1E1E1E1E1E1E1E1E1E1E1E1E1E1E1E1E1E1E1E1E1E1BEE1E1E1E1E128E1E1E1E1E1E1E1E1E1E1E1E1E1E1E1E1E1E1E1
310
E1E1E1E1E1E1E1E1E1E1E1E1E1E1E1E1E1E1E1E1BEE1E1E1E1E1E1E2E1E1E1E1E1E1E1E1E1E1E1E1E1E1E1E1E1E1E1E1E1E1E1E1E1E1E1E1E1E1E1E1E1E1E1E1E1E1E1E1E1E1BEE1E1E1E1E1E1E1E1E1E1E1E1E1E1E1E1E1E1E1E1E1E1E1E1E1E1E1E1E1E1E1E1E1E1E1E1E1E1E1E1E1E1E2E1BEBEBEE1E1E1E1E1E1E1E1E2
310
E2E1E1E1E1E1E1E1E1E1E1E1E1E1E1E1E1E1E1E1E1E1E1E1E1E1E1E1E1E1E1E1E1E1E1E1E128BEE1E1E1E1E1E1E1E1E1E1E1E1E1E1E1E1E1E1E1E1E1E1E1E1E1E1E1E1E1E1E1E1E1E1E1E1E1E1E1E1E1E1E1E1E1E1E1E1E1E1E1E1E1E1E1E1E1E1E1E1E1E1E1E1BEE1E1E1E1E128E1E1E1E1E1E1E1E1E1E1E1E1E1E1E1E1E1
310
E1E1E1E1E1E1E1E1E1E1E1E1E1E1E1E1E1E1E1E1E1E1BEE1E1E1E1E1E1E2E1E1E1E1E1E1E1E1E1E1E1E1E1E1E1E1E1E1E1E1E1E1E1E1E1E1E1E1E1E1E1E1E1E1E1E1E1E1E1E1E1E1BEE1E1E1E1E1E1E1E1E1E1E1E1E1E1E1E1E1E1E1E1E1E1E1E1E1E1E1E1E1E1E1E1E1E1E1E1E1E1E1E1E1E1E2E1E1BEBEE1E1E1E1E1E1E1
310
E1E2E2E1E1E1E1E1E1E1E1E1E1E1E1E1E1E1E1E1E1E1E1E1E1E1E1E1E1E1E1E1E1E1E1E1E1E1E128BEE1E1E1E1E1E1E1E1E1E1E1E1E1E1E1E1E1E1E1E1E1E1E1E1E1E1E1E1E1E1E1E1E1E1E1E1E1E1E1E1E1E1E1E1E1E1E1E1E1E1E1E1E1E1E1E1E1E1E1E1E1E1E1E1BEE1E1E1E1E128E1E1E1E1E1E1E1E1E1E1E1E1E1E1E1
310
E1E1E1E1E1E1E1E1E1E1E1E1E1E1E1E1E1E1E1E1E1E1E1E1BEE1E1E1E1E1E1E2E1E1E1E1E1E1E1E1E1E1E1E1E1E1E1E1E1E1E1E1E1E1E1E1E1E1E1E1E1E1E1E1E1E1E1E1E1E1E1E1E1E1BEE1E1E1E1E1E1E1E1E1E1E1E1E1E1E1E1E1E1E1E1E1E1E1E1E1E1E1E1E1E1E1E1E1E1E1E1E1E1E1E1E1E1E2E1E1BEBEE1E1E1E1E1
310
E1E1E1E2E2E1E1E1E1E1E1E1E1E1E1E1E1E1E1E1E1E1E1E1E1E1E1E1E1E1E1E1E1E1E1E1E1E1E1E1E128BEE1E1E1E1E1E1E1E1E1E1E1E1E1E1E1E1E1E1E1E1E1E1E1E1E1E1E1E1E1E1E1E1E1E1E1E1E1E1E1E1E1E1E1E1E1E1E1E1E1E1E1E1E1E1E1E1E1E1E1E1E1E1E1E1BEE1E1E1E1E128E1E1E1E1E1E1E1E1E1E1E1E1E1
310
E1E1E1E1E1E1E1E1E1E1E1E1E1E1E1E1E1E1E1E1E1E1E1E1E1E1BEE1E1E1E1E1E1E2E1E1E1E1E1E1E1E1E1E1E1E1E1E1E1E1E1E1E1E1E1E1E1E1E1E1E1E1E1E1E1E1E1E1E1E1E1E1E1E1E1E1BEE1E1E1E1E1E1E1E1E1E1E1E1E1E1E1E1E1E1E1E1E1E1E1E1E1E1E1E1E1E1E1E1E1E1E1E1E1E1E1E1E1E1E2E1E1BEBEE1E1E1
310
E1E1E1E1E1E2E2E1E1E1E1E1E1E1E1E1E1E1E1E1E1E1E1E1E1E1E1E1E1E1E1E1E1E1E1E1E1E1E1E1E1E1E128BEE1E1E1E1E1E1E1E1E1E1E1E1E1E1E1E1E1E1E1E1E1E1E1E1E1E1E1E1E1E1E1E1E1E1E1E1E1E1E1E1E1E1E1E1E1E1E1E1E1E1E1E1E1E1E1E1E1E1E1E1E1E1E1E1BEE1E1E1E1E128E1E1E1E1E1E1E1E1E1E1E1
310
E1E1E1E1E1E1E1E1E1E1E1E1E1E1E1E1E1E1E1E1E1E1E1E1E1E1E1E1BEE1E1E1E1E1E1E2E1E1E1E1E1E1E1E1E1E1E1E1E1E1E1E1E1E1E1E1E1E1E1E1E1E1E1E1E1E1E1E1E1E1E1E1E1E1E1E1E1E1BEE1E1E1E1E1E1E1E1E1E1E1E1E1E1E1E1E1E1E1E1E1E1E1E1E1E1E1E1E1E1E1E1E1E1E1E1E1E1E1E1E1E1E2E1E1BEBEE1
310
E1E1E1E1E1E1E1E2E2E1E1E1E1E1E1E1E1E1E1E1E1E1E1E1E1E1E1E1E1E1E1E1E1E1E1E1E1E1E1E1E1E1E1E1E128BEE1E1E1E1E1E1E1E1E1E1E1E1E1E1E1E1E1E1E1E1E1E1E1E1E1E1E1E1E1E1E1E1E1E1E1E1E1E1E1E1E1E1E1E1E1E1E1E1E1E1E1E1E1E1E1E1E1E1E1E1E1E1E1E1BEE1E1E1E1E128E1E1E1E1E1E1E1E1E1
310
E1E1E1E1E1E1E1E1E1E1E1E1E1E1E1E1E1E1E1E1E1E1E1E1E1E1E1E1E1E1BEE1E1E1E1E1E1E2E1E1E1E1E1E1E1E1E1E1E1E1E1E1E1E1E1E1E1E1E1E1E1E1E1E1E1E1E1E1E1E1E1E1E1E1E1E1E1E1E1E1BEE1E1E1E1E1E1E1E1E1E1E1E1E1E1E1E1E1E1E1E1E1E1E1E1E1E1E1E1E1E1E1E1E1E1E1E1E1E1E1E1E1E1E2E1E1BE
310
BEE1E1E1E1E1E1E1E1E2E2E1E1E1E1E1E1E1E1E1E1E1E1E1E1E1E1E1E1E1E1E1E1E1E1E1E1E1E1E1E1E1E1E1E1E1E128BEE1E1E1E1E1E1E1E1E1E1E1E1E1E1E1E1E1E1E1E1E1E1E1E1E1E1E1E1E1E1E1E1E1E1E1E1E1E1E1E1E1E1E1E1E1E1E1E1E1E1E1E1E1E1E1E1E1E1E1E1E1E1E1E1BEE1E1E1E1E128E1E1E1E1E1E1E1
310
E1E1E1E1E1E1E1E1E1E1E1E1E1E1E1E1E1E1E1E1E1E1E1E1E1E1E1E1E1E1E1E1BEE1E1E1E1E1E1E2E1E1E1E1E1E1E1E1E1E1E1E1E1E1E1E1E1E1E1E1E1E1E1E1E1E1E1E1E1E1E1E1E1E1E1E1E1E1E1E1E1E1BEE1E1E1E1E1E1E1E1E1E1E1E1E1E1E1E1E1E1E1E1E1E1E1E1E1E1E1E1E1E1E1E1E1E1E1E1E1E1E1E1E1E1E2E1
310
E1BEBEE1E1E1E1E1E1E1E1E2E2E1E1E1E1E1E1E1E1E1E1E1E1E1E1E1E1E1E1E1E1E1E1E1E1E1E1E1E1E1E1E1E1E1E1E1E128BEE1E1E1E1E1E1E1E1E1E1E1E1E1E1E1E1E1E1E1E1E1E1E1E1E1E1E1E1E1E1E1E1E1E1E1E1E1E1E1E1E1E1E1E1E1E1E1E1E1E1E1E1E1E1E1E1E1E1E1E1E1E1E1E1BEE1E1E1E1E128E1E1E1E1E1
310
E1E1E1E1E1E1E1E1E1E1E1E1E1E1E1E1E1E1E1E1E1E1E1E1E1E1E1E1E1E1E1E1E1E1BEE1E1E1E1E1E1E2E1E1E1E1E1E1E1E1E1E1E1E1E1E1E1E1E1E1E1E1E1E1E1E1E1E1E1E1E1E1E1E1E1E1E1E1E1E1E1E1E1E1BEE1E1E1E1E1E1E1E1E1E1E1E1E1E1E1E1E1E1E1E1E1E1E1E1E1E1E1E1E1E1E1E1E1E1E1E1E1E1E1E1E1E1
310
E2E1E1BEBEE1E1E1E1E1E1E1E1E2E2E1E1E1E1E1E1E1E1E1E1E1E1E1E1E1E1E1E1E1E1E1E1E1E1E1E1E1E1E1E1E1E1E1E1E1E128BEE1E1E1E1E1E1E1E1E1E1E1E1E1E1E1E1E1E1E1E1E1E1E1E1E1E1E1E1E1E1E1E1E1E1E1E1E1E1E1E1E1E1E1E1E1E1E1E1E1E1E1E1E1E1E1E1E1E1E1E1E1E1E1E1BEE1E1E1E1E128E1E1E1
310
E1E1E1E1E1E1E1E1E1E1E1E1E1E1E1E1E1E1E1E1E1E1E1E1E1E1E1E1E1E1E1E1E1E10F0FBEE1E1E1E1E1E1E2E1E1E1E1E1E1E1E1E1E1E1E1E1E1E1E1E1E1E1E1E1E1E1E1E1E1E1E1E1E1E1E1E1E1E1E1E1E1E1E1E1E1BEE1E1E1E1E1E1E1E1E1E1E1E1E1E1E1E1E1E1E1E1E1E1E1E1E1E1E1E1E1E1E1E1E1E1E1E1E1E1E1E1
310
E1E1E2E1E1BEBEE1E1E1E1E1E1E1E1E2E2E1E1E1E1E1E1E1E1E1E1E1E1E1E1E1E1E1E1E1E1E1E1E1E1E1E1E1E1E1E1E1E1E1E1E1E128BEE1E1E1E1E1E1E1E1E1E1E1E1E1E1E1E1E1E1E1E1E1E1E1E1E1E1E1E1E1E1E1E1E1E1E1E1E1E1E1E1E1E1E1E1E1E1E1E1E1E1E1E1E1E1E1E1E1E1E1E1E1E1E1E1BEE1E1E1E1E128E1
310
E1E1E1E1E1E1E1E1E1E1E1E1E1E1E1E1E1E1E1E1E1E1E1E1E1E1E1E1E1E1E1E1E1E1E1E10F0FBEE1E1E1E1E1E1E2E1E1E1E1E1E1E1E1E1E1E1E1E1E1E1E1E1E1E1E1E1E1E1E1E1E1E1E1E1E1E1E1E1E1E1E1E1E1E1E1E1E1BEE1E1E1E1E1E1E1E1E1E1E1E1E1E1E1E1E1E1E1E1E1E1E1E1E1E1E1E1E1E1E1E1E1E1E1E1E1E1
310
E1E1E1E1E20FE10F0FE1E1E1E1E1E1E1E1E2E2E1E1E1E1E1E1E1E1E1E1E1E1E1E1E1E1E1E1E1E1E1E1E1E1E1E1E1E1E1E1E1E1E1E1E1E128BEE1E1E1E1E1E1E1E1E1E1E1E1E1E1E1E1E1E1E1E1E1E1E1E1E1E1E1E1E1E1E1E1E1E1E1E1E1E1E1E1E1E1E1E1E1E1E1E1E1E1E1E1E1E1E1E1E1E1E1E1E1E1E1E1BEE1E1E1E1E1
310
28E1E1E1E1E1E1E1E1E1E1E1E1E1E1E1E1E1E1E1E1E1E1E1E1E1E1E1E1E1E1E1E1E1E1E1E1E10F0FBEE1BEBEBEBEBEE2BEBEBEBEBEBEBEBEBEBEBEBEBEBEBEBEBEBEBEBEBEBEBEBEBEBEBEBEBEBEBEBEBEBEBEBEBEBEBEBEBEBEBEBEBEBEBEBEBEBEBEBEBEBEBEBEBEBEBEBEBEBEBEBEBEBEBEBEBEBEBEBEBEBEBEBEBEBEBE
310
BEBEBEBEBEBEE20F0F0F0FE1E1E1E1E1E1E1E1E2E2BEE1E1E1E1E1E1E1E1E1E1E1E1E1E1E1E1E1E1E1E1E1E1E1E1E1E1E1E1E1E1E1E1E1E1E128BEE1E1E1E1E1E1E1E1E1E1E1E1E1E1E1E1E1E1E1E1E1E1E1E1E1E1E1E1E1E1E1E1E1E1E1E1E1E1E1E1E1E1E1E1E1E1E1E1E1E1E1E1E1E1E1E1E1E1E1E1E1E1E1E1BEE1E1E1
310
E1E128E1E1E1E1E1E1E1E1E1E1E1E1E1E1E1E1E1E1E1E1E1E1E1E1E1E1E1E1E1E1E1E1E1E1E1E1E10F0FBEE1BEE1E1E1E1E2E1E1E1E1E1E1E1E1E1E1E1E1E1E1E1E1E1E1E1E1E1E1E1E1E1E1E1E1E1E1E1E1E1E1E1E1E1E1E1E1E1E1BEE1E1E1E1E1E1E1E1E1E1E1E1E1E1E1E1E1E1E1E1E1E1E1E1E1E1E1E1E1E1E1E1E1E1
310
E1E1E1E1E1E1E1E1E20F0F0F0FE1E1E1E1E1E1E1E1E2E2E1E1E1E1E1E1E1E1E1E1E1E1E1E1E1E1E1E1E1E1E1E1E1E1E1E1E1E1E1E1E1E1E1E1E1E128BEE1E1E1E1E1E1E1E1E1E1E1E1E1E1E1E1E1E1E1E1E1E1E1E1E1E1E1E1E1E1E1E1E1E1E1E1E1E1E1E1E1E1E1E1E1E1E1E1E1E1E1E1E1E1E1E1E1E1E1E1E1E1E1E1BEE1
310
E1E1E1E128E1E1E1E1E1E1E1E1E1E1E1E1E1E1E1E1E1E1E1E1E1E1E1E1E1E1E1E1E1E1E1E1E1E1E1E1E10F0FBEE1BEE1E1E1E1E2E1E1E1E1E1E1E1E1E1E1E1E1E1E1E1E1E1E1E1E1E1E1E1E1E1E1E1E1E1E1E1E1E1E1E1E1E1E1E1E1E1E1BEE1E1E1E1E1E1E1E1E1E1E1E1E1E1E1E1E1E1E1E1E1E1E1E1E1E1E1E1E1E1E1E1
310
E1E1E1E1E1E1E1E1E1E1E2E1E1BEBEE1E1E1E1E1E1E1E1E2E2E1E1E1E1E1E1E1E1E1E1E1E1E1E1E1E1E1E1E1E1E1E1E1E1E1E1E1E1E1E1E1E1E1E1E1E128BEE1E1E1E1E1E1E1E1E1E1E1E1E1E1E1E1E1E1E1E1E1E1E1E1E1E1E1E1E1E1E1E1E1E1E1E1E1E1E1E1E1E1E1E1E1E1E1E1E1E1E1E1E1E1E1E1E1E1E1E1E1E1E1E1
310
BEE1E1E1E1E128E1E1E1E1E1E1E1E1E1E1E1E1E1E1E1E1E1E1E1E1E1E1E1E1E1E1E1E1E1E1E1E1E1E1E1E1E1E1E1BEE1BEE1E1E1E1E2E1E1E1E1E1E1E1E1E1E1E1E1E1E1E1E1E1E1E1E1E1E1E1E1E1E1E1E1E1E1E1E1E1E1E1E1E1E1E1E1E1E1BEE1E1E1E1E1E1E1E1E1E1E1E1E1E1E1E1E1E1E1E1E1E1E1E1E1E1E1E1E1E1
310
E1E1E1E1E1E1E1E1E1E1E1E1E2E1E1BEBEE1E1E1E1E1E1E1E1E2E2E1E1E1E1E1E1E1E1E1E1E1E1E1E1E1E1E1E1E1E1E1E1E1E1E1E1E1E1E1E1E1E1E1E1E1E128BEE1E1E1E1E1E1E1E1E1E1E1E1E1E1E1E1E1E1E1E1E1E1E1E1E1E1E1E1E1E1E1E1E1E1E1E1E1E1E1E1E1E1E1E1E1E1E1E1E1E1E1E1E1E1E1E1E1E1E1E1E1E1
310
E1E1BEE1E1E1E1E128E1E1E1E1E1E1E1E1E1E1E1E1E1E1E1E1E1E1E1E1E1E1E1E1E1E1E1E1E1E1E1E1E1E1E1E1E1E1E1BEE1BEE1E1E1E1E2E1E1E1E1E1E1E1E1E1E1E1E1E1E1E1E1E1E1E1E1E1E1E1E1E1E1E1E1E1E1E1E1E1E1E1E1E1E1E1E1E1E1BEE1E1E1E1E1E1E1E1E1E1E1E1E1E1E1E1E1E1E1E1E1E1E1E1E1E1E1E1
310
E1E1E1E1E1E1E1E1E1E1E1E1E1E1E2E1E1BEBEE1E1E1E1E1E1E1E1E2E2E1E1E1E1E1E1E1E1E1E1E1E1E1E1E1E1E1E1E1E1E1E1E1E1E1E1E1E1E1E1E1E1E1E1E1E128BEE1E1E1E1E1E1E1E1E1E1E1E1E1E1E1E1E1E1E1E1E1E1E1E1E1E1E1E1E1E1E1E1E1E1E1E1E1E1E1E1E1E1E1E1E1E1E1E1E1E1E1E1E1E1E1E1E1E1E1E1
310
E1E1E1E1BEE1E1E1E1E128E1E1E1E1E1E1E1E1E1E1E1E1E1E1E1E1E1E1E1E1E1E1E1E1E1E1E1E1E1E1E1E1E1E1E1E1E1E1E1BEE1BEE1E1E1E1E2E1E1E1E1E1E1E1E1E1E1E1E1E1E1E1E1E1E1E1E1E1E1E1E1E1E1E1E1E1E1E1E1E1E1E1E1E1E1E1E1E1E1BEE1E1E1E1E1E1E1E1E1E1E1E1E1E1E1E1E1E1E1E1E1E1E1E1E1E1
310
E1E1E1E1E1E1E1E1E1E1E1E1E1E1E1E1E2E1E1BEBEE1E1E1E1E1E1E1E1E2E2E1E1E1E1E1E1E1E1E1E1E1E1E1E1E1E1E1E1E1E1E1E1E1E1E1E1E1E1E1E1E1E1E1E1E1E128BEE1E1E1E1E1E1E1E1E1E1E1E1E1E1E1E1E1E1E1E1E1E1E1E1E1E1E1E1E1E1E1E1E1E1E1E1E1E1E1E1E1E1E1E1E1E1E1E1E1E1E1E1E1E1E1E1E1E1
310
E1E1E1E1E1E1BEE1E1E1E1E128E1E1E1E1E1E1E1E1E1E1E1E1E1E1E1E1E1E1E1E1E1E1E1E1E1E1E1E1E1E1E1E1E1E1E1E1E1E1E1BEE1BEE1E1E1E1E2E1E1E1E1E1E1E1E1E1E1E1E1E1E1E1E1E1E1E1E1E1E1E1E1E1E1E1E1E1E1E1E1E1E1E1E1E1E1E1E1E1E1BEE1E1E1E1E1E1E1E1E1E1E1E1E1E1E1E1E1E1E1E1E1E1E1E1
310
E1E1E1E1E1E1E1E1E1E1E1E1E1E1E1E1E1E1E2E1E1BEBEE1E1E1E1E1E1E1E1E2E2E1E1E1E1E1E1E1E1E1E1E1E1E1E1E1E1E1E1E1E1E1E1E1E1E1E1E1E1E1E1E1E1E1E1E1E128BEE1E1E1E1E1E1E1E1E1E1E1E1E1E1E1E1E1E1E1E1E1E1E1E1E1E1E1E1E1E1E1E1E1E1E1E1E1E1E1E1E1E1E1E1E1E1E1E1E1E1E1E1E1E1E1E1
310
E1E1E1E1E1E1E1E1BEE1E1E1E1E128E1E1E1E1E1E1E1E1E1E1E1E1E1E1E1E1E1E1E1E1E1E1E1E1E1E1E1E1E1E1E1E1E1E1E1E1E1E1E1BEE1BEE1E1E1E1E2E1E1E1E1E1E1E1E1E1E1E1E1E1E1E1E1E1E1E1E1E1E1E1E1E1E1E1E1E1E1E1E1E1E1E1E1E1E1E1E1E1E1BEE1E1E1E1E1E1E1E1E1E1E1E1E1E1E1E1E1E1E1E1E1E1
310
E1E1E1E1E1E1E1E1E1E1E1E1E1E1E1E1E1E1E1E1E2E1E1BEBEE1E1E1E1E1E1E1E1E2E2E1E1E1E1E1E1E1E1E1E1E1E1E1E1E1E1E1E1E1E1E1E1E1E1E1E1E1E1E1E1E1E1E1E1E1E128BEE1E1E1E1E1E1E1E1E1E1E1E1E1E1E1E1E1E1E1E1E1E1E1E1E1E1E1E1E1E1E1E1E1E1E1E1E1E1E1E1E1E1E1E1E1E1E1E1E1E1E1E1E1E1
310
E1E1E1E1E1E1E1E1E1E1BEE1E1E1E1E128E1E1E1E1E1E1E1E1E1E1E1E1E1E1E1E1E1E1E1E1E1E1E1E1E1E1E1E1E1E1E1E1E1E1E1E1E1E1E1BE0FBEE1E1E1E1E2E1E1E1E1E1E1E1E1E1E1E1E1E1E1E1E1E1E1E1E1E1E1E1E1E1E1E1E1E1E1E1E1E1E1E1E1E1E1E1E1E1E1BEE1E1E1E1E1E1E1E1E1E1E1E1E1E1E1E1E1E1E1E1
310
E1E1E1E1E1E1E1E1E1E1E1E1E1E1E1E1E1E1E1E1E1E1E2E1E1BEBEE1E1E1E1E1E1E1E1E2E2E1E1E1E1E1E1E1E1E1E1E1E1E1E1E1E1E1E1E1E1E1E1E1E1E1E1E1E1E1E1E1E1E1E1E1E128BEE1E1E1E1E1E1E1E1E1E1E1E1E1E1E1E1E1E1E1E1E1E1E1E1E1E1E1E1E1E1E1E1E1E1E1E1E1E1E1E1E1E1E1E1E1E1E1E1E1E1E1E1
310
E1E1E1E1E1E1E1E1E1E1E1E1BEE1E1E1E1E128E1E1E1E1E1E1E1E1E1E1E1E1E1E1E1E1E1E1E1E1E1E1E1E1E1E1E1E1E1E1E1E1E1E1E1E1E1E1E1BE0F0FE1E1E1E1E2E1E1E1E1E1E1E1E1E1E1E1E1E1E1E1E1E1E1E1E1E1E1E1E1E1E1E1E1E1E1E1E1E1E1E1E1E1E1E1E1E1E1BEE1E1E1E1E1E1E1E1E1E1E1E1E1E1E1E1E1E1
310
E1E1E1E1E1E1E1E1E1E1E1E1E1E1E1E1E1E1E1E1E1E1E1E1E2E1E1BEBEE1E1E1E1E1E1E1E1E2E2E1E1E1E1E1E1E1E1E1E1E1E1E1E1E1E1E1E1E1E1E1E1E1E1E1E1E1E1E1E1E1E1E1E1E1E128BEE1E1E1E1E1E1E1E1E1E1E1E1E1E1E1E1E1E1E1E1E1E1E1E1E1E1E1E1E1E1E1E1E1E1E1E1E1E1E1E1E1E1E1E1E1E1E1E1E1E1
310
E1E1E1E1E1E1E1E1E1E1E1E1E1E1BEE1E1E1E1E128E1E1E1E1E1E1E1E1E1E1E1E1E1E1E1E1E1E1E1E1E1E1E1E1E1E1E1E1E1E1E1E1E1E1E1E1E1E1E1BE0F0FE1E1E1E1E2E1E1E1E1E1E1E1E1E1E1E1E1E1E1E1E1E1E1E1E1E1E1E1E1E1E1E1E1E1E1E1E1E1E1E1E1E1E1E1E1E1E1BEE1E1E1E1E1E1E1E1E1E1E1E1E1E1E1E1
310
E1E1E1E1E1E1E1E1E1E1E1E1E1E1E1E1E1E1E1E1E1E1E1E1E1E1E2E1E1BEBEE1E1E1E1E1E1E1E1E2E2E1E1E1E1E1E1E1E1E1E1E1E1E1E1E1E1E1E1E1E1E1E1E1E1E1E1E1E1E1E1E1E1E1E1E1E128BEE1E1E1E1E1E1E1E1E1E1E1E1E1E1E1E1E1E1E1E1E1E1E1E1E1E1E1E1E1E1E1E1E1E1E1E1E1E1E1E1E1E1E1E1E1E1E1E1
310
E1E1E1E1E1E1E1E1E1E1E1E1E1E1E1E1BEE1E1E1E1E128E1E1E1E1E1E1E1E1E1E1E1E1E1E1E1E1E1E1E1E1E1E1E1E1E1E1E1E1E1E1E1E1E1E1E1E1E1E1E1BE0F0FE1E1E1E1E2E1E1E1E1E1E1E1E1E1E1E1E1E1E1E1E1E1E1E1E1E1E1E1E1E1E1E1E1E1E1E1E1E1E1E1E1E1E1E1E1E1E1BEE1E1E1E1E1E1E1E1E1E1E1E1E1E1
310
E1E1E1E1E1E1E1E1E1E1E1E1E1E1E1E1E1E1E1E1E1E1E1E1E1E1E1E1E2E1BEBEBEE1E1E1E1E1E1E1E1E2E2E1E1E1E1E1E1E1E1E1E1E1E1E1E1E1E1E1E1E1E1E1E1E1E1E1E1E1E1E1E1E1E1E1E1E1E128BEE1E1E1E1E1E1E1E1E1E1E1E1E1E1E1E1E1E1E1E1E1E1E1E1E1E1E1E1E1E1E1E1E1E1E1E1E1E1E1E1E1E1E1E1E1E1
310
E1E1E1E1E1E1E1E1E1E1E1E1E1E1E1E1E1E1BEE1E1E1E1E128E1E1E1E1E1E1E1E1E1E1E1E1E1E1E1E1E1E1E1E1E1E1E1E1E1E1E1E1E1E1E1E1E1E1E1E1E1E1E1BE0F0FE1BEBEBEE2E2E2E1E1E1E1E1E1E1E1E1E1E1E1E1E1E1E1E1E1E1E1E1E1E1E1E1E1E1E1E1E1E1E1E1E1E1E1E1E1E1E1BEE1E1E1E1E1E1E1E1E1E1E1E1
310
E1E1E1E1E1E1E1E1E1E1E1E1E1E1E1E1E1E1E1E1E1E1E1E1E1E1E1E1E2E2E2BEBEBEBEE1E1E1E1E1E1E1E1E2E2E1E1E1E1E1E1E1E1E1E1E1E1E1E1E1E1E1E1E1E1E1E1E1E1E1E1E1E1E1E1E1E1E1E1E1E128BEE1E1E1E1E1E1E1E1E1E1E1E1E1E1E1E1E1E1E1E1E1E1E1E1E1E1E1E1E1E1E1E1E1E1E1E1E1E1E1E1E1E1E1E1
310
E1E1E1E1E1E1E1E1E1E1E1E1E1E1E1E1E1E1E1E1BEE1E1E1E1E128E1E1E1E1E1E1E1E1E1E1E1E1E1E1E1E1E1E1E1E1E1E1E1E1E1E1E1E1E1E1E1E1E1E1E1E1E1E1E1BE0F0FE1BEBEE1E1E1E2E2E1E1E1E1E1E1E1E1E1E1E1E1E1E1E1E1E1E1E1E1E1E1E1E1E1E1E1E1E1E1E1E1E1E1E1E1E1E1E1BEE1E1E1E1E1E1E1E1E1E1
310
E1E1E1E1E1E1E1E1E1E1E1E1E1E1E1E1E1E1E1E1E1E1E1E1E1E1E1E1E1E2E2BEE1E1E1E1BEE1E1E1E1E1E1E1E1E2E2E1E1E1E1E1E1E1E1E1E1E1E1E1E1E1E1E1E1E1E1E1E1E1E1E1E1E1E1E1E1E1E1E1E1E1E128BEE1E1E1E1E1E1E1E1E1E1E1E1E1E1E1E1E1E1E1E1E1E1E1E1E1E1E1E1E1E1E1E1E1E1E1E1E1E1E1E1E1E1
310
E1E1E1E1E1E1E1E1E1E1E1E1E1E1E1E1E1E1E1E1E1E1BEE1E1E1E1E128E1E1E1E1E1E1E1E1E1E1E1E1E1E1E1E1E1E1E1E1E1E1E1E1E1E1E1E1E1E1E1E1E1E1E1E1E1E1E1BEE1BE0F0FE1E1E1E1E1E2E1E1E1E1E1E1E1E1E1E1E1E1E1E1E1E1E1E1E1E1E1E1E1E1E1E1E1E1E1E1E1E1E1E1E1E1E1E1E1BEE1E1E1E1E1E1E1E1
310
E1E1E1E1E1E1E1E1E1E1E1E1E1E1E1E1E1E1E1E1E1E1E1E1E1E1E1E1E1E1E1E2BEE2BEE1E1E1BEE1E1E1E1E1E1E1E1E2E2E1E1E1E1E1E1E1E1E1E1E1E1E1E1E1E1E1E1E1E1E1E1E1E1E1E1E1E1E1E1E1E1E1E1E1E128BEE1E1E1E1E1E1E1E1E1E1E1E1E1E1E1E1E1E1E1E1E1E1E1E1E1E1E1E1E1E1E1E1E1E1E1E1E1E1E1E1
310
E1E1E1E1E1E1E1E1E1E1E1E1E1E1E1E1E1E1E1E1E1E1E1E1BEE1E1E1E1E128E1E1E1E1E1E1E1E1E1E1E1E1E1E1E1E1E1E1E1E1E1E1E1E1E1E1E1E1E1E1E1E1E1E1E1E1E1E1E1BEE1BE0F0FE1E1E1E1E1E2E1E1E1E1E1E1E1E1E1E1E1E1E1E1E1E1E1E1E1E1E1E1E1E1E1E1E1E1E1E1E1E1E1E1E1E1E1E1E1BEE1E1E1E1E1E1
310
E1E1E1E1E1E1E1E1E1E1E1E1E1E1E1E1E1E1E1E1E1E1E1E1E1E1E1E1E1E1E1E1E1E2E10F0FE1E1E1BEE1E1E1E1E1E1E1E1E2E2E1E1E1E1E1E1E1E1E1E1E1E1E1E1E1E1E1E1E1E1E1E1E1E1E1E1E1E1E1E1E1E1E1E1E1E128BEE1E1E1E1E1E1E1E1E1E1E1E1E1E1E1E1E1E1E1E1E1E1E1E1E1E1E1E1E1E1E1E1E1E1E1E1E1E1
310
E1E1E1E1E1E1E1E1E1E1E1E1E1E1E1E1E1E1E1E1E1E1E1E1E1E1BEE1E1E1E1E128E1E1E1E1E1E1E1E1E1E1E1E1E1E1E1E1E1E1E1E1E1E1E1E1E1E1E1E1E1E1E1E1E1E1E1E1E1E1E1BEE1BE0F0FE1E1E1E1E1E2E1E1E1E1E1E1E1E1E1E1E1E1E1E1E1E1E1E1E1E1E1E1E1E1E1E1E1E1E1E1E1E1E1E1E1E1E1E1E1BEE1E1E1E1
310
E1E1E1E1E1E1E1E1E1E1E1E1E1E1E1E1E1E1E1E1E1E1E1E1E1E1E1E1E1E1E1E1E1E1E1E20F0F0FBEE1E1BEE1E1E1E1E1E1E1E1E2E2E1E1E1E1E1E1E1E1E1E1E1E1E1E1E1E1E1E1E1E1E1E1E1E1E1E1E1E1E1E1E1E1E1E1E1E128BEE1E1E1E1E1E1E1E1E1E1E1E1E1E1E1E1E1E1E1E1E1E1E1E1E1E1E1E1E1E1E1E1E1E1E1E1
310
E1E1E1E1E1E1E1E1E1E1E1E1E1E1E1E1E1E1E1E1E1E1E1E1E1E1E1E1BEE1E1E1E1E128E1E1E1E1E1E1E1E1E1E1E1E1E1E1E1E1E1E1E1E1E1E1E1E1E1E1E1E1E1E1E1E1E1E1E1E1E1E1E1BEE1BE0F0FE1E1E1E1E1E2E1E1E1E1E1E1E1E1E1E1E1E1E1E1E1E1E1E1E1E1E1E1E1E1E1E1E1E1E1E1E1E1E1E1E1E1E1E1E1BEE1E1
310
E1E1E1E1E1E1E1E1E1E1E1E1E1E1E1E1E1E1E1E1E1E1E1E1E1E1E1E1E1E1E1E1E1E1E1E1E1E2E10F0FE1E1E1BEE1E1E1E1E1E1E1E1E2E2E1E1E1E1E1E1E1E1E1E1E1E1E1E1E1E1E1E1E1E1E1E1E1E1E1E1E1E1E1E1E1E1E1E1E1E128BEE1E1E1E1E1E1E1E1E1E1E1E1E1E1E1E1E1E1E1E1E1E1E1E1E1E1E1E1E1E1E1E1E1E1
310
E1E1E1E1E1E1E1E1E1E1E1E1E1E1E1E1E1E1E1E1E1E1E1E1E1E1E1E1E1E1BEE1E1E1E1E128E1E1E1E1E1E1E1E1E1E1E1E1E1E1E1E1E1E1E1E1E1E1E1E1E1E1E1E1E1E1E1E1E1E1E1E1E1E1E1BEE1BE0F0FE1E1E1E1E1E2E1E1E1E1E1E1E1E1E1E1E1E1E1E1E1E1E1E1E1E1E1E1E1E1E1E1E1E1E1E1E1E1E1E1E1E1E1E1E1BE
310
E1E1E1E1E1E1E1E1E1E1E1E1E1E1E1E1E1E1E1E1E1E1E1E1E1E1E1E1E1E1E1E1E1E1E1E1E1E1E1E2E1E1E1E1E1E1BEE1E1E1E1E1E1E1E1E2E2E1E1E1E1E1E1E1E1E1E1E1E1E1E1E1E1E1E1E1E1E1E1E1E1E1E1E1E1E1E1E1E1E1E1E1E128BEE1E1E1E1E1E1E1E1E1E1E1E1E1E1E1E1E1E1E1E1E1E1E1E1E1E1E1E1E1E1E1E1
310
E1E1E1E1E1E1E1E1E1E1E1E1E1E1E1E1E1E1E1E1E1E1E1E1E1E1E1E1E1E1E1E1BEE1E1E1E1E128E1E1E1E1E1E1E1E1E1E1E1E1E1E1E1E1E1E1E1E1E1E1E1E1E1E1E1E1E1E1E1E1E1E1E1E1E1E1E1BEE1BE0F0FE1E1E1E1E1E2BEE1E1E1E1E1E2E2E1E1E1E1E1E1E1E1E1E1E1E1E1E1E1E1E1E1E1E1E1E1E1E1E1E1E1E1E1E1
310
E1BEE1E1E1E1E1E1E1E1E1E1E1E1E1E1E1E1E1E1E1E1E1E1E1E1E1E1E1E1E1E1E1E2E2E1E1E1E1E1BEE2E1E1E1E1E1E1BEE1E1E1E1E1E1E1E1E2E2E1E1E1E1E1E1E1E1E1E1E1E1E1E1E1E1E1E1E1E1E1E1E1E1E1E1E1E1E1E1E1E1E1E1E1E128BEE1E1E1E1E1E1E1E1E1E1E1E1E1E1E1E1E1E1E1E1E1E1E1E1E1E1E1E1E1E1
310
E1E1E1E1E1E1E1E1E1E1E1E1E1E1E1E1E1E1E1E1E1E1E1E1E1E1E1E1E1E1E1E1E1E1BEE1E1E1E1E128E1E1E1E1E1E1E1E1E1E1E1E1E1E1E1E1E1E1E1E1E1E1E1E1E1E1E1E1E1E1E1E1E1E1E1E1E1E1BEBEE1BE0F0FBEE1E1E1BEBEBEBEE1E1E1E1E2E2BEE1E1E1E1E1E1E1E1E1E1E1E1E1E1E1E1E1E1E1E1E1E1E1E1E1E1E1
310
E1E1E1BEE1E1E1E1E1E1E1E1E1E1E1E1E1E1E1E1E1E1E1E1E1E1E1E1E1E1E1E1E1E1BEE2E2E1E1E1E1BEBEBEE2BEBEBEBEBEBEBEE1E1E1E1E1E1E1E2E2BEE1E1E1E1E1E1E1E1E1E1E1E1E1E1E1E1E1E1E1E1E1E1E1E1E1E1E1E1E1E1E1E1E1E1E128BEE1E1E1E1E1E1E1E1E1E1E1E1E1E1E1E1E1E1E1E1E1E1E1E1E1E1E1E1
310
E1E1E1E1E1E1E1E1E1E1E1E1E1E1E1E1E1E1E1E1E1E1E1E1E1E1E1E1E1E1E1E1E1E1E1E1BEE1E1E1E1E128E1E1E1E1E1E1E1E1E1E1E1E1E1E1E1E1E1E1E1E1E1E1E1E1E1E1E1E1E1E1E1E1E1E1E1E1E1E1BEE2BEBEBEBEBEBEBEBEBEE2BEE2E2E2E2E2E2BEE2E2E2E2E2E2E2E2E2E2E2E2E2E2E2E2E2E2E2E2E2E2E2E2E2E2
310
E2E2E2E2E2E2E2E2E2E2E2E2E2E2E2E2E2E2E2E2E2E2E2E2E2E2E2E2E2E2E2E2E2E2E2E2E2BEE2E2E2E2E2E2BEE2E1E1E1E1E1E1E1E1E1E1E1E1E1E1E1E2E2E1E1E1E1E1E1E1E1E1E1E1E1E1E1E1E1E1E1E1E1E1E1E1E1E1E1E1E1E1E1E1E1E1E1E1E128BEE1E1E1E1E1E1E1E1E1E1E1E1E1E1E1E1E1E1E1E1E1E1E1E1E1E1
310
E1E1E1E1E1E1E1E1E1E1E1E1E1E1E1E1E1E1E1E1E1E1E1E1E1E1E1E1E1E1E1E1E1E1E1E1E1E1BEE1E1E1E1E128E1E1E1E1E1E1E1E1E1E1E1E1E1E1E1E1E1E1E1E1E1E1E1E1E1E1E1E1E1E1E1E1E1E1E1E1E1E1E1E1E1E1E1E1E1E1E1E1E1E1E1E1E1E1E1E1E1E1E1E1E1E1E1E1E1E1E1E1E1E1E1E1E1E1E1E1E1E1E1E1E1E1
310
E1E1E1E1E1E1E1BEE1E1E1E1E1E1E1E1E1E1E1E1E1E1E1E1E1E1E1E1E1E1E1E1E1E1E1E1E1E1E1E1E1E1E1E1E1E1E1E1E1E1E1E1E1E1E1E1E1E1E1E1E1E1E1E1E1E1E1E1E1E1E1E1E1E1E1E1E1E1E1E1E1E1E1E1E1E1E1E1E1E1E1E1E1E1E1E1E1E1E1E1E128BEE1E1E1E1E1E1E1E1E1E1E1E1E1E1E1E1E1E1E1E1E1E1E1E1
310
E1E1E1E1E1E1E1E1E1E1E1E1E1E1E1E1E1E1E1E1E1E1E1E1E1E1E1E1E1E1E1E1E1E1E1E1E1E1E1E1BEE1E1E1E1E128E1E1E1E1E1E1E1E1E1E1E1E1E1E1E1E1E1E1E1E1E1E1E1E1E1E1E1E1E1E1E1E1E1E1E1E1E1E1E1E1E1E1E1E1E1E1E1E1E1E1E1E1E1E1E1E1E1E1E1E1E1E1E1E1E1E1E1E1E1E1E1E1E1E1E1E1E1E1E1E1
310
E1E1E1E1E1E1E1E1E1E1E1E1E1E1E1E1E1E1E1E1E1E1E1E1E1E1E1E1E1E1E1E1E1E1E1E1E1E1E1E1E1E1E1E1E1E1E1E1E1E1E1E1E1E1E1E1E1E1E1E1E1E1E1E1E1E1E1E1E1E1E1E1E1E1E1E1E1E1E1E1E1E1E1E1E1E1E1E1E1E1E1E1E1E1E1E1E1E1E1E1E1E1E128BEE1E1E1E1E1E1E1E1E1E1E1E1E1E1E1E1E1E1E1E1E1E1
310
E1E1E1E1E1E1E1E1E1E1E1E1E1E1E1E1E1E1E1E1E1E1E1E1E1E1E1E1E1E1E1E1E1E1E1E1E1E1E1E1E1E1BEE1E1E1E1E128E1E1E1E1E1E1E1E1E1E1E1E1E1E1E1E1E1E1E1E1E1E1E1E1E1E1E1E1E1E1E1E1E1E1E1E1E1E1E1E1E1E1E1E1E1E1E1E1E1E1E1E1E1E1E1E1E1E1E1E1E1E1E1E1E1E1E1E1E1E1E1E1E1E1E1E1E1E1
310
E1E1E1E1E1E1E1E1E1E1E1E1E1E1E1E1E1E1E1E1E1E1E1E1E1E1E1E1E1E1E1E1E1E1E1E1E1E1E1E1E1E1E1E1E1E1E1E1E1E1E1E1E1E1E1E1E1E1E1E1E1E1E1E1E1E1E1E1E1E1E1E1E1E1E1E1E1E1E1E1E1E1E1E1E1E1E1E1E1E1E1E1E1E1E1E1E1E1E1E1E1E1E1E1E128BEE1E1E1E1E1E1E1E1E1E1E1E1E1E1E1E1E1E1E1E1
310
E1E1E1E1E1E1E1E1E1E1E1E1E1E1E1E1E1E1E1E1E1E1E1E1E1E1E1E1E1E1E1E1E1E1E1E1E1E1E1E1E1E1E1E1BEE1E1E1E1E128E1E1E1E1E1E1E1E1E1E1E1E1E1E1E1E1E1E1E1E1E1E1E1E1E1E1E1E1E1E1E1E1E1E1E1E1E1E1E1E1E1E1E1E1E1E1E1E1E1E1E1E1E1E1E1E1E1E1E1E1E1E1E1E1E1E1E1E1E1E1E1E1E1E1E1E1
310
E1E1E1E1E1E1E1E1E1E1E1E1E1E1E1E1E1E1E1E1E1E1E1E1E1E1E1E1E1E1E1E1E1E1E1E1E1E1E1E1E1E1E1E1E1E1E1E1E1E1E1E1E1E1E1E1E1E1E1E1E1E1E1E1E1E1E1E1E1E1E1E1E1E1E1E1E1E1E1E1E1E1E1E1E1E1E1E1E1E1E1E1E1E1E1E1E1E1E1E1E1E1E1E1E1E1E128BEE1E1E1E1E1E1E1E1E1E1E1E1E1E1E1E1E1E1
310
E1E1E1E1E1E1E1E1E1E1E1E1E1E1E1E1E1E1E1E1E1E1E1E1E1E1E1E1E1E1E1E1E1E1E1E1E1E1E1E1E1E1E1E1E1E1BEE1E1E1E1E128E1E1E1E1E1E1E1E1E1E1E1E1E1E1E1E1E1E1E1E1E1E1E1E1E1E1E1E1E1E1E1E1E1E1E1E1E1E1E1E1E1E1E1E1E1E1E1E1E1E1E1E1E1E1E1E1E1E1E1E1E1E1E1E1E1E1E1E1E1E1E1E1E1E1
310
E1E1E1E1E1E1E1E1E1E1E1E1E1E1E1E1E1E1E1E1E1E1E1E1E1E1E1E1E1E1E1E1E1E1E1E1E1E1E1E1E1E1E1E1E1E1E1E1E1E1E1E1E1E1E1E1E1E1E1E1E1E1E1E1E1E1E1E1E1E1E1E1E1E1E1E1E1E1E1E1E1E1E1E1E1E1E1E1E1E1E1E1E1E1E1E1E1E1E1E1E1E1E1E1E1E1E1E1E128BEE1E1E1E1E1E1E1E1E1E1E1E1E1E1E1E1
310
E1E1E1E1E1E1E1E1E1E1E1E1E1E1E1E1E1E1E1E1E1E1E1E1E1E1E1E1E1E1E1E1E1E1E1E1E1E1E1E1E1E1E1E1E1E1E1E1BEE1E1E1E1E128E1E1E1E1E1E1E1E1E1E1E1E1E1E1E1E1E1E1E1E1E1E1E1E1E1E1E1E1E1E1E1E1E1E1E1E1E1E1E1E1E1E1E1E1E1E1E1E1E1E1E1E1E1E1E1E1E1E1E1E1E1E1E1E1E1E1E1E1E1E1E1E1
310
E1E1E1E1E1E1E1E1E1E1E1E1E1E1E1E1E1E1E1E1E1E1E1E1E1E1E1E1E1E1E1E1E1E1E1E1E1E1E1E1E1E1E1E1E1E1E1E1E1E1E1E1E1E1E1E1E1E1E1E1E1E1E1E1E1E1E1E1E1E1E1E1E1E1E1E1E1E1E1E1E1E1E1E1E1E1E1E1E1E1E1E1E1E1E1E1E1E1E1E1E1E1E1E1E1E1E1E1E1E1E128BEE1E1E1E1E1E1E1E1E1E1E1E1E1E1
310
E1E1E1E1E1E1E1E1E1E1E1E1E1E1E1E1E1E1E1E1E1E1E1E1E1E1E1E1E1E1E1E1E1E1E1E1E1E1E1E1E1E1E1E1E1E1E1E1E1E1BEE1E1E1E1E128E1E1E1E1E1E1E1E1E1E1E1E1E1E1E1E1E1E1E1E1E1E1E1E1E1E1E1E1E1E1E1E1E1E1E1E1E1E1E1E1E1E1E1E1E1E1E1E1E1E1E1E1E1E1E1E1E1E1E1E1E1E1E1E1E1E1E1E1E1E1
310
E1E1E1E1E1E1E1E1E1E1E1E1E1E1E1E1E1E1E1E1E1E1E1E1E1E1E1E1E1E1E1E1E1E1E1E1E1E1E1E1E1E1E1E1E1E1E1E1E1E1E1E1E1E1E1E1E1E1E1E1E1E1E1E1E1E1E1E1E1E1E1E1E1E1E1E1E1E1E1E1E1E1E1E1E1E1E1E1E1E1E1E1E1E1E1E1E1E1E1E1E1E1E1E1E1E1E1E1E1E1E1E1E128BEE1E1E1E1E1E1E1E1E1E1E1E1
310
E1E1E1E1E1E1E1E1E1E1E1E1E1E1E1E1E1E1E1E1E1E1E1E1E1E1E1E1E1E1E1E1E1E1E1E1E1E1E1E1E1E1E1E1E1E1E1E1E1E1E1E1BEE1E1E1E1E128E1E1E1E1E1E1E1E1E1E1E1E1E1E1E1E1E1E1E1E1E1E1E1E1E1E1E1E1E1E1E1E1E1E1E1E1E1E1E1E1E1E1E1E1E1E1E1E1E1E1E1E1E1E1E1E1E1E1E1E1E1E1E1E1E1E1E1E1
310
E1E1E1E1E1E1E1E1E1E1E1E1E1E1E1E1E1E1E1E1E1E1E1E1E1E1E1E1E1E1E1E1E1E1E1E1E1E1E1E1E1E1E1E1E1E1E1E1E1E1E1E1E1E1E1E1E1E1E1E1E1E1E1E1E1E1E1E1E1E1E1E1E1E1E1E1E1E1E1E1E1E1E1E1E1E1E1E1E1E1E1E1E1E1E1E1E1E1E1E1E1E1E1E1E1E1E1E1E1E1E1E1E1E1E128BEE1E1E1E1E1E1E1E1E1E1
310
E1E1E1E1E1E1E1E1E1E1E1E1E1E1E1E1E1E1E1E1E1E1E1E1E1E1E1E1E1E1E1E1E1E1E1E1E1E1E1E1E1E1E1E1E1E1E1E1E1E1E1E1E1E1BEE1E1E1E1E128E1E1E1E1E1E1E1E1E1E1E1E1E1E1E1E1E1E1E1E1E1E1E1E1E1E1E1E1E1E1E1E1E1E1E1E1E1E1E1E1E1E1E1E1E1E1E1E1E1E1E1E1E1E1E1E1E1E1E1E1E1E1E1E1E1E1
310
E1E1E1E1E1E1E1E1E1E1E1E1E1E1E1E1E1E1E1E1E1E1E1E1E1E1E1E1E1E1E1E1E1E1E1E1E1E1E1E1E1E1E1E1E1E1E1E1E1E1E1E1E1E1E1E1E1E1E1E1E1E1E1E1E1E1E1E1E1E1E1E1E1E1E1E1E1E1E1E1E1E1E1E1E1E1E1E1E1E1E1E1E1E1E1E1E1E1E1E1E1E1E1E1E1E1E1E1E1E1E1E1E1E1E1E1E128BEE1E1E1E1E1E1E1E1
310
E1E1E1E1E1E1E1E1E1E1E1E1E1E1E1E1E1E1E1E1E1E1E1E1E1E1E1E1E1E1E1E1E1E1E1E1E1E1E1E1E1E1E1E1E1E1E1E1E1E1E1E1E1E1E1E1BEE1E1E1E1E128E1E1E1E1E1E1E1E1E1E1E1E1E1E1E1E1E1E1E1E1E1E1E1E1E1E1E1E1E1E1E1E1E1E1E1E1E1E1E1E1E1E1E1E1E1E1E1E1E1E1E1E1E1E1E1E1E1E1E1E1E1E1E1E1
310
E1E1E1E1E1E1E1E1E1E1E1E1E1E1E1E1E1E1E1E1E1E1E1E1E1E1E1E1E1E1E1E1E1E1E1E1E1E1E1E1E1E1E1E1E1E1E1E1E1E1E1E1E1E1E1E1E1E1E1E1E1E1E1E1E1E1E1E1E1E1E1E1E1E1E1E1E1E1E1E1E1E1E1E1E1E1E1E1E1E1E1E1E1E1E1E1E1E1E1E1E1E1E1E1E1E1E1E1E1E1E1E1E1E1E1E1E1E1E128BEE1E1E1E1E1E1
310
E1E1E1E1E1E1E1E1E1E1E1E1E1E1E1E1E1E1E1E1E1E1E1E1E1E1E1E1E1E1E1E1E1E1E1E1E1E1E1E1E1E1E1E1E1E1E1E1E1E1E1E1E1E1E1E1E1E1BEE1E1E1E1E128E1E1E1E1E1E1E1E1E1E1E1E1E1E1E1E1E1E1E1E1E1E1E1E1E1E1E1E1E1E1E1E1E1E1E1E1E1E1E1E1E1E1E1E1E1E1E1E1E1E1E1E1E1E1E1E1E1E1E1E1E1E1
310
E1E1E1E1E1E1E1E1E1E1E1E1E1E1E1E1E1E1E1E1E1E1E1E1E1E1E1E1E1E1E1E1E1E1E1E1E1E1E1E1E1E1E1E1E1E1E1E1E1E1E1E1E1E1E1E1E1E1E1E1E1E1E1E1E1E1E1E1E1E1E1E1E1E1E1E1E1E1E1E1E1E1E1E1E1E1E1E1E1E1E1E1E1E1E1E1E1E1E1E1E1E1E1E1E1E1E1E1E1E1E1E1E1E1E1E1E1E1E1E1E128BEE1E1E1E1
310
E1E1E1E1E1E1E1E1E1E1E1E1E1E1E1E1E1E1E1E1E1E1E1E1E1E1E1E1E1E1E1E1E1E1E1E1E1E1E1E1E1E1E1E1E1E1E1E1E1E1E1E1E1E1E1E1E1E1E1E1BEE1E1E1E1E128E1E1E1E1E1E1E1E1E1E1E1E1E1E1E1E1E1E1E1E1E1E1E1E1E1E1E1E1E1E1E1E1E1E1E1E1E1E1E1E1E1E1E1E1E1E1E1E1E1E1E1E1E1E1E1E1E1E1E1E1
310
E1E1E1E1E1E1E1E1E1E1E1E1E1E1E1E1E1E1E1E1E1E1E1E1E1E1E1E1E1E1E1E1E1E1E1E1E1E1E1E1E1E1E1E1E1E1E1E1E1E1E1E1E1E1E1E1E1E1E1E1E1E1E1E1E1E1E1E1E1E1E1E1E1E1E1E1E1E1E1E1E1E1E1E1E1E1E1E1E1E1E1E1E1E1E1E1E1E1E1E1E1E1E1E1E1E1E1E1E1E1E1E1E1E1E1E1E1E1E1E1E1E1E128BEE1E1
310
E1E1E1E1E1E1E1E1E1E1E1E1E1E1E1E1E1E1E1E1E1E1E1E1E1E1E1E1E1E1E1E1E1E1E1E1E1E1E1E1E1E1E1E1E1E1E1E1E1E1E1E1E1E1E1E1E1E1E1E1E1E1BEE1E1E1E1E128E1E1E1E1E1E1E1E1E1E1E1E1E1E1E1E1E1E1E1E1E1E1E1E1E1E1E1E1E1E1E1E1E1E1E1E1E1E1E1E1E1E1E1E1E1E1E1E1E1E1E1E1E1E1E1E1E1E1
310
E1E1E1E1E1E1E1E1E1E1E1E1E1E1E1E1E1E1E1E1E1E1E1E1E1E1E1E1E1E1E1E1E1E1E1E1E1E1E1E1E1E1E1E1E1E1E1E1E1E1E1E1E1E1E1E1E1E1E1E1E1E1E1E1E1E1E1E1E1E1E1E1E1E1E1E1E1E1E1E1E1E1E1E1E1E1E1E1E1E1E1E1E1E1E1E1E1E1E1E1E1E1E1E1E1E1E1E1E1E1E1E1E1E1E1E1E1E1E1E1E1E1E1E1E128BE
310
E1E1E1E1E1E1E1E1E1E1E1E1E1E1E1E1E1E1E1E1E1E1E1E1E1E1E1E1E1E1E1E1E1E1E1E1E1E1E1E1E1E1E1E1E1E1E1E1E1E1E1E1E1E1E1E1E1E1E1E1E1E1E1E1BEE1E1E1E1E128E1E1E1E1E1E1E1E1E1E1E1E1E1E1E1E1E1E1E1E1E1E1E1E1E1E1E1E1E1E1E1E1E1E1E1E1E1E1E1E1E1E1E1E1E1E1E1E1E1E1E1E1E1E1E1E1
310
E1E1E1E1E1E1E1E1E1E1E1E1E1E1E1E1E1E1E1E1E1E1E1E1E1E1E1E1E1E1E1E1E1E1E1E1E1E1E1E1E1E1E1E1E1E1E1E1E1E1E1E1E1E1E1E1E1E1E1E1E1E1E1E1E1E1E1E1E1E1E1E1E1E1E1E1E1E1E1E1E1E1E1E1E1E1E1E1E1E1E1E1E1E1E1E1E1E1E1E1E1E1E1E1E1E1E1E1E1E1E1E1E1E1E1E1E1E1E1E1E1E1E1E1E1E1E1
310
28BEE1E1E1E1E1E1E1E1E1E1E1E1E1E1E1E1E1E1E1E1E1E1E1E1E1E1E1E1E1E1E1E1E1E1E1E1E1E1E1E1E1E1E1E1E1E1E1E1E1E1E1E1E1E1E1E1E1E1E1E1E1E1E1E1BEE1E1E1E1E128E1E1E1E1E1E1E1E1E1E1E1E1E1E1E1E1E1E1E1E1E1E1E1E1E1E1E1E1E1E1E1E1E1E1E1E1E1E1E1E1E1E1E1E1E1E1E1E1E1E1E1E1E1E1
310
E1E1E1E1E1E1E1E1E1E1E1E1E1E1E1E1E1E1E1E1E1E1E1E1E1E1E1E1E1E1E1E1E1E1E1E1E1E1E1E1E1E1E1E1E1E1E1E1E1E1E1E1E1E1E1E1E1E1E1E1E1E1E1E1E1E1E1E1E1E1E1E1E1E1E1E1E1E1E1E1E1E1E1E1E1E1E1E1E1E1E1E1E1E1E1E1E1E1E1E1E1E1E1E1E1E1E1E1E1E1E1E1E1E1E1E1E1E1E1E1E1E1E1E1E1E1E1
310
E1E128BEE1E1E1E1E1E1E1E1E1E1E1E1E1E1E1E1E1E1E1E1E1E1E1E1E1E1E1E1E1E1E1E1E1E1E1E1E1E1E1E1E1E1E1E1E1E1E1E1E1E1E1E1E1E1E1E1E1E1E1E1E1E1E1E1BEE1E1E1E1E128E1E1E1E1E1E1E1E1E1E1E1E1E1E1E1E1E1E1E1E1E1E1E1E1E1E1E1E1E1E1E1E1E1E1E1E1E1E1E1E1E1E1E1E1E1E1E1E1E1E1E1E1
310
E1E1E1E1E1E1E1E1E1E1E1E1E1E1E1E1E1E1E1E1E1E1E1E1E1E1E1E1E1E1E1E1E1E1E1E1E1E1E1E1E1E1E1E1E1E1E1E1E1E1E1E1E1E1E1E1E1E1E1E1E1E1E1E1E1E1E1E1E1E1E1E1E1E1E1E1E1E1E1E1E1E1E1E1E1E1E1E1E1E1E1E1E1E1E1E1E1E1E1E1E1E1E1E1E1E1E1E1E1E1E1E1E1E1E1E1E1E1E1E1E1E1E1E1E1E1E1
310
E1E1E1E128BEE1E1E1E1E1E1E1E1E1E1E1E1E1E1E1E1E1E1E1E1E1E1E1E1E1E1E1E1E1E1E1E1E1E1E1E1E1E1E1E1E1E1E1E1E1E1E1E1E1E1E1E1E1E1E1E1E1E1E1E1E1E1E1E1BEE1E1E1E1E128E1E1E1E1E1E1E1E1E1E1E1E1E1E1E1E1E1E1E1E1E1E1E1E1E1E1E1E1E1E1E1E1E1E1E1E1E1E1E1E1E1E1E1E1E1E1E1E1E1E1
310
E1E1E1E1E1E1E1E1E1E1E1E1E1E1E1E1E1E1E1E1E1E1E1E1E1E1E1E1E1E1E1E1E1E1E1E1E1E1E1E1E1E1E1E1E1E1E1E1E1E1E1E1E1E1E1E1E1E1E1E1E1E1E1E1E1E1E1E1E1E1E1E1E1E1E1E1E1E1E1E1E1E1E1E1E1E1E1E1E1E1E1E1E1E1E1E1E1E1E1E1E1E1E1E1E1E1E1E1E1E1E1E1E1E1E1E1E1E1E1E1E1E1E1E1E1E1E1
310
E1E1E1E1E1E128BEE1E1E1E1E1E1E1E1E1E1E1E1E1E1E1E1E1E1E1E1E1E1E1E1E1E1E1E1E1E1E1E1E1E1E1E1E1E1E1E1E1E1E1E1E1E1E1E1E1E1E1E1E1E1E1E1E1E1E1E1E1E1E1E1BEE1E1E1E1E128E1E1E1E1E1E1E1E1E1E1E1E1E1E1E1E1E1E1E1E1E1E1E1E1E1E1E1E1E1E1E1E1E1E1E1E1E1E1E1E1E1E1E1E1E1E1E1E1
310
E1E1E1E1E1E1E1E1E1E1E1E1E1E1E1E1E1E1E1E1E1E1E1E1E1E1E1E1E1E1E1E1E1E1E1E1E1E1E1E1E1E1E1E1E1E1E1E1E1E1E1E1E1E1E1E1E1E1E1E1E1E1E1E1E1E1E1E1E1E1E1E1E1E1E1E1E1E1E1E1E1E1E1E1E1E1E1E1E1E1E1E1E1E1E1E1E1E1E1E1E1E1E1E1E1E1E1E1E1E1E1E1E1E1E1E1E1E1E1E1E1E1E1E1E1E1E1
310
E1E1E1E1E1E1E1E128BEE1E1E1E1E1E1E1E1E1E1E1E1E1E1E1E1E1E1E1E1E1E1E1E1E1E1E1E1E1E1E1E1E1E1E1E1E1E1E1E1E1E1E1E1E1E1E1E1E1E1E1E1E1E1E1E1E1E1E1E1E1E1E1E1BEE1E1E1E1E128E1E1E1E1E1E1E1E1E1E1E1E1E1E1E1E1E1E1E1E1E1E1E1E1E1E1E1E1E1E1E1E1E1E1E1E1E1E1E1E1E1E1E1E1E1E1
310
E1E1E1E1E1E1E1E1E1E1E1E1E1E1E1E1E1E1E1E1E1E1E1E1E1E1E1E1E1E1E1E1E1E1E1E1E1E1E1E1E1E1E1E1E1E1E1E1E1E1E1E1E1E1E1E1E1E1E1E1E1E1E1E1E1E1E1E1E1E1E1E1E1E1E1E1E1E1E1E1E1E1E1E1E1E1E1E1E1E1E1E1E1E1E1E1E1E1E1E1E1E1E1E1E1E1E1E1E1E1E1E1E1E1E1E1E1E1E1E1E1E1E1E1E1E1E1
310
E1E1E1E1E1E1E1E1E1E128BEE1E1E1E1E1E1E1E1E1E1E1E1E1E1E1E1E1E1E1E1E1E1E1E1E1E1E1E1E1E1E1E1E1E1E1E1E1E1E1E1E1E1E1E1E1E1E1E1E1E1E1E1E1E1E1E1E1E1E1E1E1E1E1E1BEE1E1E1E1E128E1E1E1E1E1E1E1E1E1E1E1E1E1E1E1E1E1E1E1E1E1E1E1E1E1E1E1E1E1E1E1E1E1E1E1E1E1E1E1E1E1E1E1E1
310
E1E1E1E1E1E1E1E1E1E1E1E1E1E1E1E1E1E1E1E1E1E1E1E1E1E1E1E1E1E1E1E1E1E1E1E1E1E1E1E1E1E1E1E1E1E1E1E1E1E1E1E1E1E1E1E1E1E1E1E1E1E1E1E1E1E1E1E1E1E1E1E1E1E1E1E1E1E1E1E1E1E1E1E1E1E1E1E1E1E1E1E1E1E1E1E1E1E1E1E1E1E1E1E1E1E1E1E1E1E1E1E1E1E1E1E1E1E1E1E1E1E1E1E1E1E1E1
310
E1E1E1E1E1E1E1E1E1E1E1E128BEE1E1E1E1E1E1E1E1E1E1E1E1E1E1E1E1E1E1E1E1E1E1E1E1E1E1E1E1E1E1E1E1E1E1E1E1E1E1E1E1E1E1E1E1E1E1E1E1E1E1E1E1E1E1E1E1E1E1E1E1E1E1E1E1BEE1E1E1E1E128E1E1E1E1E1E1E1E1E1E1E1E1E1E1E1E1E1E1E1E1E1E1E1E1E1E1E1E1E1E1E1E1E1E1E1E1E1E1E1E1E1E1
310
E1E1E1E1E1E1E1E1E1E1E1E1E1E1E1E1E1E1E1E1E1E1E1E1E1E1E1E1E1E1E1E1E1E1E1E1E1E1E1E1E1E1E1E1E1E1E1E1E1E1E1E1E1E1E1E1E1E1E1E1E1E1E1E1E1E1E1E1E1E1E1E1E1E1E1E1E1E1E1E1E1E1E1E1E1E1E1E1E1E1E1E1E1E1E1E1E1E1E1E1E1E1E1E1E1E1E1E1E1E1E1E1E1E1E1E1E1E1E1E1E1E1E1E1E1E1E1
310
E1E1E1E1E1E1E1E1E1E1E1E1E1E128BEE1E1E1E1E1E1E1E1E1E1E1E1E1E1E1E1E1E1E1E1E1E1E1E1E1E1E1E1E1E1E1E1E1E1E1E1E1E1E1E1E1E1E1E1E1E1E1E1E1E1E1E1E1E1E1E1E1E1E1E1E1E1E1E1BEE1E1E1E1E128E1E1E1E1E1E1E1E1E1E1E1E1E1E1E1E1E1E1E1E1E1E1E1E1E1E1E1E1E1E1E1E1E1E1E1E1E1E1E1E1
310
E1E1E1E1E1E1E1E1E1E1E1E1E1E1E1E1E1E1E1E1E1E1E1E1E1E1E1E1E1E1E1E1E1E1E1E1E1E1E1E1E1E1E1E1E1E1E1E1E1E1E1E1E1E1E1E1E1E1E1E1E1E1E1E1E1E1E1E1E1E1E1E1E1E1E1E1E1E1E1E1E1E1E1E1E1E1E1E1E1E1E1E1E1E1E1E1E1E1E1E1E1E1E1E1E1E1E1E1E1E1E1E1E1E1E1E1E1E1E1E1E1E1E1E1E1E1E1
310
E1E1E1E1E1E1E1E1E1E1E1E1E1E1E1E128BEE1E1E1E1E1E1E1E1E1E1E1E1E1E1E1E1E1E1E1E1E1E1E1E1E1E1E1E1E1E1E1E1E1E1E1E1E1E1E1E1E1E1E1E1E1E1E1E1E1E1E1E1E1E1E1E1E1E1E1E1E1E1E1E1BEE1E1E1E1E128E1E1E1E1E1E1E1E1E1E1E1E1E1E1E1E1E1E1E1E1E1E1E1E1E1E1E1E1E1E1E1E1E1E1E1E1E1E1
310
E1E1E1E1E1E1E1E1E1E1E1E1E1E1E1E1E1E1E1E1E1E1E1E1E1E1E1E1E1E1E1E1E1E1E1E1E1E1E1E1E1E1E1E1E1E1E1E1E1E1E1E1E1E1E1E1E1E1E1E1E1E1E1E1E1E1E1E1E1E1E1E1E1E1E1E1E1E1E1E1E1E1E1E1E1E1E1E1E1E1E1E1E1E1E1E1E1E1E1E1E1E1E1E1E1E1E1E1E1E1E1E1E1E1E1E1E1E1E1E1E1E1E1E1E1E1E1
310
E1E1E1E1E1E1E1E1E1E1E1E1E1E1E1E1E1E128BEE1E1E1E1E1E1E1E1E1E1E1E1E1E1E1E1E1E1E1E1E1E1E1E1E1E1E1E1E1E1E1E1E1E1E1E1E1E1E1E1E1E1E1E1E1E1E1E1E1E1E1E1E1E1E1E1E1E1E1E1E1E1E1E1BEE1E1E1E1E128E1E1E1E1E1E1E1E1E1E1E1E1E1E1E1E1E1E1E1E1E1E1E1E1E1E1E1E1E1E1E1E1E1E1E1E1
310
E1E1E1E1E1E1E1E1E1E1E1E1E1E1E1E1E1E1E1E1E1E1E1E1E1E1E1E1E1E1E1E1E1E1E1E1E1E1E1E1E1E1E1E1E1E1E1E1E1E1E1E1E1E1E1E1E1E1E1E1E1E1E1E1E1E1E1E1E1E1E1E1E1E1E1E1E1E1E1E1E1E1E1E1E1E1E1E1E1E1E1E1E1E1E1E1E1E1E1E1E1E1E1E1E1E1E1E1E1E1E1E1E1E1E1E1E1E1E1E1E1E1E1E1E1E1E1
310
E1E1E1E1E1E1E1E1E1E1E1E1E1E1E1E1E1E1E1E128BEE1E1E1E1E1E1E1E1E1E1E1E1E1E1E1E1E1E1E1E1E1E1E1E1E1E1E1E1E1E1E1E1E1E1E1E1E1E1E1E1E1E1E1E1E1E1E1E1E1E1E1E1E1E1E1E1E1E1E1E1E1E1E1E1BEE1E1E1E1E128E1E1E1E1E1E1E1E1E1E1E1E1E1E1E1E1E1E1E1E1E1E1E1E1E1E1E1E1E1E1E1E1E1E1
310
E1E1E1E1E1E1E1E1E1E1E1E1E1E1E1E1E1E1E1E1E1E1E1E1E1E1E1E1E1E1E1E1E1E1E1E1E1E1E1E1E1E1E1E1E1E1E1E1E1E1E1E1E1E1E1E1E1E1E1E1E1E1E1E1E1E1E1E1E1E1E1E1E1E1E1E1E1E1E1E1E1E1E1E1E1E1E1E1E1E1E1E1E1E1E1E1E1E1E1E1E1E1E1E1E1E1E1E1E1E1E1E1E1E1E1E1E1E1E1E1E1E1E1E1E1E1E1
310
E1E1E1E1E1E1E1E1E1E1E1E1E1E1E1E1E1E1E1E1E1E128BEE1E1E1E1E1E1E1E1E1E1E1E1E1E1E1E1E1E1E1E1E1E1E1E1E1E1E1E1E1E1E1E1E1E1E1E1E1E1E1E1E1E1E1E1E1E1E1E1E1E1E1E1E1E1E1E1E1E1E1E1E1E1E1E1BEE1E1E1E1E128E1E1E1E1E1E1E1E1E1E1E1E1E1E1E1E1E1E1E1E1E1E1E1E1E1E1E1E1E1E1E1E1
310
E1E1E1E1E1E1E1E1E1E1E1E1E1E1E1E1E1E1E1E1E1E1E1E1E1E1E1E1E1E1E1E1E1E1E1E1E1E1E1E1E1E1E1E1E1E1E1E1E1E1E1E1E1E1E1E1E1E1E1E1E1E1E1E1E1E1E1E1E1E1E1E1E1E1E1E1E1E1E1E1E1E1E1E1E1E1E1E1E1E1E1E1E1E1E1E1E1E1E1E1E1E1E1E1E1E1E1E1E1E1E1E1E1E1E1E1E1E1E1E1E1E1E1E1E1E1E1
310
E1E1E1E1E1E1E1E1E1E1E1E1E1E1E1E1E1E1E1E1E1E1E1E128BEE1E1E1E1E1E1E1E1E1E1E1E1E1E1E1E1E1E1E1E1E1E1E1E1E1E1E1E1E1E1E1E1E1E1E1E1E1E1E1E1E1E1E1E1E1E1E1E1E1E1E1E1E1E1E1E1E1E1E1E1E1E1E1E1BEE1E1E1E1E128E1E1E1E1E1E1E1E1E1E1E1E1E1E1E1E1E1E1E1E1E1E1E1E1E1E1E1E1E1E1
310
E1E1E1E1E1E1E1E1E1E1E1E1E1E1E1E1E1E1E1E1E1E1E1E1E1E1E1E1E1E1E1E1E1E1E1E1E1E1E1E1E1E1E1E1E1E1E1E1E1E1E1E1E1E1E1E1E1E1E1E1E1E1E1E1E1E1E1E1E1E1E1E1E1E1E1E1E1E1E1E1E1E1E1E1E1E1E1E1E1E1E1E1E1E1E1E1E1E1E1E1E1E1E1E1E1E1E1E1E1E1E1E1E1E1E1E1E1E1E1E1E1E1E1E1E1E1E1
310
E1E1E1E1E1E1E1E1E1E1E1E1E1E1E1E1E1E1E1E1E1E1E1E1E1E128BEE1E1E1E1E1E1E1E1E1E1E1E1E1E1E1E1E1E1E1E1E1E1E1E1E1E1E1E1E1E1E1E1E1E1E1E1E1E1E1E1E1E1E1E1E1E1E1E1E1E1E1E1E1E1E1E1E1E1E1E1E1E1E1E1BEE1E1E1E1E12828282828282828282828282828282828282828282828282828282828
310
28282828282828282828282828282828282828282828282828282828282828282828282828282828282828282828282828282828282828282828282828282828282828282828282828282828282828282828282828282828282828282828282828282828282828282828282828282828282828282828282828282828282828
310
2828282828282828282828282828282828282828282828282828282828BEE1E1E1E1E1E1E1E1E1E1E1E1E1E1E1E1E1E1E1E1E1E1E1E1E1E1E1E1E1E1E1E1E1E1E1E1E1E1E1E1E1E1E1E1E1E1E1E1E1E1E1E1E1E1E1E1E1E1E1E1E1E1E1E1BEE1E1E1E1E1E1E1E1E1E1E1E1E1E1E1E1E1E1E1E1E1E1E1E1E1E1E1E1E1E1E1E1
310
E1E1E1E1BEE1E1E1E1E1E1E1E1E1E1E1E1E1E1E1E1E1E1E1E1E1E1E1E1E1E1E1E1E1E1BEE1E1E1E1E1E1E1E1E1E1E1E1E1E1E1E1E1E1E1E1E1E1E1E1E1E1E1E1E1E1E1E1E1E1E1E1E1E1E1E1E1E1E1E1E1E1E1E1E1E1E1E1E1E1E1E1E1E1E1E1E1BEE1E1E1E1E1E1E1E1E1E1E1E1E1E1E1E1E1E1E1E1E1E1E1E1E1E1E1E1E1
310
E1E1E1E1E1E1E1E1E1E1E1E1E1E1E1E1E1E1E1E1E1E1E1E1E1E1E1E1E1E1E1BEE1E1E1E1E1E1E1E1E1E1E1E1E1E1E1E1E1E1E1E1E1E1E1E1E1E1E1E1E1E1E1E1E1E1E1E1E1E1E1E1E1E1E1E1E1E1E1E1E1E1E1E1E1E1E1E1E1E1E1E1E1E1E1E1BEBEBEBEBEBEBEBEBEBEBEBEBEBEBEBEBEBEBEBEBEBEBEBEBEBEBEBEBEBEBE
310
BEBEBEBEBEBEBEBEBEBEBEBEBEBEBEBEBEBEBEBEBEBEBEBEBEBEBEBEBEBEBEBEBEBEBEBEBEBEBEBEBEBEBEBEBEBEBEBEBEBEBEBEBEBEBEBEBEBEBEBEBEBEBEBEBEBEBEBEBEBEBEBEBEBEBEBEBEBEBEBEBEBEBEBEBEBEBEBEBEBEBEBEBEBEBEBEBEBEBEBEBEBEBEBEBEBEBEBEBEBEBEBEBEBEBEBEBEBEBEBEBEBEBEBEBEBEBE
310
BEBEBEBEBEBEBEBEBEBEBEBEBEBEBEBEBEBEBEBEBEBEBEBEBEBEBEBEBEBEBEBEBEBEE1E1E1E1E1E1E1E1E1E1E1E1E1E1E1E1E1E1E1E1E1E1E1E1E1E1E1E1E1E1E1E1
  0
XRECORD
  5
38D1
102
{ACAD_REACTORS
330
18DA
102
}
330
18DA
100
AcDbXrecord
280
     1
102
MATERIAL
148
0.0
149
0.0
149
0.0
 93
        0
 94
      127
282
     0
 72
     0
 77
     0
171
     0
175
     0
179
     0
273
     0
  0
XRECORD
  5
18DC
102
{ACAD_REACTORS
330
18DA
102
}
330
18DA
100
AcDbXrecord
280
     1
270
     1
271
     1
  0
XRECORD
  5
18DB
102
{ACAD_REACTORS
330
18DA
102
}
330
18DA
100
AcDbXrecord
280
     1
270
     1
271
     1
  0
XRECORD
  5
18DF
102
{ACAD_REACTORS
330
18DA
102
}
330
18DA
100
AcDbXrecord
280
     1
270
     1
271
     1
  0
XRECORD
  5
18DE
102
{ACAD_REACTORS
330
18DA
102
}
330
18DA
100
AcDbXrecord
280
     1
270
     1
271
     1
  0
XRECORD
  5
18E0
102
{ACAD_REACTORS
330
18DA
102
}
330
18DA
100
AcDbXrecord
280
     1
270
     1
271
     1
  0
XRECORD
  5
18DD
102
{ACAD_REACTORS
330
18DA
102
}
330
18DA
100
AcDbXrecord
280
     1
270
     1
271
     1
  0
XRECORD
  5
38D0
102
{ACAD_REACTORS
330
18D2
102
}
330
18D2
100
AcDbXrecord
280
     1
102
MATERIAL
148
0.0
149
0.0
149
0.0
 93
        0
 94
      127
282
     0
 72
     0
 77
     0
171
     0
175
     0
179
     0
273
     0
  0
XRECORD
  5
18D4
102
{ACAD_REACTORS
330
18D2
102
}
330
18D2
100
AcDbXrecord
280
     1
270
     1
271
     1
  0
XRECORD
  5
18D3
102
{ACAD_REACTORS
330
18D2
102
}
330
18D2
100
AcDbXrecord
280
     1
270
     1
271
     1
  0
XRECORD
  5
18D7
102
{ACAD_REACTORS
330
18D2
102
}
330
18D2
100
AcDbXrecord
280
     1
270
     1
271
     1
  0
XRECORD
  5
18D6
102
{ACAD_REACTORS
330
18D2
102
}
330
18D2
100
AcDbXrecord
280
     1
270
     1
271
     1
  0
XRECORD
  5
18D8
102
{ACAD_REACTORS
330
18D2
102
}
330
18D2
100
AcDbXrecord
280
     1
270
     1
271
     1
  0
XRECORD
  5
18D5
102
{ACAD_REACTORS
330
18D2
102
}
330
18D2
100
AcDbXrecord
280
     1
270
     1
271
     1
  0
XRECORD
  5
38D2
102
{ACAD_REACTORS
330
18E2
102
}
330
18E2
100
AcDbXrecord
280
     1
102
MATERIAL
148
0.0
149
0.0
149
0.0
 93
        0
 94
      127
282
     0
 72
     0
 77
     0
171
     0
175
     0
179
     0
273
     0
  0
XRECORD
  5
18E4
102
{ACAD_REACTORS
330
18E2
102
}
330
18E2
100
AcDbXrecord
280
     1
270
     1
271
     1
  0
XRECORD
  5
18E3
102
{ACAD_REACTORS
330
18E2
102
}
330
18E2
100
AcDbXrecord
280
     1
270
     1
271
     1
  0
XRECORD
  5
18E7
102
{ACAD_REACTORS
330
18E2
102
}
330
18E2
100
AcDbXrecord
280
     1
270
     1
271
     1
  0
XRECORD
  5
18E6
102
{ACAD_REACTORS
330
18E2
102
}
330
18E2
100
AcDbXrecord
280
     1
270
     1
271
     1
  0
XRECORD
  5
18E8
102
{ACAD_REACTORS
330
18E2
102
}
330
18E2
100
AcDbXrecord
280
     1
270
     1
271
     1
  0
XRECORD
  5
18E5
102
{ACAD_REACTORS
330
18E2
102
}
330
18E2
100
AcDbXrecord
280
     1
270
     1
271
     1
  0
CELLSTYLEMAP
  5
38CA
102
{ACAD_REACTORS
330
38C9
102
}
330
38C9
100
AcDbCellStyleMap
 90
        3
300
CELLSTYLE
  1
TABLEFORMAT_BEGIN
 90
        5
170
     1
 91
        0
 92
    32768
 62
   257
 93
        1
300
CONTENTFORMAT
  1
CONTENTFORMAT_BEGIN
 90
        0
 91
        0
 92
      512
 93
        0
300

 40
0.0
140
1.0
 94
        5
 62
     0
340
10
144
0.25
309
CONTENTFORMAT_END
171
     0
 94
        0
309
TABLEFORMAT_END
  1
CELLSTYLE_BEGIN
 90
        1
 91
        1
300
_TITLE
309
CELLSTYLE_END
300
CELLSTYLE
  1
TABLEFORMAT_BEGIN
 90
        5
170
     1
 91
        0
 92
        0
 62
   257
 93
        1
300
CONTENTFORMAT
  1
CONTENTFORMAT_BEGIN
 90
        0
 91
        0
 92
      512
 93
        0
300

 40
0.0
140
1.0
 94
        5
 62
     0
340
10
144
0.18
309
CONTENTFORMAT_END
171
     0
 94
        0
309
TABLEFORMAT_END
  1
CELLSTYLE_BEGIN
 90
        2
 91
        1
300
_HEADER
309
CELLSTYLE_END
300
CELLSTYLE
  1
TABLEFORMAT_BEGIN
 90
        5
170
     1
 91
        0
 92
        0
 62
   257
 93
        1
300
CONTENTFORMAT
  1
CONTENTFORMAT_BEGIN
 90
        0
 91
        0
 92
      512
 93
        0
300

 40
0.0
140
1.0
 94
        2
 62
     0
340
10
144
0.18
309
CONTENTFORMAT_END
171
     0
 94
        0
309
TABLEFORMAT_END
  1
CELLSTYLE_BEGIN
 90
        3
 91
        2
300
_DATA
309
CELLSTYLE_END
  0
XRECORD
  5
38F9
102
{ACAD_REACTORS
330
38C9
102
}
330
38C9
100
AcDbXrecord
280
     1
102
ACAD_ROUNDTRIP_PRE2007_TABLESTYLE
 90
      512
 91
        0
  1

 92
      512
 93
        0
  2

 94
      512
 95
        0
  3

  0
XRECORD
  5
38DE
102
{ACAD_REACTORS
330
38DD
102
}
330
38DD
100
AcDbXrecord
280
     1
102
RTVSPropertyOp0
 70
     1
102
RTVSPropertyOp1
 70
     1
102
RTVSPropertyOp2
 70
     1
102
RTVSPropertyOp3
 70
     1
102
RTVSPropertyOp4
 70
     1
102
RTVSPropertyOp5
 70
     1
102
RTVSPropertyOp6
 70
     1
102
RTVSPropertyOp7
 70
     1
102
RTVSPropertyOp8
 70
     1
102
RTVSPropertyOp9
 70
     1
102
RTVSPropertyOp10
 70
     1
102
RTVSPropertyOp11
 70
     1
102
RTVSPropertyOp12
 70
     1
102
RTVSPropertyOp13
 70
     1
102
RTVSPropertyOp14
 70
     1
102
RTVSPropertyOp15
 70
     1
102
RTVSPropertyOp16
 70
     1
102
RTVSPropertyOp17
 70
     1
102
RTVSPropertyOp18
 70
     1
102
RTVSPropertyOp19
 70
     1
102
RTVSPropertyOp20
 70
     1
102
RTVSPropertyOp21
 70
     1
102
RTVSPropertyOp22
 70
     1
102
RTVSPropertyOp23
 70
     1
102
RTVSPropertyOp24
 70
     1
102
RTVSPropertyOp25
 70
     1
102
RTVSPropertyOp26
 70
     1
102
RTVSPropertyOp27
 70
     1
  0
XRECORD
  5
38E2
102
{ACAD_REACTORS
330
38E1
102
}
330
38E1
100
AcDbXrecord
280
     1
102
RTVSPropertyOp0
 70
     1
102
RTVSPropertyOp1
 70
     1
102
RTVSPropertyOp2
 70
     1
102
RTVSPropertyOp3
 70
     1
102
RTVSPropertyOp4
 70
     1
102
RTVSPropertyOp5
 70
     1
102
RTVSPropertyOp6
 70
     1
102
RTVSPropertyOp7
 70
     1
102
RTVSPropertyOp8
 70
     1
102
RTVSPropertyOp9
 70
     1
102
RTVSPropertyOp10
 70
     1
102
RTVSPropertyOp11
 70
     1
102
RTVSPropertyOp12
 70
     1
102
RTVSPropertyOp13
 70
     1
102
RTVSPropertyOp14
 70
     1
102
RTVSPropertyOp15
 70
     1
102
RTVSPropertyOp16
 70
     1
102
RTVSPropertyOp17
 70
     1
102
RTVSPropertyOp18
 70
     1
102
RTVSPropertyOp19
 70
     1
102
RTVSPropertyOp20
 70
     1
102
RTVSPropertyOp21
 70
     1
102
RTVSPropertyOp22
 70
     1
102
RTVSPropertyOp23
 70
     1
102
RTVSPropertyOp24
 70
     1
102
RTVSPropertyOp25
 70
     1
102
RTVSPropertyOp26
 70
     1
102
RTVSPropertyOp27
 70
     1
  0
XRECORD
  5
38E0
102
{ACAD_REACTORS
330
38DF
102
}
330
38DF
100
AcDbXrecord
280
     1
102
RTVSPropertyOp0
 70
     1
102
RTVSPropertyOp1
 70
     1
102
RTVSPropertyOp2
 70
     1
102
RTVSPropertyOp3
 70
     1
102
RTVSPropertyOp4
 70
     1
102
RTVSPropertyOp5
 70
     1
102
RTVSPropertyOp6
 70
     1
102
RTVSPropertyOp7
 70
     1
102
RTVSPropertyOp8
 70
     1
102
RTVSPropertyOp9
 70
     1
102
RTVSPropertyOp10
 70
     1
102
RTVSPropertyOp11
 70
     1
102
RTVSPropertyOp12
 70
     1
102
RTVSPropertyOp13
 70
     1
102
RTVSPropertyOp14
 70
     1
102
RTVSPropertyOp15
 70
     1
102
RTVSPropertyOp16
 70
     1
102
RTVSPropertyOp17
 70
     1
102
RTVSPropertyOp18
 70
     1
102
RTVSPropertyOp19
 70
     1
102
RTVSPropertyOp20
 70
     1
102
RTVSPropertyOp21
 70
     1
102
RTVSPropertyOp22
 70
     1
102
RTVSPropertyOp23
 70
     1
102
RTVSPropertyOp24
 70
     1
102
RTVSPropertyOp25
 70
     1
102
RTVSPropertyOp26
 70
     1
102
RTVSPropertyOp27
 70
     1
  0
XRECORD
  5
38DC
102
{ACAD_REACTORS
330
38DB
102
}
330
38DB
100
AcDbXrecord
280
     1
102
RTVSPropertyOp0
 70
     1
102
RTVSPropertyOp1
 70
     1
102
RTVSPropertyOp2
 70
     1
102
RTVSPropertyOp3
 70
     1
102
RTVSPropertyOp4
 70
     1
102
RTVSPropertyOp5
 70
     1
102
RTVSPropertyOp6
 70
     1
102
RTVSPropertyOp7
 70
     1
102
RTVSPropertyOp8
 70
     1
102
RTVSPropertyOp9
 70
     1
102
RTVSPropertyOp10
 70
     1
102
RTVSPropertyOp11
 70
     1
102
RTVSPropertyOp12
 70
     1
102
RTVSPropertyOp13
 70
     1
102
RTVSPropertyOp14
 70
     1
102
RTVSPropertyOp15
 70
     1
102
RTVSPropertyOp16
 70
     1
102
RTVSPropertyOp17
 70
     1
102
RTVSPropertyOp18
 70
     1
102
RTVSPropertyOp19
 70
     1
102
RTVSPropertyOp20
 70
     1
102
RTVSPropertyOp21
 70
     1
102
RTVSPropertyOp22
 70
     1
102
RTVSPropertyOp23
 70
     1
102
RTVSPropertyOp24
 70
     1
102
RTVSPropertyOp25
 70
     1
102
RTVSPropertyOp26
 70
     1
102
RTVSPropertyOp27
 70
     1
  0
XRECORD
  5
38EA
102
{ACAD_REACTORS
330
38E9
102
}
330
38E9
100
AcDbXrecord
280
     1
102
RTVSPropertyOp0
 70
     1
102
RTVSPropertyOp1
 70
     1
102
RTVSPropertyOp2
 70
     1
102
RTVSPropertyOp3
 70
     1
102
RTVSPropertyOp4
 70
     1
102
RTVSPropertyOp5
 70
     1
102
RTVSPropertyOp6
 70
     1
102
RTVSPropertyOp7
 70
     1
102
RTVSPropertyOp8
 70
     1
102
RTVSPropertyOp9
 70
     1
102
RTVSPropertyOp10
 70
     1
102
RTVSPropertyOp11
 70
     1
102
RTVSPropertyOp12
 70
     1
102
RTVSPropertyOp13
 70
     1
102
RTVSPropertyOp14
 70
     1
102
RTVSPropertyOp15
 70
     1
102
RTVSPropertyOp16
 70
     1
102
RTVSPropertyOp17
 70
     1
102
RTVSPropertyOp18
 70
     1
102
RTVSPropertyOp19
 70
     1
102
RTVSPropertyOp20
 70
     1
102
RTVSPropertyOp21
 70
     1
102
RTVSPropertyOp22
 70
     1
102
RTVSPropertyOp23
 70
     1
102
RTVSPropertyOp24
 70
     1
102
RTVSPropertyOp25
 70
     1
102
RTVSPropertyOp26
 70
     1
102
RTVSPropertyOp27
 70
     1
  0
XRECORD
  5
38F2
102
{ACAD_REACTORS
330
38F1
102
}
330
38F1
100
AcDbXrecord
280
     1
102
RTVSPropertyOp0
 70
     1
102
RTVSPropertyOp1
 70
     1
102
RTVSPropertyOp2
 70
     1
102
RTVSPropertyOp3
 70
     1
102
RTVSPropertyOp4
 70
     1
102
RTVSPropertyOp5
 70
     1
102
RTVSPropertyOp6
 70
     1
102
RTVSPropertyOp7
 70
     1
102
RTVSPropertyOp8
 70
     1
102
RTVSPropertyOp9
 70
     1
102
RTVSPropertyOp10
 70
     1
102
RTVSPropertyOp11
 70
     1
102
RTVSPropertyOp12
 70
     1
102
RTVSPropertyOp13
 70
     1
102
RTVSPropertyOp14
 70
     1
102
RTVSPropertyOp15
 70
     1
102
RTVSPropertyOp16
 70
     1
102
RTVSPropertyOp17
 70
     1
102
RTVSPropertyOp18
 70
     1
102
RTVSPropertyOp19
 70
     1
102
RTVSPropertyOp20
 70
     1
102
RTVSPropertyOp21
 70
     1
102
RTVSPropertyOp22
 70
     1
102
RTVSPropertyOp23
 70
     1
102
RTVSPropertyOp24
 70
     1
102
RTVSPropertyOp25
 70
     1
102
RTVSPropertyOp26
 70
     1
102
RTVSPropertyOp27
 70
     1
  0
XRECORD
  5
38E4
102
{ACAD_REACTORS
330
38E3
102
}
330
38E3
100
AcDbXrecord
280
     1
102
RTVSPropertyOp0
 70
     1
102
RTVSPropertyOp1
 70
     1
102
RTVSPropertyOp2
 70
     1
102
RTVSPropertyOp3
 70
     1
102
RTVSPropertyOp4
 70
     1
102
RTVSPropertyOp5
 70
     1
102
RTVSPropertyOp6
 70
     1
102
RTVSPropertyOp7
 70
     1
102
RTVSPropertyOp8
 70
     1
102
RTVSPropertyOp9
 70
     1
102
RTVSPropertyOp10
 70
     1
102
RTVSPropertyOp11
 70
     1
102
RTVSPropertyOp12
 70
     1
102
RTVSPropertyOp13
 70
     1
102
RTVSPropertyOp14
 70
     1
102
RTVSPropertyOp15
 70
     1
102
RTVSPropertyOp16
 70
     1
102
RTVSPropertyOp17
 70
     1
102
RTVSPropertyOp18
 70
     1
102
RTVSPropertyOp19
 70
     1
102
RTVSPropertyOp20
 70
     1
102
RTVSPropertyOp21
 70
     1
102
RTVSPropertyOp22
 70
     1
102
RTVSPropertyOp23
 70
     1
102
RTVSPropertyOp24
 70
     1
102
RTVSPropertyOp25
 70
     1
102
RTVSPropertyOp26
 70
     1
102
RTVSPropertyOp27
 70
     1
  0
XRECORD
  5
38E8
102
{ACAD_REACTORS
330
38E7
102
}
330
38E7
100
AcDbXrecord
280
     1
102
RTVSPropertyOp0
 70
     1
102
RTVSPropertyOp1
 70
     1
102
RTVSPropertyOp2
 70
     1
102
RTVSPropertyOp3
 70
     1
102
RTVSPropertyOp4
 70
     1
102
RTVSPropertyOp5
 70
     1
102
RTVSPropertyOp6
 70
     1
102
RTVSPropertyOp7
 70
     1
102
RTVSPropertyOp8
 70
     1
102
RTVSPropertyOp9
 70
     1
102
RTVSPropertyOp10
 70
     1
102
RTVSPropertyOp11
 70
     1
102
RTVSPropertyOp12
 70
     1
102
RTVSPropertyOp13
 70
     1
102
RTVSPropertyOp14
 70
     1
102
RTVSPropertyOp15
 70
     1
102
RTVSPropertyOp16
 70
     1
102
RTVSPropertyOp17
 70
     1
102
RTVSPropertyOp18
 70
     1
102
RTVSPropertyOp19
 70
     1
102
RTVSPropertyOp20
 70
     1
102
RTVSPropertyOp21
 70
     1
102
RTVSPropertyOp22
 70
     1
102
RTVSPropertyOp23
 70
     1
102
RTVSPropertyOp24
 70
     1
102
RTVSPropertyOp25
 70
     1
102
RTVSPropertyOp26
 70
     1
102
RTVSPropertyOp27
 70
     1
  0
XRECORD
  5
38F8
102
{ACAD_REACTORS
330
38F7
102
}
330
38F7
100
AcDbXrecord
280
     1
102
RTVSPropertyOp0
 70
     0
102
RTVSPropertyOp1
 70
     0
102
RTVSPropertyOp2
 70
     0
102
RTVSPropertyOp3
 70
     0
102
RTVSPropertyOp4
 70
     0
102
RTVSPropertyOp5
 70
     0
102
RTVSPropertyOp6
 70
     0
102
RTVSPropertyOp7
 70
     0
102
RTVSPropertyOp8
 70
     0
102
RTVSPropertyOp9
 70
     0
102
RTVSPropertyOp10
 70
     0
102
RTVSPropertyOp11
 70
     0
102
RTVSPropertyOp12
 70
     0
102
RTVSPropertyOp13
 70
     0
102
RTVSPropertyOp14
 70
     2
102
RTVSPropertyOp15
 70
     0
102
RTVSPropertyOp16
 70
     0
102
RTVSPropertyOp17
 70
     0
102
RTVSPropertyOp18
 70
     0
102
RTVSPropertyOp19
 70
     0
102
RTVSPropertyOp20
 70
     0
102
RTVSPropertyOp21
 70
     0
102
RTVSPropertyOp22
 70
     0
102
RTVSPropertyOp23
 70
     0
102
RTVSPropertyOp24
 70
     0
102
RTVSPropertyOp25
 70
     0
102
RTVSPropertyOp26
 70
     0
102
RTVSPropertyOp27
 70
     0
  0
XRECORD
  5
38F0
102
{ACAD_REACTORS
330
38EF
102
}
330
38EF
100
AcDbXrecord
280
     1
102
RTVSPropertyOp0
 70
     1
102
RTVSPropertyOp1
 70
     1
102
RTVSPropertyOp2
 70
     1
102
RTVSPropertyOp3
 70
     1
102
RTVSPropertyOp4
 70
     1
102
RTVSPropertyOp5
 70
     1
102
RTVSPropertyOp6
 70
     1
102
RTVSPropertyOp7
 70
     1
102
RTVSPropertyOp8
 70
     1
102
RTVSPropertyOp9
 70
     1
102
RTVSPropertyOp10
 70
     1
102
RTVSPropertyOp11
 70
     1
102
RTVSPropertyOp12
 70
     1
102
RTVSPropertyOp13
 70
     1
102
RTVSPropertyOp14
 70
     1
102
RTVSPropertyOp15
 70
     1
102
RTVSPropertyOp16
 70
     1
102
RTVSPropertyOp17
 70
     1
102
RTVSPropertyOp18
 70
     1
102
RTVSPropertyOp19
 70
     1
102
RTVSPropertyOp20
 70
     1
102
RTVSPropertyOp21
 70
     1
102
RTVSPropertyOp22
 70
     1
102
RTVSPropertyOp23
 70
     1
102
RTVSPropertyOp24
 70
     1
102
RTVSPropertyOp25
 70
     1
102
RTVSPropertyOp26
 70
     1
102
RTVSPropertyOp27
 70
     1
  0
XRECORD
  5
38D4
102
{ACAD_REACTORS
330
38D3
102
}
330
38D3
100
AcDbXrecord
280
     1
102
RTVSPropertyOp0
 70
     1
102
RTVSPropertyOp1
 70
     1
102
RTVSPropertyOp2
 70
     1
102
RTVSPropertyOp3
 70
     1
102
RTVSPropertyOp4
 70
     1
102
RTVSPropertyOp5
 70
     1
102
RTVSPropertyOp6
 70
     1
102
RTVSPropertyOp7
 70
     1
102
RTVSPropertyOp8
 70
     1
102
RTVSPropertyOp9
 70
     1
102
RTVSPropertyOp10
 70
     1
102
RTVSPropertyOp11
 70
     1
102
RTVSPropertyOp12
 70
     1
102
RTVSPropertyOp13
 70
     1
102
RTVSPropertyOp14
 70
     1
102
RTVSPropertyOp15
 70
     1
102
RTVSPropertyOp16
 70
     1
102
RTVSPropertyOp17
 70
     1
102
RTVSPropertyOp18
 70
     1
102
RTVSPropertyOp19
 70
     1
102
RTVSPropertyOp20
 70
     1
102
RTVSPropertyOp21
 70
     1
102
RTVSPropertyOp22
 70
     1
102
RTVSPropertyOp23
 70
     1
102
RTVSPropertyOp24
 70
     1
102
RTVSPropertyOp25
 70
     1
102
RTVSPropertyOp26
 70
     1
102
RTVSPropertyOp27
 70
     1
  0
XRECORD
  5
38D6
102
{ACAD_REACTORS
330
38D5
102
}
330
38D5
100
AcDbXrecord
280
     1
102
RTVSPropertyOp0
 70
     1
102
RTVSPropertyOp1
 70
     1
102
RTVSPropertyOp2
 70
     1
102
RTVSPropertyOp3
 70
     1
102
RTVSPropertyOp4
 70
     1
102
RTVSPropertyOp5
 70
     1
102
RTVSPropertyOp6
 70
     1
102
RTVSPropertyOp7
 70
     1
102
RTVSPropertyOp8
 70
     1
102
RTVSPropertyOp9
 70
     1
102
RTVSPropertyOp10
 70
     1
102
RTVSPropertyOp11
 70
     1
102
RTVSPropertyOp12
 70
     1
102
RTVSPropertyOp13
 70
     1
102
RTVSPropertyOp14
 70
     1
102
RTVSPropertyOp15
 70
     1
102
RTVSPropertyOp16
 70
     1
102
RTVSPropertyOp17
 70
     1
102
RTVSPropertyOp18
 70
     1
102
RTVSPropertyOp19
 70
     1
102
RTVSPropertyOp20
 70
     1
102
RTVSPropertyOp21
 70
     1
102
RTVSPropertyOp22
 70
     1
102
RTVSPropertyOp23
 70
     1
102
RTVSPropertyOp24
 70
     1
102
RTVSPropertyOp25
 70
     1
102
RTVSPropertyOp26
 70
     1
102
RTVSPropertyOp27
 70
     1
  0
XRECORD
  5
38D8
102
{ACAD_REACTORS
330
38D7
102
}
330
38D7
100
AcDbXrecord
280
     1
102
RTVSPropertyOp0
 70
     1
102
RTVSPropertyOp1
 70
     1
102
RTVSPropertyOp2
 70
     1
102
RTVSPropertyOp3
 70
     1
102
RTVSPropertyOp4
 70
     1
102
RTVSPropertyOp5
 70
     1
102
RTVSPropertyOp6
 70
     1
102
RTVSPropertyOp7
 70
     1
102
RTVSPropertyOp8
 70
     1
102
RTVSPropertyOp9
 70
     1
102
RTVSPropertyOp10
 70
     1
102
RTVSPropertyOp11
 70
     1
102
RTVSPropertyOp12
 70
     1
102
RTVSPropertyOp13
 70
     1
102
RTVSPropertyOp14
 70
     1
102
RTVSPropertyOp15
 70
     1
102
RTVSPropertyOp16
 70
     1
102
RTVSPropertyOp17
 70
     1
102
RTVSPropertyOp18
 70
     1
102
RTVSPropertyOp19
 70
     1
102
RTVSPropertyOp20
 70
     1
102
RTVSPropertyOp21
 70
     1
102
RTVSPropertyOp22
 70
     1
102
RTVSPropertyOp23
 70
     1
102
RTVSPropertyOp24
 70
     1
102
RTVSPropertyOp25
 70
     1
102
RTVSPropertyOp26
 70
     1
102
RTVSPropertyOp27
 70
     1
  0
XRECORD
  5
38DA
102
{ACAD_REACTORS
330
38D9
102
}
330
38D9
100
AcDbXrecord
280
     1
102
RTVSPropertyOp0
 70
     1
102
RTVSPropertyOp1
 70
     1
102
RTVSPropertyOp2
 70
     1
102
RTVSPropertyOp3
 70
     1
102
RTVSPropertyOp4
 70
     1
102
RTVSPropertyOp5
 70
     1
102
RTVSPropertyOp6
 70
     1
102
RTVSPropertyOp7
 70
     1
102
RTVSPropertyOp8
 70
     1
102
RTVSPropertyOp9
 70
     1
102
RTVSPropertyOp10
 70
     1
102
RTVSPropertyOp11
 70
     1
102
RTVSPropertyOp12
 70
     1
102
RTVSPropertyOp13
 70
     1
102
RTVSPropertyOp14
 70
     1
102
RTVSPropertyOp15
 70
     1
102
RTVSPropertyOp16
 70
     1
102
RTVSPropertyOp17
 70
     1
102
RTVSPropertyOp18
 70
     1
102
RTVSPropertyOp19
 70
     1
102
RTVSPropertyOp20
 70
     1
102
RTVSPropertyOp21
 70
     1
102
RTVSPropertyOp22
 70
     1
102
RTVSPropertyOp23
 70
     1
102
RTVSPropertyOp24
 70
     1
102
RTVSPropertyOp25
 70
     1
102
RTVSPropertyOp26
 70
     1
102
RTVSPropertyOp27
 70
     1
  0
XRECORD
  5
38F4
102
{ACAD_REACTORS
330
38F3
102
}
330
38F3
100
AcDbXrecord
280
     1
102
RTVSPropertyOp0
 70
     0
102
RTVSPropertyOp1
 70
     0
102
RTVSPropertyOp2
 70
     0
102
RTVSPropertyOp3
 70
     0
102
RTVSPropertyOp4
 70
     0
102
RTVSPropertyOp5
 70
     0
102
RTVSPropertyOp6
 70
     0
102
RTVSPropertyOp7
 70
     0
102
RTVSPropertyOp8
 70
     0
102
RTVSPropertyOp9
 70
     0
102
RTVSPropertyOp10
 70
     0
102
RTVSPropertyOp11
 70
     0
102
RTVSPropertyOp12
 70
     0
102
RTVSPropertyOp13
 70
     0
102
RTVSPropertyOp14
 70
     2
102
RTVSPropertyOp15
 70
     0
102
RTVSPropertyOp16
 70
     0
102
RTVSPropertyOp17
 70
     0
102
RTVSPropertyOp18
 70
     0
102
RTVSPropertyOp19
 70
     0
102
RTVSPropertyOp20
 70
     0
102
RTVSPropertyOp21
 70
     0
102
RTVSPropertyOp22
 70
     0
102
RTVSPropertyOp23
 70
     0
102
RTVSPropertyOp24
 70
     0
102
RTVSPropertyOp25
 70
     0
102
RTVSPropertyOp26
 70
     0
102
RTVSPropertyOp27
 70
     0
  0
XRECORD
  5
38EE
102
{ACAD_REACTORS
330
38ED
102
}
330
38ED
100
AcDbXrecord
280
     1
102
RTVSPropertyOp0
 70
     1
102
RTVSPropertyOp1
 70
     1
102
RTVSPropertyOp2
 70
     1
102
RTVSPropertyOp3
 70
     1
102
RTVSPropertyOp4
 70
     1
102
RTVSPropertyOp5
 70
     1
102
RTVSPropertyOp6
 70
     1
102
RTVSPropertyOp7
 70
     1
102
RTVSPropertyOp8
 70
     1
102
RTVSPropertyOp9
 70
     1
102
RTVSPropertyOp10
 70
     1
102
RTVSPropertyOp11
 70
     1
102
RTVSPropertyOp12
 70
     1
102
RTVSPropertyOp13
 70
     1
102
RTVSPropertyOp14
 70
     1
102
RTVSPropertyOp15
 70
     1
102
RTVSPropertyOp16
 70
     1
102
RTVSPropertyOp17
 70
     1
102
RTVSPropertyOp18
 70
     1
102
RTVSPropertyOp19
 70
     1
102
RTVSPropertyOp20
 70
     1
102
RTVSPropertyOp21
 70
     1
102
RTVSPropertyOp22
 70
     1
102
RTVSPropertyOp23
 70
     1
102
RTVSPropertyOp24
 70
     1
102
RTVSPropertyOp25
 70
     1
102
RTVSPropertyOp26
 70
     1
102
RTVSPropertyOp27
 70
     1
  0
XRECORD
  5
38F6
102
{ACAD_REACTORS
330
38F5
102
}
330
38F5
100
AcDbXrecord
280
     1
102
RTVSPropertyOp0
 70
     0
102
RTVSPropertyOp1
 70
     0
102
RTVSPropertyOp2
 70
     0
102
RTVSPropertyOp3
 70
     0
102
RTVSPropertyOp4
 70
     0
102
RTVSPropertyOp5
 70
     0
102
RTVSPropertyOp6
 70
     0
102
RTVSPropertyOp7
 70
     0
102
RTVSPropertyOp8
 70
     0
102
RTVSPropertyOp9
 70
     0
102
RTVSPropertyOp10
 70
     0
102
RTVSPropertyOp11
 70
     0
102
RTVSPropertyOp12
 70
     0
102
RTVSPropertyOp13
 70
     0
102
RTVSPropertyOp14
 70
     2
102
RTVSPropertyOp15
 70
     0
102
RTVSPropertyOp16
 70
     0
102
RTVSPropertyOp17
 70
     0
102
RTVSPropertyOp18
 70
     0
102
RTVSPropertyOp19
 70
     0
102
RTVSPropertyOp20
 70
     0
102
RTVSPropertyOp21
 70
     0
102
RTVSPropertyOp22
 70
     0
102
RTVSPropertyOp23
 70
     0
102
RTVSPropertyOp24
 70
     0
102
RTVSPropertyOp25
 70
     0
102
RTVSPropertyOp26
 70
     0
102
RTVSPropertyOp27
 70
     0
  0
XRECORD
  5
38E6
102
{ACAD_REACTORS
330
38E5
102
}
330
38E5
100
AcDbXrecord
280
     1
102
RTVSPropertyOp0
 70
     1
102
RTVSPropertyOp1
 70
     1
102
RTVSPropertyOp2
 70
     1
102
RTVSPropertyOp3
 70
     1
102
RTVSPropertyOp4
 70
     1
102
RTVSPropertyOp5
 70
     1
102
RTVSPropertyOp6
 70
     1
102
RTVSPropertyOp7
 70
     1
102
RTVSPropertyOp8
 70
     1
102
RTVSPropertyOp9
 70
     1
102
RTVSPropertyOp10
 70
     1
102
RTVSPropertyOp11
 70
     1
102
RTVSPropertyOp12
 70
     1
102
RTVSPropertyOp13
 70
     1
102
RTVSPropertyOp14
 70
     1
102
RTVSPropertyOp15
 70
     1
102
RTVSPropertyOp16
 70
     1
102
RTVSPropertyOp17
 70
     1
102
RTVSPropertyOp18
 70
     1
102
RTVSPropertyOp19
 70
     1
102
RTVSPropertyOp20
 70
     1
102
RTVSPropertyOp21
 70
     1
102
RTVSPropertyOp22
 70
     1
102
RTVSPropertyOp23
 70
     1
102
RTVSPropertyOp24
 70
     1
102
RTVSPropertyOp25
 70
     1
102
RTVSPropertyOp26
 70
     1
102
RTVSPropertyOp27
 70
     1
  0
XRECORD
  5
38EC
102
{ACAD_REACTORS
330
38EB
102
}
330
38EB
100
AcDbXrecord
280
     1
102
RTVSPropertyOp0
 70
     1
102
RTVSPropertyOp1
 70
     1
102
RTVSPropertyOp2
 70
     1
102
RTVSPropertyOp3
 70
     1
102
RTVSPropertyOp4
 70
     1
102
RTVSPropertyOp5
 70
     1
102
RTVSPropertyOp6
 70
     1
102
RTVSPropertyOp7
 70
     1
102
RTVSPropertyOp8
 70
     1
102
RTVSPropertyOp9
 70
     1
102
RTVSPropertyOp10
 70
     1
102
RTVSPropertyOp11
 70
     1
102
RTVSPropertyOp12
 70
     1
102
RTVSPropertyOp13
 70
     1
102
RTVSPropertyOp14
 70
     1
102
RTVSPropertyOp15
 70
     1
102
RTVSPropertyOp16
 70
     1
102
RTVSPropertyOp17
 70
     1
102
RTVSPropertyOp18
 70
     1
102
RTVSPropertyOp19
 70
     1
102
RTVSPropertyOp20
 70
     1
102
RTVSPropertyOp21
 70
     1
102
RTVSPropertyOp22
 70
     1
102
RTVSPropertyOp23
 70
     1
102
RTVSPropertyOp24
 70
     1
102
RTVSPropertyOp25
 70
     1
102
RTVSPropertyOp26
 70
     1
102
RTVSPropertyOp27
 70
     1
  0
PH_GROUP
  5
15E3
102
{ACAD_REACTORS
330
15E2
102
}
330
15E2
  0
DICTIONARY
  5
E1C
102
{ACAD_REACTORS
330
E1B
102
}
330
E1B
100
AcDbDictionary
280
     1
281
     1
  3
$PH$AAAABOP1
360
E1D
  3
PH_GRPMEMBERS
360
E21
  0
PH_GROUP
  5
E22
102
{ACAD_REACTORS
330
E1B
102
}
330
E1B
  0
PH_GROUP
  5
1724
102
{ACAD_REACTORS
330
1723
102
}
330
1723
  0
DICTIONARY
  5
E1D
102
{ACAD_REACTORS
330
E1C
102
}
330
E1C
100
AcDbDictionary
280
     1
281
     1
  3
$PH$AAAA
360
E1E
  3
PH_GRPMEMBERS
360
E20
  0
PH_GROUP
  5
E21
102
{ACAD_REACTORS
330
E1C
102
}
330
E1C
  0
DICTIONARY
  5
E1E
102
{ACAD_REACTORS
330
E1D
102
}
330
E1D
100
AcDbDictionary
280
     1
281
     1
  3
PH_GRPMEMBERS
360
E1F
  0
PH_GROUP
  5
E20
102
{ACAD_REACTORS
330
E1D
102
}
330
E1D
  0
PH_GROUP
  5
E1F
102
{ACAD_REACTORS
330
E1E
102
}
330
E1E
  0
ENDSEC
  0
EOF
