  0
SECTION
  2
HEADER
  9
$ACADVER
  1
AC1015
  9
$ACADMAINTVER
 70
    20
  9
$DWGCODEPAGE
  3
ANSI_1252
  9
$INSBASE
 10
0.0
 20
0.0
 30
0.0
  9
$EXTMIN
 10
1.0
 20
1.000000000000113
 30
0.0
  9
$EXTMAX
 10
419.0
 20
296.0000000000001
 30
0.0
  9
$LIMMIN
 10
0.0
 20
0.0
  9
$LIMMAX
 10
420.0
 20
297.0
  9
$ORTHOMODE
 70
     1
  9
$REGENMODE
 70
     1
  9
$FILLMODE
 70
     1
  9
$QTEXTMODE
 70
     0
  9
$MIRRTEXT
 70
     1
  9
$LTSCALE
 40
0.4
  9
$ATTMODE
 70
     1
  9
$TEXTSIZE
 40
2.5
  9
$TRACEWID
 40
1.0
  9
$TEXTSTYLE
  7
STANDARD
  9
$CLAYER
  8
0
  9
$CELTYPE
  6
CONTINUOUS
  9
$CECOLOR
 62
     1
  9
$CELTSCALE
 40
1.0
  9
$DISPSILH
 70
     0
  9
$DIMSCALE
 40
1.0
  9
$DIMASZ
 40
3.72
  9
$DIMEXO
 40
0.0
  9
$DIMDLI
 40
7.0
  9
$DIMRND
 40
0.0
  9
$DIMDLE
 40
0.0
  9
$DIMEXE
 40
1.5
  9
$DIMTP
 40
0.0
  9
$DIMTM
 40
0.0
  9
$DIMTXT
 40
2.5
  9
$DIMCEN
 40
0.0
  9
$DIMTSZ
 40
0.0
  9
$DIMTOL
 70
     0
  9
$DIMLIM
 70
     0
  9
$DIMTIH
 70
     0
  9
$DIMTOH
 70
     0
  9
$DIMSE1
 70
     0
  9
$DIMSE2
 70
     0
  9
$DIMTAD
 70
     1
  9
$DIMZIN
 70
     8
  9
$DIMBLK
  1

  9
$DIMASO
 70
     1
  9
$DIMSHO
 70
     1
  9
$DIMPOST
  1

  9
$DIMAPOST
  1
"
  9
$DIMALT
 70
     0
  9
$DIMALTD
 70
     2
  9
$DIMALTF
 40
0.0393700787401575
  9
$DIMLFAC
 40
1.0
  9
$DIMTOFL
 70
     1
  9
$DIMTVP
 40
0.0
  9
$DIMTIX
 70
     0
  9
$DIMSOXD
 70
     0
  9
$DIMSAH
 70
     1
  9
$DIMBLK1
  1
_OPEN15
  9
$DIMBLK2
  1
_OPEN15
  9
$DIMSTYLE
  2
PHOENIX
  9
$DIMCLRD
 70
     1
  9
$DIMCLRE
 70
     1
  9
$DIMCLRT
 70
     5
  9
$DIMTFAC
 40
0.6666666666666666
  9
$DIMGAP
 40
0.5
  9
$DIMJUST
 70
     0
  9
$DIMSD1
 70
     0
  9
$DIMSD2
 70
     0
  9
$DIMTOLJ
 70
     1
  9
$DIMTZIN
 70
     8
  9
$DIMALTZ
 70
     0
  9
$DIMALTTZ
 70
     0
  9
$DIMUPT
 70
     0
  9
$DIMDEC
 70
     6
  9
$DIMTDEC
 70
     6
  9
$DIMALTU
 70
     2
  9
$DIMALTTD
 70
     2
  9
$DIMTXSTY
  7
STANDARD
  9
$DIMAUNIT
 70
     0
  9
$DIMADEC
 70
     6
  9
$DIMALTRND
 40
0.0
  9
$DIMAZIN
 70
     0
  9
$DIMDSEP
 70
    46
  9
$DIMATFIT
 70
     0
  9
$DIMFRAC
 70
     0
  9
$DIMLDRBLK
  1

  9
$DIMLUNIT
 70
     2
  9
$DIMLWD
 70
    -2
  9
$DIMLWE
 70
    -2
  9
$DIMTMOVE
 70
     0
  9
$LUNITS
 70
     2
  9
$LUPREC
 70
     4
  9
$SKETCHINC
 40
1.0
  9
$FILLETRAD
 40
0.0
  9
$AUNITS
 70
     0
  9
$AUPREC
 70
     0
  9
$MENU
  1
.
  9
$ELEVATION
 40
0.0
  9
$PELEVATION
 40
0.0
  9
$THICKNESS
 40
0.0
  9
$LIMCHECK
 70
     0
  9
$CHAMFERA
 40
10.0
  9
$CHAMFERB
 40
10.0
  9
$CHAMFERC
 40
0.0
  9
$CHAMFERD
 40
0.0
  9
$SKPOLY
 70
     0
  9
$TDCREATE
 40
2450968.327315312
  9
$TDUCREATE
 40
2450968.285648646
  9
$TDUPDATE
 40
2455917.414079097
  9
$TDUUPDATE
 40
2455917.372412431
  9
$TDINDWG
 40
0.1602758912
  9
$TDUSRTIMER
 40
0.1602758912
  9
$USRTIMER
 70
     1
  9
$ANGBASE
 50
0.0
  9
$ANGDIR
 70
     0
  9
$PDMODE
 70
    35
  9
$PDSIZE
 40
-2.0
  9
$PLINEWID
 40
0.0
  9
$SPLFRAME
 70
     0
  9
$SPLINETYPE
 70
     6
  9
$SPLINESEGS
 70
     8
  9
$HANDSEED
  5
BCF0
  9
$SURFTAB1
 70
     6
  9
$SURFTAB2
 70
     6
  9
$SURFTYPE
 70
     6
  9
$SURFU
 70
     6
  9
$SURFV
 70
     6
  9
$UCSBASE
  2

  9
$UCSNAME
  2

  9
$UCSORG
 10
0.0
 20
0.0
 30
0.0
  9
$UCSXDIR
 10
1.0
 20
0.0
 30
0.0
  9
$UCSYDIR
 10
0.0
 20
1.0
 30
0.0
  9
$UCSORTHOREF
  2

  9
$UCSORTHOVIEW
 70
     0
  9
$UCSORGTOP
 10
0.0
 20
0.0
 30
0.0
  9
$UCSORGBOTTOM
 10
0.0
 20
0.0
 30
0.0
  9
$UCSORGLEFT
 10
0.0
 20
0.0
 30
0.0
  9
$UCSORGRIGHT
 10
0.0
 20
0.0
 30
0.0
  9
$UCSORGFRONT
 10
0.0
 20
0.0
 30
0.0
  9
$UCSORGBACK
 10
0.0
 20
0.0
 30
0.0
  9
$PUCSBASE
  2

  9
$PUCSNAME
  2

  9
$PUCSORG
 10
0.0
 20
0.0
 30
0.0
  9
$PUCSXDIR
 10
1.0
 20
0.0
 30
0.0
  9
$PUCSYDIR
 10
0.0
 20
1.0
 30
0.0
  9
$PUCSORTHOREF
  2

  9
$PUCSORTHOVIEW
 70
     0
  9
$PUCSORGTOP
 10
0.0
 20
0.0
 30
0.0
  9
$PUCSORGBOTTOM
 10
0.0
 20
0.0
 30
0.0
  9
$PUCSORGLEFT
 10
0.0
 20
0.0
 30
0.0
  9
$PUCSORGRIGHT
 10
0.0
 20
0.0
 30
0.0
  9
$PUCSORGFRONT
 10
0.0
 20
0.0
 30
0.0
  9
$PUCSORGBACK
 10
0.0
 20
0.0
 30
0.0
  9
$USERI1
 70
     0
  9
$USERI2
 70
     0
  9
$USERI3
 70
     0
  9
$USERI4
 70
     0
  9
$USERI5
 70
     0
  9
$USERR1
 40
0.0
  9
$USERR2
 40
0.0
  9
$USERR3
 40
0.0
  9
$USERR4
 40
0.0
  9
$USERR5
 40
0.0
  9
$WORLDVIEW
 70
     1
  9
$SHADEDGE
 70
     3
  9
$SHADEDIF
 70
    70
  9
$TILEMODE
 70
     1
  9
$MAXACTVP
 70
    16
  9
$PINSBASE
 10
0.0
 20
0.0
 30
0.0
  9
$PLIMCHECK
 70
     0
  9
$PEXTMIN
 10
1.000000000000000E+20
 20
1.000000000000000E+20
 30
1.000000000000000E+20
  9
$PEXTMAX
 10
-1.000000000000000E+20
 20
-1.000000000000000E+20
 30
-1.000000000000000E+20
  9
$PLIMMIN
 10
0.0
 20
0.0
  9
$PLIMMAX
 10
420.0
 20
297.0
  9
$UNITMODE
 70
     0
  9
$VISRETAIN
 70
     0
  9
$PLINEGEN
 70
     0
  9
$PSLTSCALE
 70
     1
  9
$TREEDEPTH
 70
  3020
  9
$CMLSTYLE
  2
STANDARD
  9
$CMLJUST
 70
     0
  9
$CMLSCALE
 40
1.0
  9
$PROXYGRAPHICS
 70
     1
  9
$MEASUREMENT
 70
     0
  9
$CELWEIGHT
370
    25
  9
$ENDCAPS
280
     0
  9
$JOINSTYLE
280
     0
  9
$LWDISPLAY
290
     0
  9
$INSUNITS
 70
     0
  9
$HYPERLINKBASE
  1

  9
$STYLESHEET
  1

  9
$XEDIT
290
     1
  9
$CEPSNTYPE
380
     0
  9
$PSTYLEMODE
290
     1
  9
$FINGERPRINTGUID
  2
{9B2C60B1-54DF-4FBC-9475-98D4720D921A}
  9
$VERSIONGUID
  2
{8BDD3260-9A40-4D36-9281-6A6010D96F04}
  9
$EXTNAMES
290
     1
  9
$PSVPSCALE
 40
0.0
  9
$OLESTARTUP
290
     0
  0
ENDSEC
  0
SECTION
  2
CLASSES
  0
CLASS
  1
PH_VARS
  2
PhoenixVars
  3
PHOENIX7010
 90
        0
280
     0
281
     0
  0
CLASS
  1
ACMESCOPE
  2
AcMeScope
  3
ACME_MODULE_NAME
 90
        0
280
     0
281
     0
  0
CLASS
  1
ACMECOMMANDHISTORY
  2
AcMeCommandHistory
  3
ACME_MODULE_NAME
 90
        0
280
     0
281
     0
  0
CLASS
  1
AcRfInsAdjusterMgr
  2
AcRfInsAdjusterMgr
  3
ACME_MODULE_NAME
 90
    32768
280
     0
281
     0
  0
CLASS
  1
ACGREFMASTER
  2
AcGrefMaster
  3
"AcadRfServer"
 90
        0
280
     0
281
     0
  0
CLASS
  1
AmiMaster
  2
AmiMaster
  3
"AmiServices"
 90
        0
280
     0
281
     0
  0
CLASS
  1
ACASGREFMASTER
  2
AcAsGrefMaster
  3
"AutoSurfResolver"
 90
        0
280
     0
281
     0
  0
CLASS
  1
ADAPPL
  2
AcAdAppl
  3
DesignerServices
 90
        0
280
     0
281
     0
  0
CLASS
  1
DEPMGR
  2
AcAdDepMgr
  3
DesignerServices
 90
        0
280
     0
281
     0
  0
CLASS
  1
PARAMMGR
  2
AcAdParamMgr
  3
DesignerServices
 90
        0
280
     0
281
     0
  0
CLASS
  1
PARAMSCOPE
  2
AcAdParamScope
  3
DesignerServices
 90
        0
280
     0
281
     0
  0
CLASS
  1
"IM_SYSVAR_MAN"
  2
AcImSysVarManager
  3
"ADAM"
 90
        0
280
     0
281
     0
  0
CLASS
  1
SYSTEM_VAR_INT
  2
AcImIntSysVar
  3
"ADAM"
 90
        0
280
     0
281
     0
  0
CLASS
  1
SYSTEM_VAR_REAL
  2
AcImRealSysVar
  3
"ADAM"
 90
        0
280
     0
281
     0
  0
CLASS
  1
SYSTEM_VAR_STR
  2
AcImStrSysVar
  3
"ADAM"
 90
        0
280
     0
281
     0
  0
CLASS
  1
NAMEDAPPL
  2
AcAdNamedAppl
  3
DesignerServices
 90
        0
280
     0
281
     0
  0
CLASS
  1
ADPART
  2
AcAdPart
  3
DesignerServices
 90
    32768
280
     0
281
     1
  0
CLASS
  1
ADBASE
  2
AcAdBase
  3
DesignerServices
 90
        0
280
     0
281
     0
  0
CLASS
  1
BODYID
  2
AcAdBodyId
  3
DesignerServices
 90
        0
280
     0
281
     0
  0
CLASS
  1
WORKPLANEDISPLAYMGR
  2
AcAdDisplayMgr
  3
DesignerServices
 90
        0
280
     0
281
     0
  0
CLASS
  1
ADHNTMPLT
  2
AdHoleNoteTemplateMgr
  3
DesignerServices
 90
        0
280
     0
281
     0
  0
CLASS
  1
AM_HNTEMPLATE_MGR_NAME
  2
AdHoleNoteTemplateMgrName
  3
DesignerServices
 90
        0
280
     0
281
     0
  0
CLASS
  1
AcAdGrefModule
  2
AcAdGrefModule
  3
AD_GREF_SERVICES_NSTR
 90
        0
280
     0
281
     0
  0
CLASS
  1
AM_DRAWING_MGR
  2
AcDmDwgMgr
  3
AcMechDwgViewMgmt
 90
        0
280
     0
281
     0
  0
CLASS
  1
AM_DWG_DOCUMENT
  2
AcDmDwgDocument
  3
AcMechDwgViewMgmt
 90
        0
280
     0
281
     0
  0
CLASS
  1
AM_DWG_SHEET
  2
AcDmSheet
  3
AcMechDwgViewMgmt
 90
        0
280
     0
281
     0
  0
CLASS
  1
AM_VIEWDIMPARMAP
  2
AcDmViewDimParMap
  3
AcMechDwgViewMgmt
 90
        0
280
     0
281
     0
  0
CLASS
  1
AM_DWGMGR_NAME
  2
AcDmDwgMgrName
  3
AcMechDwgViewMgmt
 90
        0
280
     0
281
     0
  0
CLASS
  1
ACAMPROJECT
  2
AcAmProject
  3
DesignerAssemblies
 90
        0
280
     0
281
     0
  0
CLASS
  1
ACAMGRCOMPSET
  2
AcAmGrCompSet
  3
DesignerAssemblies
 90
    32768
280
     0
281
     0
  0
CLASS
  1
ACAMGRCOMPDEFSET
  2
AcAmGrCompDefSet
  3
DesignerAssemblies
 90
    32768
280
     0
281
     0
  0
CLASS
  1
ACAMGRCOMPDEF
  2
AcAmGrCompDef
  3
DesignerAssemblies
 90
        0
280
     0
281
     0
  0
CLASS
  1
ACAMCOMPDEF
  2
AcAmCompDef
  3
DesignerAssemblies
 90
        0
280
     0
281
     0
  0
CLASS
  1
ACAMCOMPDEFMGR
  2
AcAmCompDefMgr
  3
DesignerAssemblies
 90
        0
280
     0
281
     0
  0
CLASS
  1
AMCONTEXTMGR
  2
AcAmContextMgr
  3
DesignerAssemblies
 90
        0
280
     0
281
     0
  0
CLASS
  1
ACAMCONTEXTMODELER
  2
AcAmContextModeler
  3
DesignerAssemblies
 90
        0
280
     0
281
     0
  0
CLASS
  1
ACAMDRAWINGMAN
  2
AcAmDrawingMan
  3
DesignerAssemblies
 90
        0
280
     0
281
     0
  0
CLASS
  1
ACDMVIEWGEOM
  2
AcDmViewGeometry
  3
AcMechDwgViewMgmt
 90
    32768
280
     0
281
     1
  0
CLASS
  1
ASSYSVARS
  2
AcAsSysVars
  3
"AutoSurf"
 90
        0
280
     0
281
     0
  0
CLASS
  1
ASSTATICVARS
  2
AcAsStaticVars
  3
"AutoSurf"
 90
    32768
280
     0
281
     0
  0
CLASS
  1
ASAPP
  2
AcAsAppObject
  3
"AutoSurf"
 90
        0
280
     0
281
     0
  0
CLASS
  1
AGDICTIONARY
  2
AgDictionary
  3
"AccelView"
 90
        0
280
     0
281
     0
  0
CLASS
  1
PH_ENTDIMREACTOR
  2
EntDimReactor
  3
PHOENIX7010
 90
        0
280
     0
281
     0
  0
CLASS
  1
PH_DIMENTREACTOR
  2
DimEntReactor
  3
PHOENIX7010
 90
        0
280
     0
281
     0
  0
CLASS
  1
PH_GROUP
  2
PhGroup
  3
PHOENIX7010
 90
        0
280
     0
281
     0
  0
CLASS
  1
ACDBDICTIONARYWDFLT
  2
AcDbDictionaryWithDefault
  3
ObjectDBX Classes
 90
        0
280
     0
281
     0
  0
CLASS
  1
TABLESTYLE
  2
AcDbTableStyle
  3
ObjectDBX Classes
 90
     4095
280
     0
281
     0
  0
CLASS
  1
SORTENTSTABLE
  2
AcDbSortentsTable
  3
ObjectDBX Classes
 90
        0
280
     0
281
     0
  0
CLASS
  1
DICTIONARYVAR
  2
AcDbDictionaryVar
  3
ObjectDBX Classes
 90
        0
280
     0
281
     0
  0
CLASS
  1
PLOTSETTINGS
  2
AcDbPlotSettings
  3
ObjectDBX Classes
 90
        0
280
     0
281
     0
  0
CLASS
  1
MATERIAL
  2
AcDbMaterial
  3
ObjectDBX Classes
 90
     1153
280
     0
281
     0
  0
CLASS
  1
VISUALSTYLE
  2
AcDbVisualStyle
  3
ObjectDBX Classes
 90
     4095
280
     0
281
     0
  0
CLASS
  1
SCALE
  2
AcDbScale
  3
ObjectDBX Classes
 90
     1153
280
     0
281
     0
  0
CLASS
  1
MLEADERSTYLE
  2
AcDbMLeaderStyle
  3
ACDB_MLEADERSTYLE_CLASS
 90
     4095
280
     0
281
     0
  0
CLASS
  1
CELLSTYLEMAP
  2
AcDbCellStyleMap
  3
ObjectDBX Classes
 90
     1152
280
     0
281
     0
  0
CLASS
  1
ACDBPLACEHOLDER
  2
AcDbPlaceHolder
  3
ObjectDBX Classes
 90
        0
280
     0
281
     0
  0
CLASS
  1
LAYOUT
  2
AcDbLayout
  3
ObjectDBX Classes
 90
        0
280
     0
281
     0
  0
ENDSEC
  0
SECTION
  2
TABLES
  0
TABLE
  2
VPORT
  5
8
330
0
100
AcDbSymbolTable
 70
     1
  0
VPORT
  5
B94B
330
8
100
AcDbSymbolTableRecord
100
AcDbViewportTableRecord
  2
*Active
 70
     0
 10
0.0
 20
0.0
 11
1.0
 21
1.0
 12
210.5333235179484
 22
148.4769323098903
 13
0.0
 23
0.0
 14
10.0
 24
10.0
 15
10.0
 25
10.0
 16
0.0
 26
0.0
 36
1.0
 17
0.0
 27
0.0
 37
0.0
 40
297.2676996032579
 41
2.178447276940903
 42
50.0
 43
0.0
 44
0.0
 50
0.0
 51
0.0
 71
     0
 72
   800
 73
     1
 74
     3
 75
     0
 76
     0
 77
     0
 78
     0
281
     0
 65
     1
110
0.0
120
0.0
130
0.0
111
1.0
121
0.0
131
0.0
112
0.0
122
1.0
132
0.0
 79
     0
146
0.0
  0
ENDTAB
  0
TABLE
  2
LTYPE
  5
5
330
0
100
AcDbSymbolTable
 70
     3
  0
LTYPE
  5
14
330
5
100
AcDbSymbolTableRecord
100
AcDbLinetypeTableRecord
  2
BYBLOCK
 70
     0
  3

 72
    65
 73
     0
 40
0.0
  0
LTYPE
  5
15
330
5
100
AcDbSymbolTableRecord
100
AcDbLinetypeTableRecord
  2
BYLAYER
 70
     0
  3

 72
    65
 73
     0
 40
0.0
  0
LTYPE
  5
16
330
5
100
AcDbSymbolTableRecord
100
AcDbLinetypeTableRecord
  2
CONTINUOUS
 70
     0
  3
Solid line
 72
    65
 73
     0
 40
0.0
  0
LTYPE
  5
684
330
5
100
AcDbSymbolTableRecord
100
AcDbLinetypeTableRecord
  2
ACAD_ISO02W100
 70
     0
  3
__ __ __ __ __ __ __ __ __ __ __ __ __ __ __ __
 72
    65
 73
     2
 40
15.0
 49
12.0
 74
     0
 49
-3.0
 74
     0
  0
LTYPE
  5
685
330
5
100
AcDbSymbolTableRecord
100
AcDbLinetypeTableRecord
  2
ACAD_ISO04W100
 70
     0
  3
____ . ____ . ____ . ____ . ____ . ____ . ____ 
 72
    65
 73
     4
 40
30.5
 49
24.0
 74
     0
 49
-3.0
 74
     0
 49
0.5
 74
     0
 49
-3.0
 74
     0
  0
ENDTAB
  0
TABLE
  2
LAYER
  5
2
102
{ACAD_XDICTIONARY
360
B928
102
}
330
0
100
AcDbSymbolTable
 70
     7
  0
LAYER
  5
F
102
{ACAD_XDICTIONARY
360
BC68
102
}
330
2
100
AcDbSymbolTableRecord
100
AcDbLayerTableRecord
  2
0
 70
     0
 62
     7
  6
CONTINUOUS
370
    -3
390
AF63
  0
LAYER
  5
44
102
{ACAD_XDICTIONARY
360
BC6A
102
}
330
2
100
AcDbSymbolTableRecord
100
AcDbLayerTableRecord
  2
4
 70
     0
 62
     7
  6
CONTINUOUS
370
    -3
390
AF63
  0
LAYER
  5
48
102
{ACAD_XDICTIONARY
360
BC6C
102
}
330
2
100
AcDbSymbolTableRecord
100
AcDbLayerTableRecord
  2
2
 70
     0
 62
     7
  6
CONTINUOUS
370
    -3
390
AF63
  0
LAYER
  5
EB
330
2
100
AcDbSymbolTableRecord
100
AcDbLayerTableRecord
  2
DEFPOINTS
 70
     0
 62
    -7
  6
CONTINUOUS
290
     0
370
    -3
390
AF63
  0
LAYER
  5
68B
102
{ACAD_XDICTIONARY
360
BC6E
102
}
330
2
100
AcDbSymbolTableRecord
100
AcDbLayerTableRecord
  2
1
 70
     0
 62
     7
  6
CONTINUOUS
370
    -3
390
AF63
  0
LAYER
  5
B926
102
{ACAD_XDICTIONARY
360
BC70
102
}
330
2
100
AcDbSymbolTableRecord
100
AcDbLayerTableRecord
  2
Bearbeitung
 70
     0
 62
     7
  6
CONTINUOUS
370
    -3
390
AF63
1001
AcAecLayerStandard
1000

1000

  0
LAYER
  5
B974
102
{ACAD_XDICTIONARY
360
BC72
102
}
330
2
100
AcDbSymbolTableRecord
100
AcDbLayerTableRecord
  2
PH_HILFSELEMENTE
 70
     0
 62
    -7
  6
CONTINUOUS
370
    -3
390
AF63
  0
ENDTAB
  0
TABLE
  2
STYLE
  5
3
330
0
100
AcDbSymbolTable
 70
     1
  0
STYLE
  5
10
330
3
100
AcDbSymbolTableRecord
100
AcDbTextStyleTableRecord
  2
STANDARD
 70
     0
 40
0.0
 41
1.199999999999999
 50
0.0
 71
     0
 42
2.5
  3
ISOCP.shx
  4

  0
ENDTAB
  0
TABLE
  2
VIEW
  5
6
330
0
100
AcDbSymbolTable
 70
     0
  0
ENDTAB
  0
TABLE
  2
UCS
  5
7
330
0
100
AcDbSymbolTable
 70
     0
  0
ENDTAB
  0
TABLE
  2
APPID
  5
9
330
0
100
AcDbSymbolTable
 70
    10
  0
APPID
  5
11
330
9
100
AcDbSymbolTableRecord
100
AcDbRegAppTableRecord
  2
ACAD
 70
     0
  0
APPID
  5
32
330
9
100
AcDbSymbolTableRecord
100
AcDbRegAppTableRecord
  2
PHOENIX7010
 70
     0
  0
APPID
  5
B5
330
9
100
AcDbSymbolTableRecord
100
AcDbRegAppTableRecord
  2
AD_DRAW
 70
     0
  0
APPID
  5
CF
330
9
100
AcDbSymbolTableRecord
100
AcDbRegAppTableRecord
  2
DESIGNERASSEMBLIES
 70
     0
  0
APPID
  5
D1
330
9
100
AcDbSymbolTableRecord
100
AcDbRegAppTableRecord
  2
MCAD_NO_VIS
 70
     0
  0
APPID
  5
D7
330
9
100
AcDbSymbolTableRecord
100
AcDbRegAppTableRecord
  2
ASURF_PCURVE_APPNAME
 70
     0
  0
APPID
  5
B927
330
9
100
AcDbSymbolTableRecord
100
AcDbRegAppTableRecord
  2
AcAecLayerStandard
 70
     0
  0
APPID
  5
B931
330
9
100
AcDbSymbolTableRecord
100
AcDbRegAppTableRecord
  2
ACAD_PSEXT
 70
     0
  0
APPID
  5
BC66
330
9
100
AcDbSymbolTableRecord
100
AcDbRegAppTableRecord
  2
ACAD_EXEMPT_FROM_CAD_STANDARDS
 70
     0
  0
APPID
  5
BCA8
330
9
100
AcDbSymbolTableRecord
100
AcDbRegAppTableRecord
  2
ACAD_MLEADERVER
 70
     0
  0
ENDTAB
  0
TABLE
  2
DIMSTYLE
  5
A
330
0
100
AcDbSymbolTable
 70
     4
100
AcDbDimStyleTable
 71
     1
340
33
  0
DIMSTYLE
105
1D
330
A
100
AcDbSymbolTableRecord
100
AcDbDimStyleTableRecord
  2
STANDARD
 70
     0
340
10
  0
DIMSTYLE
105
33
102
{ACAD_REACTORS
330
5166
330
6E57
330
8277
330
924A
102
}
330
A
100
AcDbSymbolTableRecord
100
AcDbDimStyleTableRecord
  2
PHOENIX
 70
     0
  4
"
 41
3.72
 42
0.0
 43
7.0
 44
1.5
 73
     0
 74
     0
 77
     1
 78
     8
140
3.5
141
0.0
143
0.0393700787401575
146
0.6666666666666666
147
2.0
172
     1
173
     1
176
     1
177
     1
178
     5
271
     2
272
     2
284
     8
288
     1
289
     0
340
10
341
35
343
35
344
35
  0
DIMSTYLE
105
B930
330
A
100
AcDbSymbolTableRecord
100
AcDbDimStyleTableRecord
  2
phoenix$4
 70
     0
  4
"
 41
3.5
 42
0.0
 43
7.0
 44
1.5
 73
     0
 74
     0
 77
     1
 78
     8
 79
     2
140
3.5
141
0.0
143
0.0393700787401575
146
0.6666666666666666
147
2.0
176
     1
177
     1
178
     5
179
     2
271
     2
272
     2
278
    44
284
     8
288
     1
289
     0
340
10
371
    25
372
    25
  0
DIMSTYLE
105
B964
330
A
100
AcDbSymbolTableRecord
100
AcDbDimStyleTableRecord
  2
ISO-25
 70
     0
 41
2.5
 42
0.625
 43
3.75
 44
1.25
 73
     0
 74
     0
 77
     1
 78
     8
140
2.5
141
2.5
143
0.03937007874016
147
0.625
171
     3
172
     1
271
     2
272
     2
274
     3
278
    44
283
     0
284
     8
340
10
  0
ENDTAB
  0
TABLE
  2
BLOCK_RECORD
  5
1
330
0
100
AcDbSymbolTable
 70
    14
  0
BLOCK_RECORD
  5
1A
102
{ACAD_XDICTIONARY
360
B5F4
102
}
330
1
100
AcDbSymbolTableRecord
100
AcDbBlockTableRecord
  2
*MODEL_SPACE
340
AF6A
  0
BLOCK_RECORD
  5
17
330
1
100
AcDbSymbolTableRecord
100
AcDbBlockTableRecord
  2
*PAPER_SPACE
340
AF6B
  0
BLOCK_RECORD
  5
35
330
1
100
AcDbSymbolTableRecord
100
AcDbBlockTableRecord
  2
_OPEN15
340
0
102
{BLKREFS
331
BB0A
331
BB0B
331
BB52
331
BB53
331
BBC7
331
BBC8
331
BBD0
331
BBD1
102
}
  0
BLOCK_RECORD
  5
C3
330
1
100
AcDbSymbolTableRecord
100
AcDbBlockTableRecord
  2
*U1
340
0
  0
BLOCK_RECORD
  5
1A76
330
1
100
AcDbSymbolTableRecord
100
AcDbBlockTableRecord
  2
PH_GRPBLK
340
0
102
{BLKREFS
331
1C5B
331
2450
331
2454
331
2458
331
245D
331
2462
331
2467
331
BBF6
331
BC58
331
BC60
331
BC03
102
}
  0
BLOCK_RECORD
  5
5167
330
1
100
AcDbSymbolTableRecord
100
AcDbBlockTableRecord
  2
*D3
340
0
  0
BLOCK_RECORD
  5
6E58
330
1
100
AcDbSymbolTableRecord
100
AcDbBlockTableRecord
  2
*D4
340
0
  0
BLOCK_RECORD
  5
8278
330
1
100
AcDbSymbolTableRecord
100
AcDbBlockTableRecord
  2
*D5
340
0
  0
BLOCK_RECORD
  5
924B
330
1
100
AcDbSymbolTableRecord
100
AcDbBlockTableRecord
  2
*D6
340
0
  0
ENDTAB
  0
ENDSEC
  0
SECTION
  2
BLOCKS
  0
BLOCK
  5
1B
330
1A
100
AcDbEntity
  8
0
100
AcDbBlockBegin
  2
*MODEL_SPACE
 70
     0
 10
0.0
 20
0.0
 30
0.0
  3
*MODEL_SPACE
  1

  0
ENDBLK
  5
1C
330
1A
100
AcDbEntity
  8
0
100
AcDbBlockEnd
  0
BLOCK
  5
18
330
17
100
AcDbEntity
 67
     1
  8
0
100
AcDbBlockBegin
  2
*PAPER_SPACE
 70
     0
 10
0.0
 20
0.0
 30
0.0
  3
*PAPER_SPACE
  1

  0
ENDBLK
  5
19
330
17
100
AcDbEntity
 67
     1
  8
0
100
AcDbBlockEnd
  0
BLOCK
  5
39
330
35
100
AcDbEntity
  8
0
 62
     7
100
AcDbBlockBegin
  2
_OPEN15
 70
     0
 10
1.0
 20
0.0
 30
0.0
  3
_OPEN15
  1

  0
LINE
  5
36
330
35
100
AcDbEntity
  8
0
  6
ByBlock
 62
     0
100
AcDbLine
 10
0.0
 20
0.0
 30
0.0
 11
1.0
 21
0.0
 31
0.0
  0
LINE
  5
37
330
35
100
AcDbEntity
  8
0
  6
ByBlock
 62
     0
100
AcDbLine
 10
1.0
 20
0.0
 30
0.0
 11
0.0
 21
0.1316524975873958
 31
0.0
  0
LINE
  5
38
330
35
100
AcDbEntity
  8
0
  6
ByBlock
 62
     0
100
AcDbLine
 10
1.0
 20
0.0
 30
0.0
 11
0.0
 21
-0.1316524975873958
 31
0.0
  0
ENDBLK
  5
3A
330
35
100
AcDbEntity
  8
0
 62
     7
100
AcDbBlockEnd
  0
BLOCK
  5
C4
330
C3
100
AcDbEntity
  8
0
 62
     7
100
AcDbBlockBegin
  2
*U1
 70
     1
 10
0.0
 20
0.0
 30
0.0
  3
*U1
  1

  0
ENDBLK
  5
C5
330
C3
100
AcDbEntity
  8
0
 62
     7
100
AcDbBlockEnd
  0
BLOCK
  5
1A78
330
1A76
100
AcDbEntity
  8
0
 62
     7
100
AcDbBlockBegin
  2
PH_GRPBLK
 70
     0
 10
0.0
 20
0.0
 30
0.0
  3
PH_GRPBLK
  1

  0
POINT
  5
1A77
330
1A76
100
AcDbEntity
  8
DEFPOINTS
  6
Continuous
 62
     0
100
AcDbPoint
 10
0.0
 20
0.0
 30
0.0
  0
ENDBLK
  5
1A79
330
1A76
100
AcDbEntity
  8
0
 62
     7
100
AcDbBlockEnd
  0
BLOCK
  5
9BC0
330
5167
100
AcDbEntity
  8
0
100
AcDbBlockBegin
  2
*D3
 70
     1
 10
0.0
 20
0.0
 30
0.0
  3
*D3
  1

  0
LINE
  5
BBC4
330
5167
100
AcDbEntity
  8
2
  6
Continuous
 62
     1
370
    -2
100
AcDbLine
 10
248.9453054207392
 20
173.4895832263762
 30
0.0
 11
248.9453054207392
 21
194.9895832263763
 31
0.0
  0
LINE
  5
BBC5
330
5167
100
AcDbEntity
  8
2
  6
Continuous
 62
     1
370
    -2
100
AcDbLine
 10
298.9453054207393
 20
173.4895832263762
 30
0.0
 11
298.9453054207393
 21
194.9895832263763
 31
0.0
  0
LINE
  5
BBC6
330
5167
100
AcDbEntity
  8
2
  6
Continuous
 62
     1
370
    -2
100
AcDbLine
 10
252.6653054207393
 20
193.4895832263763
 30
0.0
 11
295.2253054207393
 21
193.4895832263763
 31
0.0
  0
INSERT
  5
BBC7
330
5167
100
AcDbEntity
  8
2
  6
Continuous
 62
     1
370
    -2
100
AcDbBlockReference
  2
_OPEN15
 10
248.9453054207392
 20
193.4895832263763
 30
0.0
 41
3.72
 42
3.72
 43
3.72
 50
180.0
  0
INSERT
  5
BBC8
330
5167
100
AcDbEntity
  8
2
  6
Continuous
 62
     1
370
    -2
100
AcDbBlockReference
  2
_OPEN15
 10
298.9453054207393
 20
193.4895832263763
 30
0.0
 41
3.72
 42
3.72
 43
3.72
  0
MTEXT
  5
BBC9
330
5167
100
AcDbEntity
  8
2
  6
Continuous
 62
     5
100
AcDbMText
 10
273.9453054207392
 20
196.9895832263763
 30
0.0
 40
5.0
 41
0.0
 71
     5
 72
     1
  1
\A1;50
 73
     1
 44
1.0
1001
ACAD
1000
MTEXTBEGIN
1070
    73
1070
     1
1070
    44
1040
1.0
1070
    74
1070
     0
1000
MTEXTEND
  0
POINT
  5
BBCA
330
5167
100
AcDbEntity
  8
DEFPOINTS
  6
Continuous
 62
     0
370
    25
100
AcDbPoint
 10
248.9453054207392
 20
173.4895832263762
 30
0.0
  0
POINT
  5
BBCB
330
5167
100
AcDbEntity
  8
DEFPOINTS
  6
Continuous
 62
     0
370
    25
100
AcDbPoint
 10
298.9453054207393
 20
173.4895832263762
 30
0.0
  0
POINT
  5
BBCC
330
5167
100
AcDbEntity
  8
DEFPOINTS
  6
Continuous
 62
     0
370
    25
100
AcDbPoint
 10
298.9453054207393
 20
193.4895832263763
 30
0.0
  0
ENDBLK
  5
9BCA
330
5167
100
AcDbEntity
  8
0
100
AcDbBlockEnd
  0
BLOCK
  5
9B94
330
6E58
100
AcDbEntity
  8
0
100
AcDbBlockBegin
  2
*D4
 70
     1
 10
0.0
 20
0.0
 30
0.0
  3
*D4
  1

  0
LINE
  5
BBCD
330
6E58
100
AcDbEntity
  8
2
  6
Continuous
 62
     1
370
    -2
100
AcDbLine
 10
292.9453054207392
 20
179.4895832263762
 30
0.0
 11
314.4453054207387
 21
179.4895832263762
 31
0.0
  0
LINE
  5
BBCE
330
6E58
100
AcDbEntity
  8
2
  6
Continuous
 62
     1
370
    -2
100
AcDbLine
 10
292.9453054207392
 20
127.4895832263762
 30
0.0
 11
314.4453054207387
 21
127.4895832263762
 31
0.0
  0
LINE
  5
BBCF
330
6E58
100
AcDbEntity
  8
2
  6
Continuous
 62
     1
370
    -2
100
AcDbLine
 10
312.9453054207388
 20
175.7695832263762
 30
0.0
 11
312.9453054207388
 21
131.2095832263763
 31
0.0
  0
INSERT
  5
BBD0
330
6E58
100
AcDbEntity
  8
2
  6
Continuous
 62
     1
370
    -2
100
AcDbBlockReference
  2
_OPEN15
 10
312.9453054207388
 20
179.4895832263762
 30
0.0
 41
3.72
 42
3.72
 43
3.72
 50
90.0
  0
INSERT
  5
BBD1
330
6E58
100
AcDbEntity
  8
2
  6
Continuous
 62
     1
370
    -2
100
AcDbBlockReference
  2
_OPEN15
 10
312.9453054207387
 20
127.4895832263762
 30
0.0
 41
3.72
 42
3.72
 43
3.72
 50
270.0
  0
MTEXT
  5
BBD2
330
6E58
100
AcDbEntity
  8
2
  6
Continuous
 62
     5
100
AcDbMText
 10
309.4448132947544
 20
153.4895832263763
 30
0.0
 40
5.0
 41
0.0
 71
     5
 72
     1
  1
\A1;52
 11
0.0000000000000001
 21
1.0
 31
0.0
 73
     1
 44
1.0
1001
ACAD
1000
MTEXTBEGIN
1070
    73
1070
     1
1070
    44
1040
1.0
1070
    74
1070
     0
1000
MTEXTEND
  0
POINT
  5
BBD3
330
6E58
100
AcDbEntity
  8
DEFPOINTS
  6
Continuous
 62
     0
370
    25
100
AcDbPoint
 10
292.9453054207392
 20
179.4895832263762
 30
0.0
  0
POINT
  5
BBD4
330
6E58
100
AcDbEntity
  8
DEFPOINTS
  6
Continuous
 62
     0
370
    25
100
AcDbPoint
 10
292.9453054207392
 20
127.4895832263762
 30
0.0
  0
POINT
  5
BBD5
330
6E58
100
AcDbEntity
  8
DEFPOINTS
  6
Continuous
 62
     0
370
    25
100
AcDbPoint
 10
312.9453054207387
 20
127.4895832263762
 30
0.0
  0
ENDBLK
  5
9B9E
330
6E58
100
AcDbEntity
  8
0
100
AcDbBlockEnd
  0
BLOCK
  5
A2AD
330
8278
100
AcDbEntity
  8
0
100
AcDbBlockBegin
  2
*D5
 70
     1
 10
0.0
 20
0.0
 30
0.0
  3
*D5
  1

  0
LINE
  5
BB4F
330
8278
100
AcDbEntity
  8
2
  6
Continuous
 62
     1
370
    -2
100
AcDbLine
 10
164.6416498573018
 20
64.82203332280883
 30
0.0
 11
180.1416498573018
 21
64.82203332280883
 31
0.0
  0
LINE
  5
BB50
330
8278
100
AcDbEntity
  8
2
  6
Continuous
 62
     1
370
    -2
100
AcDbLine
 10
163.0303787620808
 20
54.82203332280883
 30
0.0
 11
180.1416498573018
 21
54.82203332280882
 31
0.0
  0
LINE
  5
BB51
330
8278
100
AcDbEntity
  8
2
  6
Continuous
 62
     1
370
    -2
100
AcDbLine
 10
178.6416498573018
 20
61.10203332280883
 30
0.0
 11
178.6416498573018
 21
58.54203332280882
 31
0.0
  0
INSERT
  5
BB52
330
8278
100
AcDbEntity
  8
2
  6
Continuous
 62
     1
370
    -2
100
AcDbBlockReference
  2
_OPEN15
 10
178.6416498573018
 20
64.82203332280883
 30
0.0
 41
3.72
 42
3.72
 43
3.72
 50
90.0
  0
INSERT
  5
BB53
330
8278
100
AcDbEntity
  8
2
  6
Continuous
 62
     1
370
    -2
100
AcDbBlockReference
  2
_OPEN15
 10
178.6416498573018
 20
54.82203332280882
 30
0.0
 41
3.72
 42
3.72
 43
3.72
 50
270.0
  0
MTEXT
  5
BB54
330
8278
100
AcDbEntity
  8
2
  6
Continuous
 62
     5
100
AcDbMText
 10
175.1416498573018
 20
59.82203332280886
 30
0.0
 40
5.0
 41
0.0
 71
     5
 72
     1
  1
\A1;10
 11
0.0000000000000001
 21
1.0
 31
0.0
 73
     1
 44
1.0
1001
ACAD
1000
MTEXTBEGIN
1070
    73
1070
     1
1070
    44
1040
1.0
1070
    74
1070
     0
1000
MTEXTEND
  0
POINT
  5
BB55
330
8278
100
AcDbEntity
  8
DEFPOINTS
  6
Continuous
 62
     0
370
    25
100
AcDbPoint
 10
164.6416498573018
 20
64.82203332280883
 30
0.0
  0
POINT
  5
BB56
330
8278
100
AcDbEntity
  8
DEFPOINTS
  6
Continuous
 62
     0
370
    25
100
AcDbPoint
 10
163.0303787620808
 20
54.82203332280883
 30
0.0
  0
POINT
  5
BB57
330
8278
100
AcDbEntity
  8
DEFPOINTS
  6
Continuous
 62
     0
370
    25
100
AcDbPoint
 10
178.6416498573018
 20
54.82203332280882
 30
0.0
  0
ENDBLK
  5
A2B7
330
8278
100
AcDbEntity
  8
0
100
AcDbBlockEnd
  0
BLOCK
  5
A7CA
330
924B
100
AcDbEntity
  8
0
100
AcDbBlockBegin
  2
*D6
 70
     1
 10
0.0
 20
0.0
 30
0.0
  3
*D6
  1

  0
LINE
  5
BB07
330
924B
100
AcDbEntity
  8
2
  6
Continuous
 62
     1
370
    -2
100
AcDbLine
 10
163.3143819301811
 20
91.82203332280883
 30
0.0
 11
190.1416498573018
 21
91.82203332280883
 31
0.0
  0
LINE
  5
BB08
330
924B
100
AcDbEntity
  8
2
  6
Continuous
 62
     1
370
    -2
100
AcDbLine
 10
163.0303787620808
 20
54.82203332280883
 30
0.0
 11
190.1416498573018
 21
54.82203332280882
 31
0.0
  0
LINE
  5
BB09
330
924B
100
AcDbEntity
  8
2
  6
Continuous
 62
     1
370
    -2
100
AcDbLine
 10
188.6416498573018
 20
88.10203332280883
 30
0.0
 11
188.6416498573018
 21
58.54203332280882
 31
0.0
  0
INSERT
  5
BB0A
330
924B
100
AcDbEntity
  8
2
  6
Continuous
 62
     1
370
    -2
100
AcDbBlockReference
  2
_OPEN15
 10
188.6416498573018
 20
91.82203332280883
 30
0.0
 41
3.72
 42
3.72
 43
3.72
 50
90.0
  0
INSERT
  5
BB0B
330
924B
100
AcDbEntity
  8
2
  6
Continuous
 62
     1
370
    -2
100
AcDbBlockReference
  2
_OPEN15
 10
188.6416498573018
 20
54.82203332280882
 30
0.0
 41
3.72
 42
3.72
 43
3.72
 50
270.0
  0
MTEXT
  5
BB0C
330
924B
100
AcDbEntity
  8
2
  6
Continuous
 62
     5
100
AcDbMText
 10
185.1416498573018
 20
73.32203332280887
 30
0.0
 40
5.0
 41
0.0
 71
     5
 72
     1
  1
\A1;37
 11
0.0000000000000001
 21
1.0
 31
0.0
 73
     1
 44
1.0
1001
ACAD
1000
MTEXTBEGIN
1070
    73
1070
     1
1070
    44
1040
1.0
1070
    74
1070
     0
1000
MTEXTEND
  0
POINT
  5
BB0D
330
924B
100
AcDbEntity
  8
DEFPOINTS
  6
Continuous
 62
     0
370
    25
100
AcDbPoint
 10
163.3143819301811
 20
91.82203332280883
 30
0.0
  0
POINT
  5
BB0E
330
924B
100
AcDbEntity
  8
DEFPOINTS
  6
Continuous
 62
     0
370
    25
100
AcDbPoint
 10
163.0303787620808
 20
54.82203332280883
 30
0.0
  0
POINT
  5
BB0F
330
924B
100
AcDbEntity
  8
DEFPOINTS
  6
Continuous
 62
     0
370
    25
100
AcDbPoint
 10
188.6416498573018
 20
54.82203332280882
 30
0.0
  0
ENDBLK
  5
A7D4
330
924B
100
AcDbEntity
  8
0
100
AcDbBlockEnd
  0
ENDSEC
  0
SECTION
  2
ENTITIES
  0
ARC
  5
865
330
1A
100
AcDbEntity
  8
1
  6
Continuous
 62
     7
100
AcDbCircle
 10
120.6416498573022
 20
173.4895832263762
 30
0.0
 40
1.449999999999985
100
AcDbArc
 50
91.39718102729695
 51
178.6028189726998
1001
PHOENIX7010
1002
{
1070
    62
1070
     7
1070
    41
1040
1.0
1002
}
  0
LINE
  5
866
330
1A
100
AcDbEntity
  8
1
  6
Continuous
 62
     7
100
AcDbLine
 10
164.6416498573019
 20
133.4895832263764
 30
0.0
 11
164.6416498573019
 21
173.4895832263764
 31
0.0
1001
PHOENIX7010
1002
{
1070
    62
1070
     7
1070
    41
1040
1.0
1002
}
  0
LINE
  5
867
330
1A
100
AcDbEntity
  8
1
  6
ACAD_ISO04W100
 62
     1
100
AcDbLine
 10
139.6416498573019
 20
125.4895832263764
 30
0.0
 11
139.6416498573019
 21
181.4895832263764
 31
0.0
1001
PHOENIX7010
1002
{
1070
    62
1070
     1
1070
    41
1040
1.0
1002
}
  0
LINE
  5
868
330
1A
100
AcDbEntity
  8
1
  6
Continuous
 62
     7
100
AcDbLine
 10
114.6416498573019
 20
133.4895832263764
 30
0.0
 11
114.6416498573019
 21
173.4895832263764
 31
0.0
1001
PHOENIX7010
1002
{
1070
    62
1070
     7
1070
    41
1040
1.0
1002
}
  0
LINE
  5
869
330
1A
100
AcDbEntity
  8
1
  6
Continuous
 62
     7
100
AcDbLine
 10
158.6416498573019
 20
179.4895832263764
 30
0.0
 11
120.6416498573019
 21
179.4895832263764
 31
0.0
1001
PHOENIX7010
1002
{
1070
    62
1070
     7
1070
    41
1040
1.0
1002
}
  0
LINE
  5
86A
330
1A
100
AcDbEntity
  8
1
  6
Continuous
 62
     7
100
AcDbLine
 10
158.6416498573019
 20
127.4895832263764
 30
0.0
 11
120.6416498573019
 21
127.4895832263764
 31
0.0
1001
PHOENIX7010
1002
{
1070
    62
1070
     7
1070
    41
1040
1.0
1002
}
  0
LINE
  5
86B
330
1A
100
AcDbEntity
  8
1
  6
ACAD_ISO04W100
 62
     1
100
AcDbLine
 10
166.6416498573019
 20
153.4895832263764
 30
0.0
 11
112.6416498573019
 21
153.4895832263764
 31
0.0
1001
PHOENIX7010
1002
{
1070
    62
1070
     1
1070
    41
1040
1.0
1002
}
  0
LINE
  5
86C
330
1A
100
AcDbEntity
  8
1
  6
ACAD_ISO04W100
 62
     1
100
AcDbLine
 10
166.6416498573019
 20
133.4895832263764
 30
0.0
 11
152.9416498573018
 21
133.4895832263764
 31
0.0
1001
PHOENIX7010
1002
{
1070
    62
1070
     1
1070
    41
1040
1.0
1002
}
  0
LINE
  5
86D
330
1A
100
AcDbEntity
  8
1
  6
ACAD_ISO04W100
 62
     1
100
AcDbLine
 10
158.6416498573019
 20
125.4895832263764
 30
0.0
 11
158.6416498573019
 21
139.1895832263765
 31
0.0
1001
PHOENIX7010
1002
{
1070
    62
1070
     1
1070
    41
1040
1.0
1002
}
  0
LINE
  5
86E
330
1A
100
AcDbEntity
  8
1
  6
ACAD_ISO04W100
 62
     1
100
AcDbLine
 10
166.6416498573019
 20
173.4895832263764
 30
0.0
 11
152.9416498573019
 21
173.4895832263764
 31
0.0
1001
PHOENIX7010
1002
{
1070
    62
1070
     1
1070
    41
1040
1.0
1002
}
  0
LINE
  5
86F
330
1A
100
AcDbEntity
  8
1
  6
ACAD_ISO04W100
 62
     1
100
AcDbLine
 10
158.6416498573019
 20
181.4895832263764
 30
0.0
 11
158.6416498573019
 21
167.7895832263764
 31
0.0
1001
PHOENIX7010
1002
{
1070
    62
1070
     1
1070
    41
1040
1.0
1002
}
  0
LINE
  5
870
330
1A
100
AcDbEntity
  8
1
  6
ACAD_ISO04W100
 62
     1
100
AcDbLine
 10
112.6416498573019
 20
173.4895832263764
 30
0.0
 11
126.3416498573019
 21
173.4895832263764
 31
0.0
1001
PHOENIX7010
1002
{
1070
    62
1070
     1
1070
    41
1040
1.0
1002
}
  0
LINE
  5
871
330
1A
100
AcDbEntity
  8
1
  6
ACAD_ISO04W100
 62
     1
100
AcDbLine
 10
112.6416498573019
 20
133.4895832263764
 30
0.0
 11
126.3416498573019
 21
133.4895832263764
 31
0.0
1001
PHOENIX7010
1002
{
1070
    62
1070
     1
1070
    41
1040
1.0
1002
}
  0
LINE
  5
872
330
1A
100
AcDbEntity
  8
1
  6
ACAD_ISO04W100
 62
     1
100
AcDbLine
 10
120.6416498573019
 20
125.4895832263764
 30
0.0
 11
120.6416498573019
 21
139.1895832263765
 31
0.0
1001
PHOENIX7010
1002
{
1070
    62
1070
     1
1070
    41
1040
1.0
1002
}
  0
LINE
  5
873
330
1A
100
AcDbEntity
  8
1
  6
Continuous
 62
     7
100
AcDbLine
 10
125.9864343836287
 20
176.3979482067826
 30
0.0
 11
158.6416498573019
 21
176.3979482067826
 31
0.0
1001
PHOENIX7010
1002
{
1070
    62
1070
     7
1070
    41
1040
1.0
1002
}
  0
ARC
  5
874
330
1A
100
AcDbEntity
  8
1
  6
Continuous
 62
     7
100
AcDbCircle
 10
120.6416498573019
 20
173.4895832263764
 30
0.0
 40
4.388728904778869
100
AcDbArc
 50
59.03735229309846
 51
210.9626477069024
1001
PHOENIX7010
1002
{
1070
    62
1070
     7
1070
    41
1040
1.0
1002
}
  0
ARC
  5
875
330
1A
100
AcDbEntity
  8
1
  6
Continuous
 62
     7
100
AcDbCircle
 10
158.6416498573019
 20
133.4895832263764
 30
0.0
 40
4.388728904778976
100
AcDbArc
 50
239.0373522930985
 51
30.96264770690237
1001
PHOENIX7010
1002
{
1070
    62
1070
     7
1070
    41
1040
1.0
1002
}
  0
LINE
  5
876
330
1A
100
AcDbEntity
  8
1
  6
Continuous
 62
     7
100
AcDbLine
 10
153.296865330975
 20
130.5812182459702
 30
0.0
 11
120.6416498573019
 21
130.5812182459702
 31
0.0
1001
PHOENIX7010
1002
{
1070
    62
1070
     7
1070
    41
1040
1.0
1002
}
  0
ARC
  5
877
330
1A
100
AcDbEntity
  8
1
  6
Continuous
 62
     7
100
AcDbCircle
 10
158.6416498573019
 20
173.4895832263764
 30
0.0
 40
2.908364980406076
100
AcDbArc
 50
0.0
 51
90.0
1001
PHOENIX7010
1002
{
1070
    62
1070
     7
1070
    41
1040
1.0
1002
}
  0
ARC
  5
878
330
1A
100
AcDbEntity
  8
1
  6
Continuous
 62
     7
100
AcDbCircle
 10
120.6416498573019
 20
133.4895832263764
 30
0.0
 40
2.90836498040619
100
AcDbArc
 50
180.0
 51
270.0
1001
PHOENIX7010
1002
{
1070
    62
1070
     7
1070
    41
1040
1.0
1002
}
  0
CIRCLE
  5
879
330
1A
100
AcDbEntity
  8
1
  6
Continuous
 62
     7
100
AcDbCircle
 10
120.6416498573019
 20
173.4895832263764
 30
0.0
 40
3.7
1001
PHOENIX7010
1002
{
1070
    62
1070
     7
1070
    41
1040
1.0
1002
}
  0
CIRCLE
  5
87A
330
1A
100
AcDbEntity
  8
1
  6
Continuous
 62
     7
100
AcDbCircle
 10
158.6416498573019
 20
133.4895832263764
 30
0.0
 40
3.7
1001
PHOENIX7010
1002
{
1070
    62
1070
     7
1070
    41
1040
1.0
1002
}
  0
CIRCLE
  5
87B
330
1A
100
AcDbEntity
  8
1
  6
Continuous
 62
     7
100
AcDbCircle
 10
120.6416498573019
 20
173.4895832263764
 30
0.0
 40
2.2
1001
PHOENIX7010
1002
{
1070
    62
1070
     7
1070
    41
1040
1.0
1002
}
  0
CIRCLE
  5
87C
330
1A
100
AcDbEntity
  8
1
  6
Continuous
 62
     7
100
AcDbCircle
 10
158.6416498573019
 20
133.4895832263764
 30
0.0
 40
2.2
1001
PHOENIX7010
1002
{
1070
    62
1070
     7
1070
    41
1040
1.0
1002
}
  0
LINE
  5
87D
330
1A
100
AcDbEntity
  8
1
  6
Continuous
 62
     7
100
AcDbLine
 10
119.9631159924334
 20
175.5823306536181
 30
0.0
 11
120.6062945182428
 21
174.9391521278086
 31
0.0
1001
PHOENIX7010
1002
{
1070
    62
1070
     7
1070
    41
1040
1.0
1002
}
  0
LINE
  5
87E
330
1A
100
AcDbEntity
  8
1
  6
Continuous
 62
     7
100
AcDbLine
 10
118.5489024300603
 20
174.168117091245
 30
0.0
 11
119.1920809558697
 21
173.5249385654356
 31
0.0
1001
PHOENIX7010
1002
{
1070
    62
1070
     7
1070
    41
1040
1.0
1002
}
  0
LINE
  5
87F
330
1A
100
AcDbEntity
  8
1
  6
Continuous
 62
     7
100
AcDbLine
 10
159.3201837221704
 20
131.3968357991348
 30
0.0
 11
158.6770051963611
 21
132.040014324944
 31
0.0
1001
PHOENIX7010
1002
{
1070
    62
1070
     7
1070
    41
1040
1.0
1002
}
  0
LINE
  5
880
330
1A
100
AcDbEntity
  8
1
  6
Continuous
 62
     7
100
AcDbLine
 10
160.7343972845435
 20
132.8110493615079
 30
0.0
 11
160.0912187587342
 21
133.4542278873172
 31
0.0
1001
PHOENIX7010
1002
{
1070
    62
1070
     7
1070
    41
1040
1.0
1002
}
  0
LINE
  5
881
330
1A
100
AcDbEntity
  8
1
  6
ACAD_ISO04W100
 62
     1
100
AcDbLine
 10
120.6416498573019
 20
181.4895832263764
 30
0.0
 11
120.6416498573019
 21
167.7895832263764
 31
0.0
1001
PHOENIX7010
1002
{
1070
    62
1070
     1
1070
    41
1040
1.0
1002
}
  0
ARC
  5
882
330
1A
100
AcDbEntity
  8
1
  6
Continuous
 62
     7
100
AcDbCircle
 10
120.6416498573019
 20
173.4895832263764
 30
0.0
 40
6.0
100
AcDbArc
 50
90.0
 51
180.0
1001
PHOENIX7010
1002
{
1070
    62
1070
     7
1070
    41
1040
1.0
1002
}
  0
ARC
  5
883
330
1A
100
AcDbEntity
  8
1
  6
Continuous
 62
     7
100
AcDbCircle
 10
111.7332848768957
 20
168.1447987000496
 30
0.0
 40
6.000000000000037
100
AcDbArc
 50
7.643968080107272
 51
30.96264770690237
1001
PHOENIX7010
1002
{
1070
    62
1070
     7
1070
    41
1040
1.0
1002
}
  0
ARC
  5
884
330
1A
100
AcDbEntity
  8
1
  6
Continuous
 62
     7
100
AcDbCircle
 10
125.9864343836287
 20
182.3979482067826
 30
0.0
 40
6.000000000000012
100
AcDbArc
 50
239.0373522930985
 51
270.0
1001
PHOENIX7010
1002
{
1070
    62
1070
     7
1070
    41
1040
1.0
1002
}
  0
ARC
  5
885
330
1A
100
AcDbEntity
  8
1
  6
Continuous
 62
     7
100
AcDbCircle
 10
158.6416498573019
 20
173.4895832263764
 30
0.0
 40
6.0
100
AcDbArc
 50
0.0
 51
90.0
1001
PHOENIX7010
1002
{
1070
    62
1070
     7
1070
    41
1040
1.0
1002
}
  0
ARC
  5
886
330
1A
100
AcDbEntity
  8
1
  6
Continuous
 62
     7
100
AcDbCircle
 10
153.296865330975
 20
124.5812182459702
 30
0.0
 40
6.000000000000012
100
AcDbArc
 50
59.03735229309846
 51
90.0
1001
PHOENIX7010
1002
{
1070
    62
1070
     7
1070
    41
1040
1.0
1002
}
  0
ARC
  5
887
330
1A
100
AcDbEntity
  8
1
  6
Continuous
 62
     7
100
AcDbCircle
 10
158.6416498573019
 20
133.4895832263764
 30
0.0
 40
6.0
100
AcDbArc
 50
270.0
 51
0.0
1001
PHOENIX7010
1002
{
1070
    62
1070
     7
1070
    41
1040
1.0
1002
}
  0
ARC
  5
888
330
1A
100
AcDbEntity
  8
1
  6
Continuous
 62
     7
100
AcDbCircle
 10
167.5500148377079
 20
138.8343677527032
 30
0.0
 40
6.000000000000063
100
AcDbArc
 50
187.6439680801007
 51
210.9626477069024
1001
PHOENIX7010
1002
{
1070
    62
1070
     7
1070
    41
1040
1.0
1002
}
  0
ARC
  5
889
330
1A
100
AcDbEntity
  8
1
  6
Continuous
 62
     7
100
AcDbCircle
 10
120.6416498573019
 20
133.4895832263764
 30
0.0
 40
6.0
100
AcDbArc
 50
180.0
 51
270.0
1001
PHOENIX7010
1002
{
1070
    62
1070
     7
1070
    41
1040
1.0
1002
}
  0
LINE
  5
890
330
1A
100
AcDbEntity
  8
1
  6
Continuous
 62
     7
100
AcDbLine
 10
117.7332848768957
 20
168.9429006875538
 30
0.0
 11
117.7332848768957
 21
133.4895832263764
 31
0.0
1001
PHOENIX7010
1002
{
1070
    62
1070
     7
1070
    41
1040
1.0
1002
}
  0
LINE
  5
892
330
1A
100
AcDbEntity
  8
1
  6
Continuous
 62
     7
100
AcDbLine
 10
159.6416498573019
 20
139.9895832263764
 30
0.0
 11
159.6416498573019
 21
166.9895832263764
 31
0.0
1001
PHOENIX7010
1002
{
1070
    62
1070
     7
1070
    41
1040
1.0
1002
}
  0
LINE
  5
894
330
1A
100
AcDbEntity
  8
1
  6
Continuous
 62
     7
100
AcDbLine
 10
161.550014837708
 20
173.4895832263764
 30
0.0
 11
161.550014837708
 21
138.0362657651997
 31
0.0
1001
PHOENIX7010
1002
{
1070
    62
1070
     7
1070
    41
1040
1.0
1002
}
  0
ARC
  5
89A
330
1A
100
AcDbEntity
  8
1
  6
Continuous
 62
     7
100
AcDbCircle
 10
158.6416498573018
 20
133.4895832263765
 30
0.0
 40
1.449999999999978
100
AcDbArc
 50
271.3971810272969
 51
358.6028189727063
1001
PHOENIX7010
1002
{
1070
    62
1070
     7
1070
    41
1040
1.0
1002
}
  0
LINE
  5
8A6
330
1A
100
AcDbEntity
  8
1
  6
ACAD_ISO02W100
 62
     5
100
AcDbLine
 10
150.4416498573019
 20
175.4895832263764
 30
0.0
 11
128.841649857302
 21
175.4895832263764
 31
0.0
1001
PHOENIX7010
1002
{
1070
    62
1070
     7
1070
    41
1040
1.0
1002
}
  0
LINE
  5
8A7
330
1A
100
AcDbEntity
  8
1
  6
ACAD_ISO02W100
 62
     5
100
AcDbLine
 10
118.6416498573019
 20
141.6895832263764
 30
0.0
 11
118.6416498573019
 21
165.2895832263764
 31
0.0
1001
PHOENIX7010
1002
{
1070
    62
1070
     7
1070
    41
1040
1.0
1002
}
  0
LINE
  5
8A8
330
1A
100
AcDbEntity
  8
1
  6
ACAD_ISO02W100
 62
     5
100
AcDbLine
 10
160.6416498573019
 20
141.6895832263765
 30
0.0
 11
160.6416498573019
 21
165.2895832263764
 31
0.0
1001
PHOENIX7010
1002
{
1070
    62
1070
     7
1070
    41
1040
1.0
1002
}
  0
LINE
  5
8A9
330
1A
100
AcDbEntity
  8
1
  6
ACAD_ISO02W100
 62
     5
100
AcDbLine
 10
150.4416498573019
 20
131.4895832263765
 30
0.0
 11
128.841649857302
 21
131.4895832263765
 31
0.0
1001
PHOENIX7010
1002
{
1070
    62
1070
     7
1070
    41
1040
1.0
1002
}
  0
ARC
  5
8AC
330
1A
100
AcDbEntity
  8
1
  6
ACAD_ISO02W100
 62
     5
100
AcDbCircle
 10
120.6416498573019
 20
165.2895832263764
 30
0.0
 40
2.0
100
AcDbArc
 50
90.0
 51
180.0
1001
PHOENIX7010
1002
{
1070
    62
1070
     7
1070
    41
1040
1.0
1002
}
  0
ARC
  5
8AE
330
1A
100
AcDbEntity
  8
1
  6
ACAD_ISO02W100
 62
     5
100
AcDbCircle
 10
120.6416498573019
 20
173.4895832263764
 30
0.0
 40
6.200000000000045
100
AcDbArc
 50
270.0
 51
0.0
1001
PHOENIX7010
1002
{
1070
    62
1070
     7
1070
    41
1040
1.0
1002
}
  0
ARC
  5
8B2
330
1A
100
AcDbEntity
  8
1
  6
ACAD_ISO02W100
 62
     5
100
AcDbCircle
 10
128.841649857302
 20
173.4895832263764
 30
0.0
 40
2.0
100
AcDbArc
 50
90.0
 51
180.0
1001
PHOENIX7010
1002
{
1070
    62
1070
     7
1070
    41
1040
1.0
1002
}
  0
ARC
  5
8B5
330
1A
100
AcDbEntity
  8
1
  6
ACAD_ISO02W100
 62
     5
100
AcDbCircle
 10
150.4416498573019
 20
173.4895832263764
 30
0.0
 40
2.0
100
AcDbArc
 50
0.0
 51
90.0
1001
PHOENIX7010
1002
{
1070
    62
1070
     7
1070
    41
1040
1.0
1002
}
  0
ARC
  5
8BA
330
1A
100
AcDbEntity
  8
1
  6
ACAD_ISO02W100
 62
     5
100
AcDbCircle
 10
158.6416498573019
 20
173.4895832263764
 30
0.0
 40
6.200000000000045
100
AcDbArc
 50
180.0
 51
270.0
1001
PHOENIX7010
1002
{
1070
    62
1070
     7
1070
    41
1040
1.0
1002
}
  0
ARC
  5
8BB
330
1A
100
AcDbEntity
  8
1
  6
ACAD_ISO02W100
 62
     5
100
AcDbCircle
 10
158.6416498573019
 20
165.2895832263764
 30
0.0
 40
2.0
100
AcDbArc
 50
0.0
 51
90.0
1001
PHOENIX7010
1002
{
1070
    62
1070
     7
1070
    41
1040
1.0
1002
}
  0
ARC
  5
8BE
330
1A
100
AcDbEntity
  8
1
  6
ACAD_ISO02W100
 62
     5
100
AcDbCircle
 10
150.4416498573019
 20
133.4895832263764
 30
0.0
 40
1.999999999999886
100
AcDbArc
 50
270.0
 51
0.0
1001
PHOENIX7010
1002
{
1070
    62
1070
     7
1070
    41
1040
1.0
1002
}
  0
ARC
  5
8C3
330
1A
100
AcDbEntity
  8
1
  6
ACAD_ISO02W100
 62
     5
100
AcDbCircle
 10
158.6416498573018
 20
133.4895832263764
 30
0.0
 40
6.199999999999988
100
AcDbArc
 50
90.0
 51
180.0
1001
PHOENIX7010
1002
{
1070
    62
1070
     7
1070
    41
1040
1.0
1002
}
  0
ARC
  5
8C4
330
1A
100
AcDbEntity
  8
1
  6
ACAD_ISO02W100
 62
     5
100
AcDbCircle
 10
158.6416498573018
 20
141.6895832263765
 30
0.0
 40
2.0
100
AcDbArc
 50
270.0
 51
0.0
1001
PHOENIX7010
1002
{
1070
    62
1070
     7
1070
    41
1040
1.0
1002
}
  0
ARC
  5
8C7
330
1A
100
AcDbEntity
  8
1
  6
ACAD_ISO02W100
 62
     5
100
AcDbCircle
 10
128.841649857302
 20
133.4895832263764
 30
0.0
 40
2.0
100
AcDbArc
 50
180.0
 51
270.0
1001
PHOENIX7010
1002
{
1070
    62
1070
     7
1070
    41
1040
1.0
1002
}
  0
ARC
  5
8CC
330
1A
100
AcDbEntity
  8
1
  6
ACAD_ISO02W100
 62
     5
100
AcDbCircle
 10
120.6416498573019
 20
133.4895832263764
 30
0.0
 40
6.199999999999988
100
AcDbArc
 50
0.0
 51
90.0
1001
PHOENIX7010
1002
{
1070
    62
1070
     7
1070
    41
1040
1.0
1002
}
  0
ARC
  5
8CD
330
1A
100
AcDbEntity
  8
1
  6
ACAD_ISO02W100
 62
     5
100
AcDbCircle
 10
120.6416498573019
 20
141.6895832263765
 30
0.0
 40
2.0
100
AcDbArc
 50
180.0
 51
270.0
1001
PHOENIX7010
1002
{
1070
    62
1070
     7
1070
    41
1040
1.0
1002
}
  0
LINE
  5
97B
330
1A
100
AcDbEntity
  8
1
  6
ACAD_ISO04W100
 62
     1
100
AcDbLine
 10
121.6416498573019
 20
240.1571331299441
 30
0.0
 11
121.641649857302
 21
254.1571331299441
 31
0.0
1001
PHOENIX7010
1002
{
1070
    62
1070
     1
1070
    41
1040
1.0
1002
}
  0
LINE
  5
97C
330
1A
100
AcDbEntity
  8
1
  6
ACAD_ISO04W100
 62
     1
100
AcDbLine
 10
157.641649857302
 20
240.1571331299441
 30
0.0
 11
157.6416498573021
 21
254.1571331299441
 31
0.0
1001
PHOENIX7010
1002
{
1070
    62
1070
     1
1070
    41
1040
1.0
1002
}
  0
LINE
  5
97D
330
1A
100
AcDbEntity
  8
1
  6
ACAD_ISO02W100
 62
     5
100
AcDbLine
 10
163.1416498573021
 20
244.957133129944
 30
0.0
 11
162.1416498573021
 21
244.957133129944
 31
0.0
1001
PHOENIX7010
1002
{
1070
    62
1070
     7
1070
    41
1040
1.0
1002
}
  0
LINE
  5
97E
330
1A
100
AcDbEntity
  8
1
  6
ACAD_ISO02W100
 62
     5
100
AcDbLine
 10
163.641649857302
 20
244.457133129944
 30
0.0
 11
163.641649857302
 21
242.1571331299441
 31
0.0
1001
PHOENIX7010
1002
{
1070
    62
1070
     7
1070
    41
1040
1.0
1002
}
  0
LINE
  5
97F
330
1A
100
AcDbEntity
  8
1
  6
ACAD_ISO02W100
 62
     5
100
AcDbLine
 10
161.641649857302
 20
244.457133129944
 30
0.0
 11
161.641649857302
 21
242.1571331299441
 31
0.0
1001
PHOENIX7010
1002
{
1070
    62
1070
     7
1070
    41
1040
1.0
1002
}
  0
LINE
  5
980
330
1A
100
AcDbEntity
  8
1
  6
ACAD_ISO02W100
 62
     5
100
AcDbLine
 10
119.2071204049255
 20
250.1571331299441
 30
0.0
 11
160.0761793096785
 21
250.1571331299441
 31
0.0
1001
PHOENIX7010
1002
{
1070
    62
1070
     7
1070
    41
1040
1.0
1002
}
  0
LINE
  5
981
330
1A
100
AcDbEntity
  8
1
  6
ACAD_ISO02W100
 62
     5
100
AcDbLine
 10
116.1416498573019
 20
244.9571331299441
 30
0.0
 11
117.1416498573019
 21
244.9571331299441
 31
0.0
1001
PHOENIX7010
1002
{
1070
    62
1070
     7
1070
    41
1040
1.0
1002
}
  0
LINE
  5
982
330
1A
100
AcDbEntity
  8
1
  6
ACAD_ISO02W100
 62
     5
100
AcDbLine
 10
115.6416498573019
 20
244.4571331299441
 30
0.0
 11
115.6416498573019
 21
242.1571331299441
 31
0.0
1001
PHOENIX7010
1002
{
1070
    62
1070
     7
1070
    41
1040
1.0
1002
}
  0
LINE
  5
983
330
1A
100
AcDbEntity
  8
1
  6
ACAD_ISO02W100
 62
     5
100
AcDbLine
 10
117.6416498573019
 20
244.4571331299441
 30
0.0
 11
117.6416498573019
 21
242.1571331299441
 31
0.0
1001
PHOENIX7010
1002
{
1070
    62
1070
     7
1070
    41
1040
1.0
1002
}
  0
LINE
  5
984
330
1A
100
AcDbEntity
  8
1
  6
Continuous
 62
     7
100
AcDbLine
 10
117.7332848768959
 20
252.157133129944
 30
0.0
 11
114.7332848768959
 21
249.1571331299441
 31
0.0
1001
PHOENIX7010
1002
{
1070
    62
1070
     7
1070
    41
1040
1.0
1002
}
  0
LINE
  5
986
330
1A
100
AcDbEntity
  8
1
  6
Continuous
 62
     7
100
AcDbLine
 10
116.2529209525231
 20
252.157133129944
 30
0.0
 11
114.7529209525231
 21
250.6571331299441
 31
0.0
1001
PHOENIX7010
1002
{
1070
    62
1070
     7
1070
    41
1040
1.0
1002
}
  0
LINE
  5
987
330
1A
100
AcDbEntity
  8
1
  6
Continuous
 62
     7
100
AcDbLine
 10
114.7529209525231
 20
250.6571331299441
 30
0.0
 11
114.641649857302
 21
242.1571331299441
 31
0.0
1001
PHOENIX7010
1002
{
1070
    62
1070
     7
1070
    41
1040
1.0
1002
}
  0
LINE
  5
988
330
1A
100
AcDbEntity
  8
1
  6
Continuous
 62
     7
100
AcDbLine
 10
164.5303787620808
 20
250.6571331299441
 30
0.0
 11
164.6416498573019
 21
242.1571331299441
 31
0.0
1001
PHOENIX7010
1002
{
1070
    62
1070
     7
1070
    41
1040
1.0
1002
}
  0
ARC
  5
98B
330
1A
100
AcDbEntity
  8
1
  6
ACAD_ISO02W100
 62
     5
100
AcDbCircle
 10
162.1416498573021
 20
244.457133129944
 30
0.0
 40
0.5
100
AcDbArc
 50
90.0
 51
180.0
1001
PHOENIX7010
1002
{
1070
    62
1070
     7
1070
    41
1040
1.0
1002
}
  0
ARC
  5
98C
330
1A
100
AcDbEntity
  8
1
  6
ACAD_ISO02W100
 62
     5
100
AcDbCircle
 10
163.1416498573021
 20
244.457133129944
 30
0.0
 40
0.5
100
AcDbArc
 50
0.0
 51
90.0
1001
PHOENIX7010
1002
{
1070
    62
1070
     7
1070
    41
1040
1.0
1002
}
  0
ARC
  5
98D
330
1A
100
AcDbEntity
  8
1
  6
ACAD_ISO02W100
 62
     5
100
AcDbCircle
 10
116.1416498573019
 20
244.4571331299441
 30
0.0
 40
0.5
100
AcDbArc
 50
90.0
 51
180.0
1001
PHOENIX7010
1002
{
1070
    62
1070
     7
1070
    41
1040
1.0
1002
}
  0
ARC
  5
98E
330
1A
100
AcDbEntity
  8
1
  6
ACAD_ISO02W100
 62
     5
100
AcDbCircle
 10
117.1416498573019
 20
244.4571331299441
 30
0.0
 40
0.5
100
AcDbArc
 50
0.0
 51
90.0
1001
PHOENIX7010
1002
{
1070
    62
1070
     7
1070
    41
1040
1.0
1002
}
  0
LINE
  5
98F
330
1A
100
AcDbEntity
  8
1
  6
ACAD_ISO02W100
 62
     5
100
AcDbLine
 10
118.7071394433933
 20
249.6614963976933
 30
0.0
 11
118.6416498573019
 21
242.1571331299441
 31
0.0
1001
PHOENIX7010
1002
{
1070
    62
1070
     7
1070
    41
1040
1.0
1002
}
  0
ARC
  5
990
330
1A
100
AcDbEntity
  8
1
  6
ACAD_ISO02W100
 62
     5
100
AcDbCircle
 10
119.2071204049255
 20
249.6571331299441
 30
0.0
 40
0.5
100
AcDbArc
 50
90.0
 51
179.4999999999954
1001
PHOENIX7010
1002
{
1070
    62
1070
     7
1070
    41
1040
1.0
1002
}
  0
ARC
  5
991
330
1A
100
AcDbEntity
  8
1
  6
ACAD_ISO02W100
 62
     5
100
AcDbCircle
 10
127.4071204049256
 20
249.6571331299441
 30
0.0
 40
0.5
100
AcDbArc
 50
90.0
 51
179.4999999999954
1001
PHOENIX7010
1002
{
1070
    62
1070
     7
1070
    41
1040
1.0
1002
}
  0
LINE
  5
992
330
1A
100
AcDbEntity
  8
1
  6
ACAD_ISO02W100
 62
     5
100
AcDbLine
 10
126.9071394433935
 20
249.6614963976933
 30
0.0
 11
126.841649857302
 21
242.1571331299441
 31
0.0
1001
PHOENIX7010
1002
{
1070
    62
1070
     7
1070
    41
1040
1.0
1002
}
  0
LINE
  5
993
330
1A
100
AcDbEntity
  8
1
  6
ACAD_ISO02W100
 62
     5
100
AcDbLine
 10
160.5761602712105
 20
249.6614963976933
 30
0.0
 11
160.641649857302
 21
242.1571331299441
 31
0.0
1001
PHOENIX7010
1002
{
1070
    62
1070
     7
1070
    41
1040
1.0
1002
}
  0
ARC
  5
994
330
1A
100
AcDbEntity
  8
1
  6
ACAD_ISO02W100
 62
     5
100
AcDbCircle
 10
160.0761793096785
 20
249.6571331299441
 30
0.0
 40
0.4999999999999748
100
AcDbArc
 50
0.5000000000045742
 51
90.0
1001
PHOENIX7010
1002
{
1070
    62
1070
     7
1070
    41
1040
1.0
1002
}
  0
ARC
  5
995
330
1A
100
AcDbEntity
  8
1
  6
ACAD_ISO02W100
 62
     5
100
AcDbCircle
 10
151.8761793096784
 20
249.6571331299441
 30
0.0
 40
0.5
100
AcDbArc
 50
0.4999999999915464
 51
90.0
1001
PHOENIX7010
1002
{
1070
    62
1070
     7
1070
    41
1040
1.0
1002
}
  0
LINE
  5
996
330
1A
100
AcDbEntity
  8
1
  6
ACAD_ISO02W100
 62
     5
100
AcDbLine
 10
152.3761602712105
 20
249.6614963976932
 30
0.0
 11
152.441649857302
 21
242.1571331299441
 31
0.0
1001
PHOENIX7010
1002
{
1070
    62
1070
     7
1070
    41
1040
1.0
1002
}
  0
LINE
  5
997
330
1A
100
AcDbEntity
  8
1
  6
Continuous
 62
     7
100
AcDbLine
 10
116.2529209525231
 20
252.157133129944
 30
0.0
 11
163.0303787620808
 21
252.157133129944
 31
0.0
1001
PHOENIX7010
1002
{
1070
    62
1070
     7
1070
    41
1040
1.0
1002
}
  0
LINE
  5
A0D
330
1A
100
AcDbEntity
  8
1
  6
ACAD_ISO02W100
 62
     5
100
AcDbLine
 10
86.43405538900493
 20
130.7165008281291
 30
0.0
 11
86.43405538900493
 21
176.2626656246238
 31
0.0
1001
PHOENIX7010
1002
{
1070
    62
1070
     7
1070
    41
1040
1.0
1002
}
  0
LINE
  5
ACA
330
1A
100
AcDbEntity
  8
1
  6
Continuous
 62
     7
100
AcDbLine
 10
88.43405538900492
 20
128.8168511534973
 30
0.0
 11
88.43405538900492
 21
178.1623152992556
 31
0.0
1001
PHOENIX7010
1002
{
1070
    62
1070
     7
1070
    41
1040
1.0
1002
}
  0
LINE
  5
ACB
330
1A
100
AcDbEntity
  8
1
  6
ACAD_ISO04W100
 62
     1
100
AcDbLine
 10
49.43405538900498
 20
153.4895832263764
 30
0.0
 11
90.93405538900498
 21
153.4895832263764
 31
0.0
1001
PHOENIX7010
1002
{
1070
    62
1070
     1
1070
    41
1040
1.0
1002
}
  0
LINE
  5
ACD
330
1A
100
AcDbEntity
  8
1
  6
ACAD_ISO02W100
 62
     5
100
AcDbLine
 10
80.93405538900492
 20
142.3895832263765
 30
0.0
 11
86.43405538900493
 21
142.3895832263765
 31
0.0
1001
PHOENIX7010
1002
{
1070
    62
1070
     7
1070
    41
1040
1.0
1002
}
  0
LINE
  5
ACE
330
1A
100
AcDbEntity
  8
1
  6
Continuous
 62
     7
100
AcDbLine
 10
88.43405538900487
 20
137.4895832263765
 30
0.0
 11
88.93405538900486
 21
137.4895832263765
 31
0.0
1001
PHOENIX7010
1002
{
1070
    62
1070
     7
1070
    41
1040
1.0
1002
}
  0
LINE
  5
ACF
330
1A
100
AcDbEntity
  8
1
  6
Continuous
 62
     7
100
AcDbLine
 10
87.43405538900493
 20
127.8168511534973
 30
0.0
 11
62.43405538900493
 21
127.4895832263765
 31
0.0
1001
PHOENIX7010
1002
{
1070
    62
1070
     7
1070
    41
1040
1.0
1002
}
  0
LINE
  5
AD0
330
1A
100
AcDbEntity
  8
1
  6
ACAD_ISO02W100
 62
     5
100
AcDbLine
 10
61.43405538900492
 20
128.9895832263765
 30
0.0
 11
59.93405538900493
 21
129.1895832263765
 31
0.0
1001
PHOENIX7010
1002
{
1070
    62
1070
     7
1070
    41
1040
1.0
1002
}
  0
LINE
  5
AD1
330
1A
100
AcDbEntity
  8
1
  6
ACAD_ISO04W100
 62
     1
100
AcDbLine
 10
49.43405538900498
 20
133.4895832263765
 30
0.0
 11
90.93405538900498
 21
133.4895832263764
 31
0.0
1001
PHOENIX7010
1002
{
1070
    62
1070
     1
1070
    41
1040
1.0
1002
}
  0
LINE
  5
AD2
330
1A
100
AcDbEntity
  8
1
  6
Continuous
 62
     7
100
AcDbLine
 10
88.43405538900492
 20
128.8168511534973
 30
0.0
 11
87.43405538900493
 21
127.8168511534973
 31
0.0
1001
PHOENIX7010
1002
{
1070
    62
1070
     7
1070
    41
1040
1.0
1002
}
  0
LINE
  5
AD3
330
1A
100
AcDbEntity
  8
1
  6
Continuous
 62
     7
100
AcDbLine
 10
62.43405538900493
 20
179.4895832263765
 30
0.0
 11
62.43405538900493
 21
127.4895832263765
 31
0.0
1001
PHOENIX7010
1002
{
1070
    62
1070
     7
1070
    41
1040
1.0
1002
}
  0
LINE
  5
AD4
330
1A
100
AcDbEntity
  8
1
  6
Continuous
 62
     7
100
AcDbLine
 10
61.43405538900492
 20
127.9895832263765
 30
0.0
 11
62.43405538900493
 21
127.9895832263765
 31
0.0
1001
PHOENIX7010
1002
{
1070
    62
1070
     7
1070
    41
1040
1.0
1002
}
  0
LINE
  5
AD5
330
1A
100
AcDbEntity
  8
1
  6
Continuous
 62
     7
100
AcDbLine
 10
61.43405538900492
 20
127.4895832263766
 30
0.0
 11
61.43405538900492
 21
179.4895832263764
 31
0.0
1001
PHOENIX7010
1002
{
1070
    62
1070
     7
1070
    41
1040
1.0
1002
}
  0
LINE
  5
AD6
330
1A
100
AcDbEntity
  8
1
  6
ACAD_ISO02W100
 62
     5
100
AcDbLine
 10
80.93405538900492
 20
142.3895832263765
 30
0.0
 11
80.93405538900492
 21
148.3895832263764
 31
0.0
1001
PHOENIX7010
1002
{
1070
    62
1070
     7
1070
    41
1040
1.0
1002
}
  0
LINE
  5
AD7
330
1A
100
AcDbEntity
  8
1
  6
ACAD_ISO04W100
 62
     1
100
AcDbLine
 10
78.93405538900492
 20
145.3895832263765
 30
0.0
 11
89.43405538900492
 21
145.3895832263765
 31
0.0
1001
PHOENIX7010
1002
{
1070
    62
1070
     1
1070
    41
1040
1.0
1002
}
  0
LINE
  5
AD8
330
1A
100
AcDbEntity
  8
1
  6
ACAD_ISO02W100
 62
     5
100
AcDbLine
 10
80.93405538900492
 20
148.3895832263764
 30
0.0
 11
86.43405538900493
 21
148.3895832263764
 31
0.0
1001
PHOENIX7010
1002
{
1070
    62
1070
     7
1070
    41
1040
1.0
1002
}
  0
LINE
  5
AD9
330
1A
100
AcDbEntity
  8
1
  6
Continuous
 62
     7
100
AcDbLine
 10
88.93405538900486
 20
137.4895832263765
 30
0.0
 11
88.93405538900486
 21
129.4895832263765
 31
0.0
1001
PHOENIX7010
1002
{
1070
    62
1070
     7
1070
    41
1040
1.0
1002
}
  0
LINE
  5
ADA
330
1A
100
AcDbEntity
  8
1
  6
Continuous
 62
     7
100
AcDbLine
 10
88.43405538900487
 20
129.4895832263765
 30
0.0
 11
88.93405538900486
 21
129.4895832263765
 31
0.0
1001
PHOENIX7010
1002
{
1070
    62
1070
     7
1070
    41
1040
1.0
1002
}
  0
ARC
  5
ADB
330
1A
100
AcDbEntity
  8
1
  6
ACAD_ISO02W100
 62
     5
100
AcDbCircle
 10
85.93405538900492
 20
138.9165008281291
 30
0.0
 40
0.4999999999999743
100
AcDbArc
 50
270.499999999998
 51
0.0
1001
PHOENIX7010
1002
{
1070
    62
1070
     7
1070
    41
1040
1.0
1002
}
  0
LINE
  5
ADC
330
1A
100
AcDbEntity
  8
1
  6
ACAD_ISO02W100
 62
     5
100
AcDbLine
 10
85.93841865675409
 20
138.416519866597
 30
0.0
 11
61.43405538900492
 21
138.2026735280627
 31
0.0
1001
PHOENIX7010
1002
{
1070
    62
1070
     7
1070
    41
1040
1.0
1002
}
  0
ARC
  5
ADD
330
1A
100
AcDbEntity
  8
1
  6
ACAD_ISO02W100
 62
     5
100
AcDbCircle
 10
85.93405538900492
 20
130.7165008281291
 30
0.0
 40
0.5000000000000311
100
AcDbArc
 50
270.499999999998
 51
0.0
1001
PHOENIX7010
1002
{
1070
    62
1070
     7
1070
    41
1040
1.0
1002
}
  0
LINE
  5
ADE
330
1A
100
AcDbEntity
  8
1
  6
ACAD_ISO02W100
 62
     5
100
AcDbLine
 10
85.93841865675409
 20
130.2165198665969
 30
0.0
 11
59.93405538900493
 21
129.9895832263765
 31
0.0
1001
PHOENIX7010
1002
{
1070
    62
1070
     7
1070
    41
1040
1.0
1002
}
  0
LINE
  5
ADF
330
1A
100
AcDbEntity
  8
1
  6
ACAD_ISO02W100
 62
     5
100
AcDbLine
 10
80.93405538900492
 20
158.5895832263765
 30
0.0
 11
86.43405538900493
 21
158.5895832263765
 31
0.0
1001
PHOENIX7010
1002
{
1070
    62
1070
     7
1070
    41
1040
1.0
1002
}
  0
LINE
  5
AE0
330
1A
100
AcDbEntity
  8
1
  6
ACAD_ISO04W100
 62
     1
100
AcDbLine
 10
78.93405538900492
 20
161.5895832263765
 30
0.0
 11
88.43405538900492
 21
161.5895832263765
 31
0.0
1001
PHOENIX7010
1002
{
1070
    62
1070
     1
1070
    41
1040
1.0
1002
}
  0
LINE
  5
AE1
330
1A
100
AcDbEntity
  8
1
  6
ACAD_ISO02W100
 62
     5
100
AcDbLine
 10
80.93405538900492
 20
164.5895832263765
 30
0.0
 11
80.93405538900492
 21
158.5895832263765
 31
0.0
1001
PHOENIX7010
1002
{
1070
    62
1070
     7
1070
    41
1040
1.0
1002
}
  0
LINE
  5
AE2
330
1A
100
AcDbEntity
  8
1
  6
ACAD_ISO02W100
 62
     5
100
AcDbLine
 10
80.93405538900492
 20
164.5895832263765
 30
0.0
 11
86.43405538900493
 21
164.5895832263765
 31
0.0
1001
PHOENIX7010
1002
{
1070
    62
1070
     7
1070
    41
1040
1.0
1002
}
  0
LINE
  5
AE6
330
1A
100
AcDbEntity
  8
1
  6
Continuous
 62
     7
100
AcDbLine
 10
88.43405538900498
 20
178.1623152992556
 30
0.0
 11
87.43405538900498
 21
179.1623152992556
 31
0.0
1001
PHOENIX7010
1002
{
1070
    62
1070
     7
1070
    41
1040
1.0
1002
}
  0
LINE
  5
AE7
330
1A
100
AcDbEntity
  8
1
  6
Continuous
 62
     7
100
AcDbLine
 10
87.43405538900498
 20
179.1623152992556
 30
0.0
 11
62.43405538900493
 21
179.4895832263765
 31
0.0
1001
PHOENIX7010
1002
{
1070
    62
1070
     7
1070
    41
1040
1.0
1002
}
  0
LINE
  5
AE9
330
1A
100
AcDbEntity
  8
1
  6
Continuous
 62
     7
100
AcDbLine
 10
61.43405538900492
 20
178.9895832263765
 30
0.0
 11
62.43405538900493
 21
178.9895832263765
 31
0.0
1001
PHOENIX7010
1002
{
1070
    62
1070
     7
1070
    41
1040
1.0
1002
}
  0
LINE
  5
AEB
330
1A
100
AcDbEntity
  8
1
  6
ACAD_ISO04W100
 62
     1
100
AcDbLine
 10
49.43405538900498
 20
173.4895832263764
 30
0.0
 11
90.93405538900498
 21
173.4895832263764
 31
0.0
1001
PHOENIX7010
1002
{
1070
    62
1070
     1
1070
    41
1040
1.0
1002
}
  0
LINE
  5
AEE
330
1A
100
AcDbEntity
  8
1
  6
Continuous
 62
     7
100
AcDbLine
 10
88.43405538900498
 20
177.4895832263764
 30
0.0
 11
88.93405538900498
 21
177.4895832263764
 31
0.0
1001
PHOENIX7010
1002
{
1070
    62
1070
     7
1070
    41
1040
1.0
1002
}
  0
LINE
  5
AEF
330
1A
100
AcDbEntity
  8
1
  6
Continuous
 62
     7
100
AcDbLine
 10
88.43405538900498
 20
169.4895832263765
 30
0.0
 11
88.93405538900498
 21
169.4895832263765
 31
0.0
1001
PHOENIX7010
1002
{
1070
    62
1070
     7
1070
    41
1040
1.0
1002
}
  0
LINE
  5
AF0
330
1A
100
AcDbEntity
  8
1
  6
Continuous
 62
     7
100
AcDbLine
 10
88.93405538900498
 20
177.4895832263764
 30
0.0
 11
88.93405538900498
 21
169.4895832263765
 31
0.0
1001
PHOENIX7010
1002
{
1070
    62
1070
     7
1070
    41
1040
1.0
1002
}
  0
LINE
  5
AF6
330
1A
100
AcDbEntity
  8
1
  6
ACAD_ISO02W100
 62
     5
100
AcDbLine
 10
80.93405538900492
 20
160.8395832263763
 30
0.0
 11
86.43405538900493
 21
160.8395832263763
 31
0.0
1001
PHOENIX7010
1002
{
1070
    62
1070
     7
1070
    41
1040
1.0
1002
}
  0
LINE
  5
AF7
330
1A
100
AcDbEntity
  8
1
  6
ACAD_ISO02W100
 62
     5
100
AcDbLine
 10
80.93405538900492
 20
162.3395832263764
 30
0.0
 11
86.43405538900493
 21
162.3395832263764
 31
0.0
1001
PHOENIX7010
1002
{
1070
    62
1070
     7
1070
    41
1040
1.0
1002
}
  0
LINE
  5
B1C
330
1A
100
AcDbEntity
  8
1
  6
Continuous
 62
     7
100
AcDbLine
 10
51.43405538900498
 20
177.8783121311553
 30
0.0
 11
51.43405538900498
 21
129.1008543215976
 31
0.0
1001
PHOENIX7010
1002
{
1070
    62
1070
     7
1070
    41
1040
1.0
1002
}
  0
LINE
  5
B1D
330
1A
100
AcDbEntity
  8
1
  6
Continuous
 62
     7
100
AcDbLine
 10
52.93405538900504
 20
179.3783121311552
 30
0.0
 11
61.43405538900492
 21
179.4895832263764
 31
0.0
1001
PHOENIX7010
1002
{
1070
    62
1070
     7
1070
    41
1040
1.0
1002
}
  0
LINE
  5
B1E
330
1A
100
AcDbEntity
  8
1
  6
Continuous
 62
     7
100
AcDbLine
 10
51.43405538900498
 20
176.3979482067825
 30
0.0
 11
54.43405538900498
 21
179.3979482067825
 31
0.0
1001
PHOENIX7010
1002
{
1070
    62
1070
     7
1070
    41
1040
1.0
1002
}
  0
LINE
  5
B25
330
1A
100
AcDbEntity
  8
1
  6
ACAD_ISO02W100
 62
     5
100
AcDbLine
 10
53.43405538900498
 20
174.9241126787528
 30
0.0
 11
53.43405538900498
 21
132.055053774
 31
0.0
1001
PHOENIX7010
1002
{
1070
    62
1070
     7
1070
    41
1040
1.0
1002
}
  0
LINE
  5
B29
330
1A
100
AcDbEntity
  8
1
  6
ACAD_ISO02W100
 62
     5
100
AcDbLine
 10
53.92969212125575
 20
139.7550728124679
 30
0.0
 11
61.43405538900492
 21
139.6895832263765
 31
0.0
1001
PHOENIX7010
1002
{
1070
    62
1070
     7
1070
    41
1040
1.0
1002
}
  0
ARC
  5
B2A
330
1A
100
AcDbEntity
  8
1
  6
ACAD_ISO02W100
 62
     5
100
AcDbCircle
 10
53.93405538900498
 20
140.255053774
 30
0.0
 40
0.5
100
AcDbArc
 50
180.0
 51
269.4999999999954
1001
PHOENIX7010
1002
{
1070
    62
1070
     7
1070
    41
1040
1.0
1002
}
  0
LINE
  5
B2D
330
1A
100
AcDbEntity
  8
1
  6
ACAD_ISO02W100
 62
     5
100
AcDbLine
 10
58.63405538900491
 20
128.9895832263765
 30
0.0
 11
58.63405538900491
 21
129.9895832263765
 31
0.0
1001
PHOENIX7010
1002
{
1070
    62
1070
     7
1070
    41
1040
1.0
1002
}
  0
LINE
  5
B2E
330
1A
100
AcDbEntity
  8
1
  6
ACAD_ISO02W100
 62
     5
100
AcDbLine
 10
59.13405538900491
 20
128.4895832263765
 30
0.0
 11
61.43405538900504
 21
128.4895832263765
 31
0.0
1001
PHOENIX7010
1002
{
1070
    62
1070
     7
1070
    41
1040
1.0
1002
}
  0
LINE
  5
B2F
330
1A
100
AcDbEntity
  8
1
  6
ACAD_ISO02W100
 62
     5
100
AcDbLine
 10
59.13405538900491
 20
130.4895832263765
 30
0.0
 11
61.43405538900504
 21
130.4895832263765
 31
0.0
1001
PHOENIX7010
1002
{
1070
    62
1070
     7
1070
    41
1040
1.0
1002
}
  0
LINE
  5
B31
330
1A
100
AcDbEntity
  8
1
  6
Continuous
 62
     7
100
AcDbLine
 10
52.93405538900504
 20
127.6008543215976
 30
0.0
 11
61.43405538900504
 21
127.4895832263766
 31
0.0
1001
PHOENIX7010
1002
{
1070
    62
1070
     7
1070
    41
1040
1.0
1002
}
  0
ARC
  5
B32
330
1A
100
AcDbEntity
  8
1
  6
ACAD_ISO02W100
 62
     5
100
AcDbCircle
 10
59.13405538900491
 20
128.9895832263765
 30
0.0
 40
0.5
100
AcDbArc
 50
180.0
 51
270.0
1001
PHOENIX7010
1002
{
1070
    62
1070
     7
1070
    41
1040
1.0
1002
}
  0
ARC
  5
B33
330
1A
100
AcDbEntity
  8
1
  6
ACAD_ISO02W100
 62
     5
100
AcDbCircle
 10
59.13405538900491
 20
129.9895832263765
 30
0.0
 40
0.5
100
AcDbArc
 50
90.0
 51
180.0
1001
PHOENIX7010
1002
{
1070
    62
1070
     7
1070
    41
1040
1.0
1002
}
  0
LINE
  5
B34
330
1A
100
AcDbEntity
  8
1
  6
ACAD_ISO02W100
 62
     5
100
AcDbLine
 10
53.92969212125575
 20
131.5550728124679
 30
0.0
 11
61.43405538900504
 21
131.4895832263765
 31
0.0
1001
PHOENIX7010
1002
{
1070
    62
1070
     7
1070
    41
1040
1.0
1002
}
  0
ARC
  5
B35
330
1A
100
AcDbEntity
  8
1
  6
ACAD_ISO02W100
 62
     5
100
AcDbCircle
 10
53.93405538900498
 20
132.055053774
 30
0.0
 40
0.5
100
AcDbArc
 50
180.0
 51
269.4999999999954
1001
PHOENIX7010
1002
{
1070
    62
1070
     7
1070
    41
1040
1.0
1002
}
  0
LINE
  5
B63
330
1A
100
AcDbEntity
  8
1
  6
ACAD_ISO02W100
 62
     5
100
AcDbLine
 10
59.93405538900493
 20
177.7895832263764
 30
0.0
 11
59.93405538900493
 21
129.1895832263765
 31
0.0
1001
PHOENIX7010
1002
{
1070
    62
1070
     7
1070
    41
1040
1.0
1002
}
  0
LINE
  5
C0F
330
1A
100
AcDbEntity
  8
1
  6
Continuous
 62
     7
100
AcDbLine
 10
51.43405538900498
 20
177.8783121311553
 30
0.0
 11
52.93405538900504
 21
179.3783121311553
 31
0.0
1001
PHOENIX7010
1002
{
1070
    62
1070
     7
1070
    41
1040
1.0
1002
}
  0
ARC
  5
C10
330
1A
100
AcDbEntity
  8
1
  6
ACAD_ISO02W100
 62
     5
100
AcDbCircle
 10
266.1953054207392
 20
161.5895832263762
 30
0.0
 40
0.7499999999992042
100
AcDbArc
 50
90.0
 51
270.0
1001
PHOENIX7010
1002
{
1070
    62
1070
     7
1070
    41
1040
1.0
1002
}
  0
LINE
  5
C15
330
1A
100
AcDbEntity
  8
1
  6
ACAD_ISO02W100
 62
     5
100
AcDbLine
 10
276.8500429303949
 20
160.8395832263761
 30
0.0
 11
281.6953054207392
 21
160.8395832263761
 31
0.0
1001
PHOENIX7010
1002
{
1070
    62
1070
     7
1070
    41
1040
1.0
1002
}
  0
LINE
  5
C16
330
1A
100
AcDbEntity
  8
1
  6
ACAD_ISO02W100
 62
     5
100
AcDbLine
 10
266.1953054207393
 20
160.8395832263762
 30
0.0
 11
271.0405679110837
 21
160.8395832263762
 31
0.0
1001
PHOENIX7010
1002
{
1070
    62
1070
     7
1070
    41
1040
1.0
1002
}
  0
LINE
  5
C17
330
1A
100
AcDbEntity
  8
1
  6
ACAD_ISO02W100
 62
     5
100
AcDbLine
 10
276.8500429303947
 20
162.3395832263761
 30
0.0
 11
281.6953054207393
 21
162.3395832263761
 31
0.0
1001
PHOENIX7010
1002
{
1070
    62
1070
     7
1070
    41
1040
1.0
1002
}
  0
LINE
  5
C18
330
1A
100
AcDbEntity
  8
1
  6
ACAD_ISO02W100
 62
     5
100
AcDbLine
 10
266.1953054207393
 20
162.3395832263762
 30
0.0
 11
271.0405679110837
 21
162.3395832263762
 31
0.0
1001
PHOENIX7010
1002
{
1070
    62
1070
     7
1070
    41
1040
1.0
1002
}
  0
ARC
  5
C19
330
1A
100
AcDbEntity
  8
1
  6
ACAD_ISO02W100
 62
     5
100
AcDbCircle
 10
273.9453054207392
 20
161.5895832263761
 30
0.0
 40
2.999999999999984
100
AcDbArc
 50
194.4775121859274
 51
345.5224878140704
1001
PHOENIX7010
1002
{
1070
    62
1070
     7
1070
    41
1040
1.0
1002
}
  0
ARC
  5
C1A
330
1A
100
AcDbEntity
  8
1
  6
ACAD_ISO02W100
 62
     5
100
AcDbCircle
 10
273.9453054207392
 20
161.5895832263761
 30
0.0
 40
3.000000000000013
100
AcDbArc
 50
14.47751218593161
 51
165.5224878140683
1001
PHOENIX7010
1002
{
1070
    62
1070
     7
1070
    41
1040
1.0
1002
}
  0
ARC
  5
C1B
330
1A
100
AcDbEntity
  8
1
  6
ACAD_ISO02W100
 62
     5
100
AcDbCircle
 10
281.6953054207393
 20
161.5895832263761
 30
0.0
 40
0.7499999999993179
100
AcDbArc
 50
270.0
 51
90.0
1001
PHOENIX7010
1002
{
1070
    62
1070
     7
1070
    41
1040
1.0
1002
}
  0
CIRCLE
  5
C1C
330
1A
100
AcDbEntity
  8
1
  6
ACAD_ISO02W100
 62
     5
100
AcDbCircle
 10
273.9453054207392
 20
161.5895832263761
 30
0.0
 40
1.200000000000002
1001
PHOENIX7010
1002
{
1070
    62
1070
     7
1070
    41
1040
1.0
1002
}
  0
LINE
  5
C1D
330
1A
100
AcDbEntity
  8
1
  6
ACAD_ISO04W100
 62
     1
100
AcDbLine
 10
263.44530542074
 20
161.5895832263761
 30
0.0
 11
284.4453054207384
 21
161.5895832263761
 31
0.0
1001
PHOENIX7010
1002
{
1070
    62
1070
     1
1070
    41
1040
1.0
1002
}
  0
ARC
  5
C2E
330
1A
100
AcDbEntity
  8
1
  6
ACAD_ISO02W100
 62
     5
100
AcDbCircle
 10
266.1953054207391
 20
145.3895832263762
 30
0.0
 40
0.7499999999992611
100
AcDbArc
 50
90.0
 51
270.0
1001
PHOENIX7010
1002
{
1070
    62
1070
     7
1070
    41
1040
1.0
1002
}
  0
LINE
  5
C2F
330
1A
100
AcDbEntity
  8
1
  6
ACAD_ISO02W100
 62
     5
100
AcDbLine
 10
276.8500429303948
 20
146.1395832263762
 30
0.0
 11
281.6953054207392
 21
146.1395832263762
 31
0.0
1001
PHOENIX7010
1002
{
1070
    62
1070
     7
1070
    41
1040
1.0
1002
}
  0
LINE
  5
C30
330
1A
100
AcDbEntity
  8
1
  6
ACAD_ISO02W100
 62
     5
100
AcDbLine
 10
266.1953054207392
 20
146.1395832263762
 30
0.0
 11
271.0405679110837
 21
146.1395832263762
 31
0.0
1001
PHOENIX7010
1002
{
1070
    62
1070
     7
1070
    41
1040
1.0
1002
}
  0
LINE
  5
C31
330
1A
100
AcDbEntity
  8
1
  6
ACAD_ISO02W100
 62
     5
100
AcDbLine
 10
276.8500429303947
 20
144.6395832263762
 30
0.0
 11
281.6953054207392
 21
144.6395832263762
 31
0.0
1001
PHOENIX7010
1002
{
1070
    62
1070
     7
1070
    41
1040
1.0
1002
}
  0
LINE
  5
C32
330
1A
100
AcDbEntity
  8
1
  6
ACAD_ISO02W100
 62
     5
100
AcDbLine
 10
266.1953054207392
 20
144.6395832263762
 30
0.0
 11
271.0405679110836
 21
144.6395832263762
 31
0.0
1001
PHOENIX7010
1002
{
1070
    62
1070
     7
1070
    41
1040
1.0
1002
}
  0
ARC
  5
C33
330
1A
100
AcDbEntity
  8
1
  6
ACAD_ISO02W100
 62
     5
100
AcDbCircle
 10
273.9453054207392
 20
145.3895832263762
 30
0.0
 40
2.999999999999977
100
AcDbArc
 50
14.47751218592905
 51
165.5224878140709
1001
PHOENIX7010
1002
{
1070
    62
1070
     7
1070
    41
1040
1.0
1002
}
  0
ARC
  5
C34
330
1A
100
AcDbEntity
  8
1
  6
ACAD_ISO02W100
 62
     5
100
AcDbCircle
 10
273.9453054207392
 20
145.3895832263762
 30
0.0
 40
2.999999999999984
100
AcDbArc
 50
194.4775121859295
 51
345.5224878140692
1001
PHOENIX7010
1002
{
1070
    62
1070
     7
1070
    41
1040
1.0
1002
}
  0
ARC
  5
C35
330
1A
100
AcDbEntity
  8
1
  6
ACAD_ISO02W100
 62
     5
100
AcDbCircle
 10
281.6953054207392
 20
145.3895832263762
 30
0.0
 40
0.7499999999992611
100
AcDbArc
 50
270.0
 51
90.0
1001
PHOENIX7010
1002
{
1070
    62
1070
     7
1070
    41
1040
1.0
1002
}
  0
CIRCLE
  5
C36
330
1A
100
AcDbEntity
  8
1
  6
ACAD_ISO02W100
 62
     5
100
AcDbCircle
 10
273.9453054207392
 20
145.3895832263762
 30
0.0
 40
1.200000000000002
1001
PHOENIX7010
1002
{
1070
    62
1070
     7
1070
    41
1040
1.0
1002
}
  0
LINE
  5
C37
330
1A
100
AcDbEntity
  8
1
  6
ACAD_ISO04W100
 62
     1
100
AcDbLine
 10
263.44530542074
 20
145.3895832263762
 30
0.0
 11
284.4453054207384
 21
145.3895832263762
 31
0.0
1001
PHOENIX7010
1002
{
1070
    62
1070
     1
1070
    41
1040
1.0
1002
}
  0
LINE
  5
D80
330
1A
100
AcDbEntity
  8
1
  6
Continuous
 62
     7
100
AcDbLine
 10
115.1416498573019
 20
242.1571331299441
 30
0.0
 11
115.1416498573019
 21
241.1571331299441
 31
0.0
1001
PHOENIX7010
1002
{
1070
    62
1070
     7
1070
    41
1040
1.0
1002
}
  0
LINE
  5
D81
330
1A
100
AcDbEntity
  8
1
  6
Continuous
 62
     7
100
AcDbLine
 10
114.9689177844228
 20
216.1571331299441
 30
0.0
 11
114.6416498573019
 21
241.1571331299441
 31
0.0
1001
PHOENIX7010
1002
{
1070
    62
1070
     7
1070
    41
1040
1.0
1002
}
  0
LINE
  5
D82
330
1A
100
AcDbEntity
  8
1
  6
Continuous
 62
     7
100
AcDbLine
 10
115.9689177844228
 20
215.1571331299441
 30
0.0
 11
114.9689177844228
 21
216.1571331299441
 31
0.0
1001
PHOENIX7010
1002
{
1070
    62
1070
     7
1070
    41
1040
1.0
1002
}
  0
LINE
  5
D83
330
1A
100
AcDbEntity
  8
1
  6
Continuous
 62
     7
100
AcDbLine
 10
163.314381930181
 20
215.1571331299441
 30
0.0
 11
115.9689177844228
 21
215.1571331299441
 31
0.0
1001
PHOENIX7010
1002
{
1070
    62
1070
     7
1070
    41
1040
1.0
1002
}
  0
LINE
  5
D84
330
1A
100
AcDbEntity
  8
1
  6
Continuous
 62
     7
100
AcDbLine
 10
163.314381930181
 20
215.1571331299441
 30
0.0
 11
164.314381930181
 21
216.1571331299441
 31
0.0
1001
PHOENIX7010
1002
{
1070
    62
1070
     7
1070
    41
1040
1.0
1002
}
  0
LINE
  5
D85
330
1A
100
AcDbEntity
  8
1
  6
Continuous
 62
     7
100
AcDbLine
 10
164.1416498573019
 20
242.1571331299441
 30
0.0
 11
164.1416498573019
 21
241.1571331299441
 31
0.0
1001
PHOENIX7010
1002
{
1070
    62
1070
     7
1070
    41
1040
1.0
1002
}
  0
LINE
  5
D86
330
1A
100
AcDbEntity
  8
1
  6
Continuous
 62
     7
100
AcDbLine
 10
164.314381930181
 20
216.1571331299441
 30
0.0
 11
164.6416498573019
 21
241.1571331299441
 31
0.0
1001
PHOENIX7010
1002
{
1070
    62
1070
     7
1070
    41
1040
1.0
1002
}
  0
LINE
  5
D87
330
1A
100
AcDbEntity
  8
1
  6
ACAD_ISO02W100
 62
     5
100
AcDbLine
 10
163.1416498573018
 20
242.1571331299441
 30
0.0
 11
162.9416498573018
 21
243.6571331299441
 31
0.0
1001
PHOENIX7010
1002
{
1070
    62
1070
     7
1070
    41
1040
1.0
1002
}
  0
LINE
  5
D88
330
1A
100
AcDbEntity
  8
1
  6
ACAD_ISO02W100
 62
     5
100
AcDbLine
 10
116.1416498573021
 20
242.1571331299441
 30
0.0
 11
116.3416498573021
 21
243.6571331299441
 31
0.0
1001
PHOENIX7010
1002
{
1070
    62
1070
     7
1070
    41
1040
1.0
1002
}
  0
LINE
  5
D89
330
1A
100
AcDbEntity
  8
1
  6
ACAD_ISO04W100
 62
     1
100
AcDbLine
 10
139.6416498573019
 20
254.1571331299441
 30
0.0
 11
139.6416498573019
 21
212.657133129944
 31
0.0
1001
PHOENIX7010
1002
{
1070
    62
1070
     1
1070
    41
1040
1.0
1002
}
  0
LINE
  5
D8A
330
1A
100
AcDbEntity
  8
1
  6
Continuous
 62
     7
100
AcDbLine
 10
114.6416498573019
 20
241.1571331299441
 30
0.0
 11
164.6416498573019
 21
241.1571331299441
 31
0.0
1001
PHOENIX7010
1002
{
1070
    62
1070
     7
1070
    41
1040
1.0
1002
}
  0
LINE
  5
D8C
330
1A
100
AcDbEntity
  8
1
  6
Continuous
 62
     7
100
AcDbLine
 10
164.6416498573019
 20
242.1571331299441
 30
0.0
 11
114.641649857302
 21
242.1571331299441
 31
0.0
1001
PHOENIX7010
1002
{
1070
    62
1070
     7
1070
    41
1040
1.0
1002
}
  0
LINE
  5
D8E
330
1A
100
AcDbEntity
  8
1
  6
ACAD_ISO02W100
 62
     5
100
AcDbLine
 10
162.9416498573018
 20
243.6571331299441
 30
0.0
 11
116.3416498573021
 21
243.6571331299441
 31
0.0
1001
PHOENIX7010
1002
{
1070
    62
1070
     7
1070
    41
1040
1.0
1002
}
  0
LINE
  5
D8F
330
1A
100
AcDbEntity
  8
1
  6
ACAD_ISO02W100
 62
     5
100
AcDbLine
 10
117.8685674590549
 20
217.1571331299442
 30
0.0
 11
161.4147322555489
 21
217.1571331299441
 31
0.0
1001
PHOENIX7010
1002
{
1070
    62
1070
     7
1070
    41
1040
1.0
1002
}
  0
LINE
  5
D90
330
1A
100
AcDbEntity
  8
1
  6
ACAD_ISO04W100
 62
     1
100
AcDbLine
 10
158.6416498573018
 20
245.6571331299441
 30
0.0
 11
158.6416498573018
 21
212.657133129944
 31
0.0
1001
PHOENIX7010
1002
{
1070
    62
1070
     1
1070
    41
1040
1.0
1002
}
  0
LINE
  5
D91
330
1A
100
AcDbEntity
  8
1
  6
ACAD_ISO04W100
 62
     1
100
AcDbLine
 10
120.6416498573019
 20
245.6571331299441
 30
0.0
 11
120.6416498573019
 21
212.657133129944
 31
0.0
1001
PHOENIX7010
1002
{
1070
    62
1070
     1
1070
    41
1040
1.0
1002
}
  0
LINE
  5
D92
330
1A
100
AcDbEntity
  8
1
  6
Continuous
 62
     7
100
AcDbLine
 10
162.6416498573018
 20
215.1571331299441
 30
0.0
 11
162.6416498573018
 21
214.657133129944
 31
0.0
1001
PHOENIX7010
1002
{
1070
    62
1070
     7
1070
    41
1040
1.0
1002
}
  0
LINE
  5
D93
330
1A
100
AcDbEntity
  8
1
  6
Continuous
 62
     7
100
AcDbLine
 10
154.6416498573019
 20
214.657133129944
 30
0.0
 11
162.6416498573018
 21
214.657133129944
 31
0.0
1001
PHOENIX7010
1002
{
1070
    62
1070
     7
1070
    41
1040
1.0
1002
}
  0
LINE
  5
D94
330
1A
100
AcDbEntity
  8
1
  6
Continuous
 62
     7
100
AcDbLine
 10
154.6416498573019
 20
215.1571331299441
 30
0.0
 11
154.6416498573019
 21
214.657133129944
 31
0.0
1001
PHOENIX7010
1002
{
1070
    62
1070
     7
1070
    41
1040
1.0
1002
}
  0
LINE
  5
D95
330
1A
100
AcDbEntity
  8
1
  6
Continuous
 62
     7
100
AcDbLine
 10
120.1416498573019
 20
214.6571331299443
 30
0.0
 11
120.1416498573019
 21
215.1571331299443
 31
0.0
1001
PHOENIX7010
1002
{
1070
    62
1070
     7
1070
    41
1040
1.0
1002
}
  0
LINE
  5
D96
330
1A
100
AcDbEntity
  8
1
  6
Continuous
 62
     7
100
AcDbLine
 10
125.1416498573019
 20
214.657133129944
 30
0.0
 11
120.1416498573019
 21
214.6571331299443
 31
0.0
1001
PHOENIX7010
1002
{
1070
    62
1070
     7
1070
    41
1040
1.0
1002
}
  0
LINE
  5
D97
330
1A
100
AcDbEntity
  8
1
  6
Continuous
 62
     7
100
AcDbLine
 10
125.1416498573019
 20
215.1571331299441
 30
0.0
 11
125.1416498573019
 21
214.657133129944
 31
0.0
1001
PHOENIX7010
1002
{
1070
    62
1070
     7
1070
    41
1040
1.0
1002
}
  0
LINE
  5
D98
330
1A
100
AcDbEntity
  8
1
  6
ACAD_ISO02W100
 62
     5
100
AcDbLine
 10
148.1416498573015
 20
222.6571331299441
 30
0.0
 11
131.1416498573027
 21
222.6571331299441
 31
0.0
1001
PHOENIX7010
1002
{
1070
    62
1070
     7
1070
    41
1040
1.0
1002
}
  0
LINE
  5
D99
330
1A
100
AcDbEntity
  8
1
  6
ACAD_ISO02W100
 62
     5
100
AcDbLine
 10
142.5463873669576
 20
222.6571331299441
 30
0.0
 11
142.5463873669576
 21
217.1571331299441
 31
0.0
1001
PHOENIX7010
1002
{
1070
    62
1070
     7
1070
    41
1040
1.0
1002
}
  0
LINE
  5
D9A
330
1A
100
AcDbEntity
  8
1
  6
ACAD_ISO02W100
 62
     5
100
AcDbLine
 10
136.7369123476463
 20
222.6571331299441
 30
0.0
 11
136.7369123476463
 21
217.1571331299441
 31
0.0
1001
PHOENIX7010
1002
{
1070
    62
1070
     7
1070
    41
1040
1.0
1002
}
  0
LINE
  5
D9B
330
1A
100
AcDbEntity
  8
1
  6
ACAD_ISO02W100
 62
     5
100
AcDbLine
 10
148.1416498573015
 20
217.1571331299441
 30
0.0
 11
148.1416498573015
 21
222.6571331299441
 31
0.0
1001
PHOENIX7010
1002
{
1070
    62
1070
     7
1070
    41
1040
1.0
1002
}
  0
LINE
  5
D9C
330
1A
100
AcDbEntity
  8
1
  6
ACAD_ISO02W100
 62
     5
100
AcDbLine
 10
131.1416498573027
 20
217.1571331299441
 30
0.0
 11
131.1416498573027
 21
222.6571331299441
 31
0.0
1001
PHOENIX7010
1002
{
1070
    62
1070
     7
1070
    41
1040
1.0
1002
}
  0
ARC
  5
D9D
330
1A
100
AcDbEntity
  8
1
  6
ACAD_ISO02W100
 62
     5
100
AcDbCircle
 10
153.2147322555491
 20
217.6571331299441
 30
0.0
 40
0.5
100
AcDbArc
 50
270.0
 51
359.4999999999954
1001
PHOENIX7010
1002
{
1070
    62
1070
     7
1070
    41
1040
1.0
1002
}
  0
LINE
  5
D9E
330
1A
100
AcDbEntity
  8
1
  6
ACAD_ISO02W100
 62
     5
100
AcDbLine
 10
153.7147132170813
 20
217.6527698621948
 30
0.0
 11
153.9416498573018
 21
243.6571331299441
 31
0.0
1001
PHOENIX7010
1002
{
1070
    62
1070
     7
1070
    41
1040
1.0
1002
}
  0
ARC
  5
D9F
330
1A
100
AcDbEntity
  8
1
  6
ACAD_ISO02W100
 62
     5
100
AcDbCircle
 10
161.4147322555489
 20
217.6571331299442
 30
0.0
 40
0.5
100
AcDbArc
 50
270.0
 51
359.4999999999954
1001
PHOENIX7010
1002
{
1070
    62
1070
     7
1070
    41
1040
1.0
1002
}
  0
LINE
  5
DA0
330
1A
100
AcDbEntity
  8
1
  6
ACAD_ISO02W100
 62
     5
100
AcDbLine
 10
161.914713217081
 20
217.652769862195
 30
0.0
 11
162.1416498573015
 21
243.6571331299442
 31
0.0
1001
PHOENIX7010
1002
{
1070
    62
1070
     7
1070
    41
1040
1.0
1002
}
  0
ARC
  5
DA1
330
1A
100
AcDbEntity
  8
1
  6
ACAD_ISO02W100
 62
     5
100
AcDbCircle
 10
126.0685674590547
 20
217.6571331299441
 30
0.0
 40
0.5000000000000031
100
AcDbArc
 50
180.5000000000046
 51
270.0
1001
PHOENIX7010
1002
{
1070
    62
1070
     7
1070
    41
1040
1.0
1002
}
  0
LINE
  5
DA2
330
1A
100
AcDbEntity
  8
1
  6
ACAD_ISO02W100
 62
     5
100
AcDbLine
 10
125.5685864975226
 20
217.6527698621948
 30
0.0
 11
125.341649857302
 21
243.6571331299441
 31
0.0
1001
PHOENIX7010
1002
{
1070
    62
1070
     7
1070
    41
1040
1.0
1002
}
  0
ARC
  5
DA3
330
1A
100
AcDbEntity
  8
1
  6
ACAD_ISO02W100
 62
     5
100
AcDbCircle
 10
117.8685674590549
 20
217.6571331299442
 30
0.0
 40
0.5000000000000316
100
AcDbArc
 50
180.5000000000046
 51
270.0
1001
PHOENIX7010
1002
{
1070
    62
1070
     7
1070
    41
1040
1.0
1002
}
  0
LINE
  5
DA4
330
1A
100
AcDbEntity
  8
1
  6
ACAD_ISO02W100
 62
     5
100
AcDbLine
 10
117.3685864975228
 20
217.652769862195
 30
0.0
 11
117.1416498573023
 21
243.6571331299442
 31
0.0
1001
PHOENIX7010
1002
{
1070
    62
1070
     7
1070
    41
1040
1.0
1002
}
  0
ARC
  5
1C13
102
{ACAD_REACTORS
330
1C5A
102
}
330
1A
100
AcDbEntity
  8
0
  6
Continuous
 62
     7
100
AcDbCircle
 10
254.9453054207392
 20
133.4895832263762
 30
0.0
 40
6.0
100
AcDbArc
 50
180.0
 51
270.0
1001
PHOENIX7010
1002
{
1070
    62
1070
     7
1070
    41
1040
1.0
1002
}
  0
ARC
  5
1C14
102
{ACAD_REACTORS
330
1C5A
330
7481
102
}
330
1A
100
AcDbEntity
  8
0
  6
Continuous
 62
     7
100
AcDbCircle
 10
292.9453054207392
 20
133.4895832263762
 30
0.0
 40
6.0
100
AcDbArc
 50
270.0
 51
0.0
1001
PHOENIX7010
1002
{
1070
    62
1070
     7
1070
    41
1040
1.0
1002
}
  0
ARC
  5
1C15
102
{ACAD_REACTORS
330
1C5A
102
}
330
1A
100
AcDbEntity
  8
0
  6
Continuous
 62
     7
100
AcDbCircle
 10
292.9453054207392
 20
173.4895832263762
 30
0.0
 40
6.0
100
AcDbArc
 50
0.0
 51
90.0
1001
PHOENIX7010
1002
{
1070
    62
1070
     7
1070
    41
1040
1.0
1002
}
  0
ARC
  5
1C16
102
{ACAD_REACTORS
330
1C5A
102
}
330
1A
100
AcDbEntity
  8
0
  6
Continuous
 62
     7
100
AcDbCircle
 10
254.9453054207392
 20
173.4895832263762
 30
0.0
 40
6.0
100
AcDbArc
 50
90.0
 51
180.0
1001
PHOENIX7010
1002
{
1070
    62
1070
     7
1070
    41
1040
1.0
1002
}
  0
ARC
  5
1C17
102
{ACAD_REACTORS
330
1C5A
102
}
330
1A
100
AcDbEntity
  8
0
  6
Continuous
 62
     7
100
AcDbCircle
 10
258.945305420739
 20
133.4895832263762
 30
0.0
 40
0.5000000000001706
100
AcDbArc
 50
180.0
 51
0.0
1001
PHOENIX7010
1002
{
1070
    62
1070
     7
1070
    41
1040
1.0
1002
}
  0
ARC
  5
1C18
102
{ACAD_REACTORS
330
1C5A
102
}
330
1A
100
AcDbEntity
  8
0
  6
Continuous
 62
     7
100
AcDbCircle
 10
254.9453054207392
 20
137.4895832263764
 30
0.0
 40
0.5000000000001706
100
AcDbArc
 50
90.0
 51
270.0
1001
PHOENIX7010
1002
{
1070
    62
1070
     7
1070
    41
1040
1.0
1002
}
  0
ARC
  5
1C19
102
{ACAD_REACTORS
330
1C5A
102
}
330
1A
100
AcDbEntity
  8
0
  6
Continuous
 62
     7
100
AcDbCircle
 10
292.9453054207392
 20
169.489583226376
 30
0.0
 40
0.5000000000001706
100
AcDbArc
 50
270.0
 51
90.0
1001
PHOENIX7010
1002
{
1070
    62
1070
     7
1070
    41
1040
1.0
1002
}
  0
ARC
  5
1C1A
102
{ACAD_REACTORS
330
1C5A
102
}
330
1A
100
AcDbEntity
  8
0
  6
Continuous
 62
     7
100
AcDbCircle
 10
288.9453054207394
 20
173.4895832263762
 30
0.0
 40
0.5000000000001831
100
AcDbArc
 50
0.0
 51
180.0
1001
PHOENIX7010
1002
{
1070
    62
1070
     7
1070
    41
1040
1.0
1002
}
  0
ARC
  5
1C1B
102
{ACAD_REACTORS
330
1C5A
102
}
330
1A
100
AcDbEntity
  8
0
  6
Continuous
 62
     7
100
AcDbCircle
 10
292.9453054207392
 20
173.4895832263762
 30
0.0
 40
4.5
100
AcDbArc
 50
180.0
 51
270.0
1001
PHOENIX7010
1002
{
1070
    62
1070
     7
1070
    41
1040
1.0
1002
}
  0
ARC
  5
1C1C
102
{ACAD_REACTORS
330
1C5A
102
}
330
1A
100
AcDbEntity
  8
0
  6
Continuous
 62
     7
100
AcDbCircle
 10
254.9453054207392
 20
133.4895832263762
 30
0.0
 40
4.5
100
AcDbArc
 50
0.0
 51
90.0
1001
PHOENIX7010
1002
{
1070
    62
1070
     7
1070
    41
1040
1.0
1002
}
  0
LINE
  5
1C1D
102
{ACAD_REACTORS
330
1C5A
102
}
330
1A
100
AcDbEntity
  8
0
  6
Continuous
 62
     7
100
AcDbLine
 10
254.9453054207392
 20
150.9895832263762
 30
0.0
 11
254.9453054207392
 21
140.4895832263762
 31
0.0
1001
PHOENIX7010
1002
{
1070
    62
1070
     7
1070
    41
1040
1.0
1002
}
  0
LINE
  5
1C1E
102
{ACAD_REACTORS
330
1C5A
102
}
330
1A
100
AcDbEntity
  8
0
  6
Continuous
 62
     7
100
AcDbLine
 10
254.9453054207392
 20
166.4895832263762
 30
0.0
 11
254.9453054207392
 21
155.9895832263762
 31
0.0
1001
PHOENIX7010
1002
{
1070
    62
1070
     7
1070
    41
1040
1.0
1002
}
  0
TEXT
  5
1C1F
102
{ACAD_REACTORS
330
1C5A
102
}
330
1A
100
AcDbEntity
  8
0
  6
Continuous
 62
     7
100
AcDbText
 10
255.8185331577981
 20
151.9466806325997
 30
0.0
 40
1.75
  1
40
 50
90.0
 41
1.5
100
AcDbText
1001
PHOENIX7010
1002
{
1070
    62
1070
     7
1070
    41
1040
1.0
1002
}
  0
LINE
  5
1C20
102
{ACAD_REACTORS
330
1C5A
102
}
330
1A
100
AcDbEntity
  8
0
  6
Continuous
 62
     7
100
AcDbLine
 10
285.9453054207392
 20
173.4895832263762
 30
0.0
 11
276.4453054207393
 21
173.4895832263762
 31
0.0
1001
PHOENIX7010
1002
{
1070
    62
1070
     7
1070
    41
1040
1.0
1002
}
  0
LINE
  5
1C21
102
{ACAD_REACTORS
330
1C5A
102
}
330
1A
100
AcDbEntity
  8
0
  6
Continuous
 62
     7
100
AcDbLine
 10
271.4453054207393
 20
173.4895832263762
 30
0.0
 11
261.9453054207393
 21
173.4895832263762
 31
0.0
1001
PHOENIX7010
1002
{
1070
    62
1070
     7
1070
    41
1040
1.0
1002
}
  0
TEXT
  5
1C22
102
{ACAD_REACTORS
330
1C5A
102
}
330
1A
100
AcDbEntity
  8
0
  6
Continuous
 62
     7
100
AcDbText
 10
272.4024028269628
 20
172.6163554893174
 30
0.0
 40
1.75
  1
38
 41
1.5
100
AcDbText
1001
PHOENIX7010
1002
{
1070
    62
1070
     7
1070
    41
1040
1.0
1002
}
  0
LINE
  5
1C23
102
{ACAD_REACTORS
330
1C5A
102
}
330
1A
100
AcDbEntity
  8
0
  6
ACAD_ISO04W100
 62
     1
100
AcDbLine
 10
300.9453054207392
 20
153.4895832263762
 30
0.0
 11
246.9453054207392
 21
153.4895832263762
 31
0.0
1001
PHOENIX7010
1002
{
1070
    62
1070
     1
1070
    41
1040
1.0
1002
}
  0
LINE
  5
1C24
102
{ACAD_REACTORS
330
1C5A
102
}
330
1A
100
AcDbEntity
  8
0
  6
ACAD_ISO04W100
 62
     1
100
AcDbLine
 10
273.9453054207392
 20
125.4895832263762
 30
0.0
 11
273.9453054207392
 21
181.4895832263762
 31
0.0
1001
PHOENIX7010
1002
{
1070
    62
1070
     1
1070
    41
1040
1.0
1002
}
  0
LINE
  5
1C25
102
{ACAD_REACTORS
330
1C5A
330
5507
102
}
330
1A
100
AcDbEntity
  8
0
  6
Continuous
 62
     7
100
AcDbLine
 10
298.9453054207393
 20
133.4895832263762
 30
0.0
 11
298.9453054207393
 21
173.4895832263762
 31
0.0
1001
PHOENIX7010
1002
{
1070
    62
1070
     7
1070
    41
1040
1.0
1002
}
  0
LINE
  5
1C26
102
{ACAD_REACTORS
330
1C5A
102
}
330
1A
100
AcDbEntity
  8
0
  6
Continuous
 62
     7
100
AcDbLine
 10
248.9453054207392
 20
133.4895832263762
 30
0.0
 11
248.9453054207392
 21
173.4895832263762
 31
0.0
1001
PHOENIX7010
1002
{
1070
    62
1070
     7
1070
    41
1040
1.0
1002
}
  0
LINE
  5
1C27
102
{ACAD_REACTORS
330
1C5A
330
7480
102
}
330
1A
100
AcDbEntity
  8
0
  6
Continuous
 62
     7
100
AcDbLine
 10
292.9453054207392
 20
179.4895832263762
 30
0.0
 11
254.9453054207392
 21
179.4895832263762
 31
0.0
1001
PHOENIX7010
1002
{
1070
    62
1070
     7
1070
    41
1040
1.0
1002
}
  0
LINE
  5
1C28
102
{ACAD_REACTORS
330
1C5A
102
}
330
1A
100
AcDbEntity
  8
0
  6
Continuous
 62
     7
100
AcDbLine
 10
292.9453054207392
 20
127.4895832263762
 30
0.0
 11
254.9453054207392
 21
127.4895832263762
 31
0.0
1001
PHOENIX7010
1002
{
1070
    62
1070
     7
1070
    41
1040
1.0
1002
}
  0
LINE
  5
1C29
102
{ACAD_REACTORS
330
1C5A
102
}
330
1A
100
AcDbEntity
  8
0
  6
ACAD_ISO04W100
 62
     1
 48
0.5708661417322835
100
AcDbLine
 10
292.9453054207392
 20
181.4895832263762
 30
0.0
 11
292.9453054207392
 21
166.9895832263762
 31
0.0
1001
PHOENIX7010
1002
{
1070
    62
1070
     1
1070
    41
1040
1.0
1002
}
  0
LINE
  5
1C2A
102
{ACAD_REACTORS
330
1C5A
102
}
330
1A
100
AcDbEntity
  8
0
  6
ACAD_ISO04W100
 62
     1
 48
0.5708661417322835
100
AcDbLine
 10
246.9453054207392
 20
133.4895832263762
 30
0.0
 11
261.4453054207392
 21
133.4895832263762
 31
0.0
1001
PHOENIX7010
1002
{
1070
    62
1070
     1
1070
    41
1040
1.0
1002
}
  0
LINE
  5
1C2B
102
{ACAD_REACTORS
330
1C5A
102
}
330
1A
100
AcDbEntity
  8
0
  6
ACAD_ISO04W100
 62
     1
 48
0.5511811023622047
100
AcDbLine
 10
292.9453054207392
 20
125.4895832263762
 30
0.0
 11
292.9453054207392
 21
139.4895832263762
 31
0.0
1001
PHOENIX7010
1002
{
1070
    62
1070
     1
1070
    41
1040
1.0
1002
}
  0
LINE
  5
1C2C
102
{ACAD_REACTORS
330
1C5A
102
}
330
1A
100
AcDbEntity
  8
0
  6
ACAD_ISO04W100
 62
     1
 48
0.5511811023622047
100
AcDbLine
 10
300.9453054207392
 20
133.4895832263762
 30
0.0
 11
286.9453054207393
 21
133.4895832263762
 31
0.0
1001
PHOENIX7010
1002
{
1070
    62
1070
     1
1070
    41
1040
1.0
1002
}
  0
LINE
  5
1C2D
102
{ACAD_REACTORS
330
1C5A
102
}
330
1A
100
AcDbEntity
  8
0
  6
ACAD_ISO04W100
 62
     1
 48
0.5708661417322835
100
AcDbLine
 10
254.9453054207392
 20
125.4895832263762
 30
0.0
 11
254.9453054207392
 21
139.9895832263762
 31
0.0
1001
PHOENIX7010
1002
{
1070
    62
1070
     1
1070
    41
1040
1.0
1002
}
  0
LINE
  5
1C2E
102
{ACAD_REACTORS
330
1C5A
102
}
330
1A
100
AcDbEntity
  8
0
  6
ACAD_ISO04W100
 62
     1
 48
0.6957517446571585
100
AcDbLine
 10
300.9453054207392
 20
173.4895832263762
 30
0.0
 11
283.2732111064474
 21
173.4895832263762
 31
0.0
1001
PHOENIX7010
1002
{
1070
    62
1070
     1
1070
    41
1040
1.0
1002
}
  0
LINE
  5
1C2F
102
{ACAD_REACTORS
330
1C5A
102
}
330
1A
100
AcDbEntity
  8
0
  6
ACAD_ISO04W100
 62
     1
 48
0.5511811023622047
100
AcDbLine
 10
246.9453054207392
 20
173.4895832263762
 30
0.0
 11
260.9453054207393
 21
173.4895832263762
 31
0.0
1001
PHOENIX7010
1002
{
1070
    62
1070
     1
1070
    41
1040
1.0
1002
}
  0
LINE
  5
1C30
102
{ACAD_REACTORS
330
1C5A
102
}
330
1A
100
AcDbEntity
  8
0
  6
ACAD_ISO04W100
 62
     1
 48
0.5511811023622047
100
AcDbLine
 10
254.9453054207392
 20
181.4895832263762
 30
0.0
 11
254.9453054207392
 21
167.4895832263762
 31
0.0
1001
PHOENIX7010
1002
{
1070
    62
1070
     1
1070
    41
1040
1.0
1002
}
  0
ARC
  5
1C31
102
{ACAD_REACTORS
330
1C5A
102
}
330
1A
100
AcDbEntity
  8
0
  6
Continuous
 62
     7
100
AcDbCircle
 10
254.9453054207392
 20
133.4895832263762
 30
0.0
 40
3.5
100
AcDbArc
 50
0.0
 51
90.0
1001
PHOENIX7010
1002
{
1070
    62
1070
     7
1070
    41
1040
1.0
1002
}
  0
ARC
  5
1C32
102
{ACAD_REACTORS
330
1C5A
102
}
330
1A
100
AcDbEntity
  8
0
  6
Continuous
 62
     7
100
AcDbCircle
 10
287.8388470803908
 20
177.2895832263762
 30
0.0
 40
0.1999999999999886
100
AcDbArc
 50
90.0
 51
230.851312357729
1001
PHOENIX7010
1002
{
1070
    62
1070
     7
1070
    41
1040
1.0
1002
}
  0
LINE
  5
1C33
102
{ACAD_REACTORS
330
1C5A
102
}
330
1A
100
AcDbEntity
  8
0
  6
Continuous
 62
     7
100
AcDbLine
 10
287.8388470803908
 20
177.4895832263762
 30
0.0
 11
292.9453054207391
 21
177.4895832263762
 31
0.0
1001
PHOENIX7010
1002
{
1070
    62
1070
     7
1070
    41
1040
1.0
1002
}
  0
ARC
  5
1C34
102
{ACAD_REACTORS
330
1C5A
102
}
330
1A
100
AcDbEntity
  8
0
  6
Continuous
 62
     1
100
AcDbCircle
 10
292.9453054207392
 20
173.4895832263762
 30
0.0
 40
2.000000000000007
100
AcDbArc
 50
75.52248781407008
 51
14.47751218592951
1001
PHOENIX7010
1002
{
1070
    62
1070
     1
1070
    41
1040
1.0
1002
}
  0
CIRCLE
  5
1C35
102
{ACAD_REACTORS
330
1C5A
102
}
330
1A
100
AcDbEntity
  8
0
  6
Continuous
 62
     7
100
AcDbCircle
 10
292.9453054207392
 20
173.4895832263762
 30
0.0
 40
1.3
1001
PHOENIX7010
1002
{
1070
    62
1070
     7
1070
    41
1040
1.0
1002
}
  0
ARC
  5
1C36
102
{ACAD_REACTORS
330
1C5A
102
}
330
1A
100
AcDbEntity
  8
0
  6
Continuous
 62
     7
100
AcDbCircle
 10
292.9453054207392
 20
173.4895832263762
 30
0.0
 40
3.500000000000113
100
AcDbArc
 50
180.0
 51
270.0
1001
PHOENIX7010
1002
{
1070
    62
1070
     7
1070
    41
1040
1.0
1002
}
  0
ARC
  5
1C37
102
{ACAD_REACTORS
330
1C5A
102
}
330
1A
100
AcDbEntity
  8
0
  6
Continuous
 62
     7
100
AcDbCircle
 10
263.1453054207392
 20
133.4895832263762
 30
0.0
 40
4.69999999999996
100
AcDbArc
 50
180.0
 51
230.8513123577469
1001
PHOENIX7010
1002
{
1070
    62
1070
     7
1070
    41
1040
1.0
1002
}
  0
LINE
  5
1C38
102
{ACAD_REACTORS
330
1C5A
102
}
330
1A
100
AcDbEntity
  8
0
  6
Continuous
 62
     7
100
AcDbLine
 10
260.0517637610876
 20
129.4895832263762
 30
0.0
 11
254.9453054207392
 21
129.4895832263762
 31
0.0
1001
PHOENIX7010
1002
{
1070
    62
1070
     7
1070
    41
1040
1.0
1002
}
  0
ARC
  5
1C39
102
{ACAD_REACTORS
330
1C5A
102
}
330
1A
100
AcDbEntity
  8
0
  6
Continuous
 62
     7
100
AcDbCircle
 10
251.1453054207392
 20
138.5960415667247
 30
0.0
 40
0.1999999999999997
100
AcDbArc
 50
39.14868764225348
 51
180.0
1001
PHOENIX7010
1002
{
1070
    62
1070
     7
1070
    41
1040
1.0
1002
}
  0
ARC
  5
1C3A
102
{ACAD_REACTORS
330
1C5A
102
}
330
1A
100
AcDbEntity
  8
0
  6
Continuous
 62
     7
100
AcDbCircle
 10
260.0517637610876
 20
129.6895832263763
 30
0.0
 40
0.1999999999999744
100
AcDbArc
 50
270.0
 51
50.85131235774682
1001
PHOENIX7010
1002
{
1070
    62
1070
     7
1070
    41
1040
1.0
1002
}
  0
LINE
  5
1C3B
102
{ACAD_REACTORS
330
1C5A
102
}
330
1A
100
AcDbEntity
  8
0
  6
Continuous
 62
     7
100
AcDbLine
 10
250.9453054207392
 20
138.5960415667247
 30
0.0
 11
250.9453054207392
 21
133.4895832263762
 31
0.0
1001
PHOENIX7010
1002
{
1070
    62
1070
     7
1070
    41
1040
1.0
1002
}
  0
ARC
  5
1C3C
102
{ACAD_REACTORS
330
1C5A
102
}
330
1A
100
AcDbEntity
  8
0
  6
Continuous
 62
     7
100
AcDbCircle
 10
254.9453054207392
 20
141.6895832263763
 30
0.0
 40
4.699999999999974
100
AcDbArc
 50
219.1486876422535
 51
270.0
1001
PHOENIX7010
1002
{
1070
    62
1070
     7
1070
    41
1040
1.0
1002
}
  0
ARC
  5
1C3D
102
{ACAD_REACTORS
330
1C5A
102
}
330
1A
100
AcDbEntity
  8
0
  6
Continuous
 62
     7
100
AcDbCircle
 10
254.9453054207392
 20
133.4895832263762
 30
0.0
 40
4.672732072879142
100
AcDbArc
 50
180.0
 51
270.0
1001
PHOENIX7010
1002
{
1070
    62
1070
     7
1070
    41
1040
1.0
1002
}
  0
ARC
  5
1C3E
102
{ACAD_REACTORS
330
1C5A
102
}
330
1A
100
AcDbEntity
  8
0
  6
Continuous
 62
     7
100
AcDbCircle
 10
292.9453054207392
 20
133.4895832263762
 30
0.0
 40
4.672732072879128
100
AcDbArc
 50
270.0
 51
0.0
1001
PHOENIX7010
1002
{
1070
    62
1070
     7
1070
    41
1040
1.0
1002
}
  0
LINE
  5
1C3F
102
{ACAD_REACTORS
330
1C5A
102
}
330
1A
100
AcDbEntity
  8
0
  6
Continuous
 62
     7
100
AcDbLine
 10
292.9453054207391
 20
128.8168511534971
 30
0.0
 11
254.9453054207392
 21
128.8168511534971
 31
0.0
1001
PHOENIX7010
1002
{
1070
    62
1070
     7
1070
    41
1040
1.0
1002
}
  0
ARC
  5
1C40
102
{ACAD_REACTORS
330
1C5A
102
}
330
1A
100
AcDbEntity
  8
0
  6
Continuous
 62
     7
100
AcDbCircle
 10
254.9453054207392
 20
133.4895832263762
 30
0.0
 40
4.0
100
AcDbArc
 50
180.0
 51
270.0
1001
PHOENIX7010
1002
{
1070
    62
1070
     7
1070
    41
1040
1.0
1002
}
  0
LINE
  5
1C41
102
{ACAD_REACTORS
330
1C5A
102
}
330
1A
100
AcDbEntity
  8
0
  6
Continuous
 62
     7
100
AcDbLine
 10
297.6180374936183
 20
173.4895832263762
 30
0.0
 11
297.6180374936183
 21
133.4895832263762
 31
0.0
1001
PHOENIX7010
1002
{
1070
    62
1070
     7
1070
    41
1040
1.0
1002
}
  0
CIRCLE
  5
1C42
102
{ACAD_REACTORS
330
1C5A
102
}
330
1A
100
AcDbEntity
  8
0
  6
Continuous
 62
     7
100
AcDbCircle
 10
292.9453054207392
 20
133.4895832263762
 30
0.0
 40
2.100000000000022
1001
PHOENIX7010
1002
{
1070
    62
1070
     7
1070
    41
1040
1.0
1002
}
  0
LINE
  5
1C43
102
{ACAD_REACTORS
330
1C5A
102
}
330
1A
100
AcDbEntity
  8
0
  6
Continuous
 62
     7
100
AcDbLine
 10
254.9453054207392
 20
178.1623152992554
 30
0.0
 11
292.9453054207392
 21
178.1623152992554
 31
0.0
1001
PHOENIX7010
1002
{
1070
    62
1070
     7
1070
    41
1040
1.0
1002
}
  0
ARC
  5
1C44
102
{ACAD_REACTORS
330
1C5A
102
}
330
1A
100
AcDbEntity
  8
0
  6
Continuous
 62
     7
100
AcDbCircle
 10
254.9453054207392
 20
173.4895832263762
 30
0.0
 40
4.672732072879142
100
AcDbArc
 50
90.0
 51
180.0
1001
PHOENIX7010
1002
{
1070
    62
1070
     7
1070
    41
1040
1.0
1002
}
  0
CIRCLE
  5
1C45
102
{ACAD_REACTORS
330
1C5A
102
}
330
1A
100
AcDbEntity
  8
0
  6
Continuous
 62
     7
100
AcDbCircle
 10
254.9453054207392
 20
173.4895832263762
 30
0.0
 40
2.099999999999994
1001
PHOENIX7010
1002
{
1070
    62
1070
     7
1070
    41
1040
1.0
1002
}
  0
CIRCLE
  5
1C46
102
{ACAD_REACTORS
330
1C5A
102
}
330
1A
100
AcDbEntity
  8
0
  6
Continuous
 62
     7
100
AcDbCircle
 10
292.9453054207392
 20
133.4895832263762
 30
0.0
 40
4.0
1001
PHOENIX7010
1002
{
1070
    62
1070
     7
1070
    41
1040
1.0
1002
}
  0
LINE
  5
1C47
102
{ACAD_REACTORS
330
1C5A
102
}
330
1A
100
AcDbEntity
  8
0
  6
Continuous
 62
     7
100
AcDbLine
 10
250.2725733478601
 20
133.4895832263762
 30
0.0
 11
250.2725733478601
 21
173.4895832263762
 31
0.0
1001
PHOENIX7010
1002
{
1070
    62
1070
     7
1070
    41
1040
1.0
1002
}
  0
CIRCLE
  5
1C48
102
{ACAD_REACTORS
330
1C5A
102
}
330
1A
100
AcDbEntity
  8
0
  6
Continuous
 62
     7
100
AcDbCircle
 10
254.9453054207392
 20
173.4895832263762
 30
0.0
 40
4.0
1001
PHOENIX7010
1002
{
1070
    62
1070
     7
1070
    41
1040
1.0
1002
}
  0
CIRCLE
  5
1C49
102
{ACAD_REACTORS
330
1C5A
102
}
330
1A
100
AcDbEntity
  8
0
  6
Continuous
 62
     7
100
AcDbCircle
 10
254.9453054207392
 20
133.4895832263762
 30
0.0
 40
1.3
1001
PHOENIX7010
1002
{
1070
    62
1070
     7
1070
    41
1040
1.0
1002
}
  0
ARC
  5
1C4A
102
{ACAD_REACTORS
330
1C5A
102
}
330
1A
100
AcDbEntity
  8
0
  6
Continuous
 62
     1
100
AcDbCircle
 10
254.9453054207392
 20
133.4895832263762
 30
0.0
 40
2.000000000000007
100
AcDbArc
 50
255.5224878140709
 51
194.4775121859295
1001
PHOENIX7010
1002
{
1070
    62
1070
     1
1070
    41
1040
1.0
1002
}
  0
ARC
  5
1C4B
102
{ACAD_REACTORS
330
1C5A
102
}
330
1A
100
AcDbEntity
  8
0
  6
Continuous
 62
     7
100
AcDbCircle
 10
284.7453054207392
 20
173.4895832263762
 30
0.0
 40
4.699999999999931
100
AcDbArc
 50
0.0
 51
50.85131235774682
1001
PHOENIX7010
1002
{
1070
    62
1070
     7
1070
    41
1040
1.0
1002
}
  0
ARC
  5
1C4C
102
{ACAD_REACTORS
330
1C5A
102
}
330
1A
100
AcDbEntity
  8
0
  6
Continuous
 62
     7
100
AcDbCircle
 10
292.9453054207392
 20
165.2895832263762
 30
0.0
 40
4.699999999999996
100
AcDbArc
 50
39.14868764225348
 51
90.0
1001
PHOENIX7010
1002
{
1070
    62
1070
     7
1070
    41
1040
1.0
1002
}
  0
ARC
  5
1C4D
102
{ACAD_REACTORS
330
1C5A
102
}
330
1A
100
AcDbEntity
  8
0
  6
Continuous
 62
     7
100
AcDbCircle
 10
296.7453054207392
 20
168.3831248860277
 30
0.0
 40
0.1999999999999336
100
AcDbArc
 50
219.1486876422716
 51
0.0
1001
PHOENIX7010
1002
{
1070
    62
1070
     7
1070
    41
1040
1.0
1002
}
  0
LINE
  5
1C4E
102
{ACAD_REACTORS
330
1C5A
102
}
330
1A
100
AcDbEntity
  8
0
  6
Continuous
 62
     7
100
AcDbLine
 10
296.9453054207392
 20
168.3831248860277
 30
0.0
 11
296.9453054207392
 21
173.4895832263762
 31
0.0
1001
PHOENIX7010
1002
{
1070
    62
1070
     7
1070
    41
1040
1.0
1002
}
  0
ARC
  5
1C4F
102
{ACAD_REACTORS
330
1C5A
102
}
330
1A
100
AcDbEntity
  8
0
  6
Continuous
 62
     7
100
AcDbCircle
 10
292.9453054207392
 20
173.4895832263762
 30
0.0
 40
4.0
100
AcDbArc
 50
0.0
 51
90.0
1001
PHOENIX7010
1002
{
1070
    62
1070
     7
1070
    41
1040
1.0
1002
}
  0
ARC
  5
1C50
102
{ACAD_REACTORS
330
1C5A
102
}
330
1A
100
AcDbEntity
  8
0
  6
Continuous
 62
     7
100
AcDbCircle
 10
292.9453054207392
 20
173.4895832263762
 30
0.0
 40
4.672732072879171
100
AcDbArc
 50
0.0
 51
90.0
1001
PHOENIX7010
1002
{
1070
    62
1070
     7
1070
    41
1040
1.0
1002
}
  0
INSERT
  5
1C5B
102
{ACAD_REACTORS
330
1C5A
102
}
330
1A
100
AcDbEntity
  8
0
  6
Continuous
 62
     7
100
AcDbBlockReference
  2
PH_GRPBLK
 10
274.2569565411826
 20
153.307291325933
 30
0.0
 41
0.5
 42
0.5
 43
0.5
  0
LINE
  5
1E60
330
1A
100
AcDbEntity
  8
1
  6
ACAD_ISO02W100
 62
     5
100
AcDbLine
 10
80.93405538900492
 20
144.6395832263764
 30
0.0
 11
86.43405538900493
 21
144.6395832263764
 31
0.0
1001
PHOENIX7010
1002
{
1070
    41
1040
1.0
1002
}
  0
LINE
  5
1E61
330
1A
100
AcDbEntity
  8
1
  6
ACAD_ISO02W100
 62
     5
100
AcDbLine
 10
80.93405538900492
 20
146.1395832263765
 30
0.0
 11
86.43405538900493
 21
146.1395832263765
 31
0.0
1001
PHOENIX7010
1002
{
1070
    41
1040
1.0
1002
}
  0
ARC
  5
1E67
330
1A
100
AcDbEntity
  8
1
  6
ACAD_ISO02W100
 62
     5
100
AcDbCircle
 10
59.13405538900491
 20
177.9895832263764
 30
0.0
 40
0.5
100
AcDbArc
 50
90.0
 51
180.0
1001
PHOENIX7010
1002
{
1070
    41
1040
1.0
1002
}
  0
LINE
  5
1E68
330
1A
100
AcDbEntity
  8
1
  6
ACAD_ISO02W100
 62
     5
100
AcDbLine
 10
59.13405538900491
 20
178.4895832263764
 30
0.0
 11
61.43405538900504
 21
178.4895832263764
 31
0.0
1001
PHOENIX7010
1002
{
1070
    41
1040
1.0
1002
}
  0
ARC
  5
1E6A
330
1A
100
AcDbEntity
  8
1
  6
ACAD_ISO02W100
 62
     5
100
AcDbCircle
 10
59.13405538900491
 20
176.9895832263764
 30
0.0
 40
0.5
100
AcDbArc
 50
180.0
 51
270.0
1001
PHOENIX7010
1002
{
1070
    41
1040
1.0
1002
}
  0
LINE
  5
1E6B
330
1A
100
AcDbEntity
  8
1
  6
ACAD_ISO02W100
 62
     5
100
AcDbLine
 10
59.13405538900491
 20
176.4895832263764
 30
0.0
 11
61.43405538900504
 21
176.4895832263764
 31
0.0
1001
PHOENIX7010
1002
{
1070
    41
1040
1.0
1002
}
  0
LINE
  5
1E6C
330
1A
100
AcDbEntity
  8
1
  6
ACAD_ISO02W100
 62
     5
100
AcDbLine
 10
58.63405538900491
 20
177.9895832263764
 30
0.0
 11
58.63405538900491
 21
176.9895832263764
 31
0.0
1001
PHOENIX7010
1002
{
1070
    41
1040
1.0
1002
}
  0
LINE
  5
1E6D
330
1A
100
AcDbEntity
  8
1
  6
ACAD_ISO02W100
 62
     5
100
AcDbLine
 10
61.43405538900492
 20
177.9895832263764
 30
0.0
 11
59.93405538900493
 21
177.7895832263764
 31
0.0
1001
PHOENIX7010
1002
{
1070
    41
1040
1.0
1002
}
  0
LINE
  5
1E6E
330
1A
100
AcDbEntity
  8
1
  6
ACAD_ISO02W100
 62
     5
100
AcDbLine
 10
53.92969212125575
 20
175.424093640285
 30
0.0
 11
61.43405538900504
 21
175.4895832263764
 31
0.0
1001
PHOENIX7010
1002
{
1070
    41
1040
1.0
1002
}
  0
ARC
  5
1E6F
330
1A
100
AcDbEntity
  8
1
  6
ACAD_ISO02W100
 62
     5
100
AcDbCircle
 10
53.93405538900498
 20
174.9241126787528
 30
0.0
 40
0.5
100
AcDbArc
 50
90.5000000000045
 51
180.0
1001
PHOENIX7010
1002
{
1070
    41
1040
1.0
1002
}
  0
LINE
  5
1E70
330
1A
100
AcDbEntity
  8
1
  6
ACAD_ISO02W100
 62
     5
100
AcDbLine
 10
85.93841865675409
 20
176.7626465861559
 30
0.0
 11
59.93405538900493
 21
176.9895832263764
 31
0.0
1001
PHOENIX7010
1002
{
1070
    41
1040
1.0
1002
}
  0
LINE
  5
1E71
330
1A
100
AcDbEntity
  8
1
  6
ACAD_ISO02W100
 62
     5
100
AcDbLine
 10
85.93841865675409
 20
168.5626465861558
 30
0.0
 11
61.43405538900492
 21
168.7764929246901
 31
0.0
1001
PHOENIX7010
1002
{
1070
    41
1040
1.0
1002
}
  0
ARC
  5
1E72
330
1A
100
AcDbEntity
  8
1
  6
ACAD_ISO02W100
 62
     5
100
AcDbCircle
 10
85.93405538900492
 20
176.2626656246238
 30
0.0
 40
0.5000000000000311
100
AcDbArc
 50
0.0
 51
89.500000000002
1001
PHOENIX7010
1002
{
1070
    41
1040
1.0
1002
}
  0
ARC
  5
1E73
330
1A
100
AcDbEntity
  8
1
  6
ACAD_ISO02W100
 62
     5
100
AcDbCircle
 10
85.93405538900492
 20
168.0626656246237
 30
0.0
 40
0.4999999999999743
100
AcDbArc
 50
0.0
 51
89.500000000002
1001
PHOENIX7010
1002
{
1070
    41
1040
1.0
1002
}
  0
LINE
  5
1E74
330
1A
100
AcDbEntity
  8
1
  6
ACAD_ISO02W100
 62
     5
100
AcDbLine
 10
53.92969212125575
 20
167.224093640285
 30
0.0
 11
61.43405538900492
 21
167.2895832263764
 31
0.0
1001
PHOENIX7010
1002
{
1070
    41
1040
1.0
1002
}
  0
ARC
  5
1E75
330
1A
100
AcDbEntity
  8
1
  6
ACAD_ISO02W100
 62
     5
100
AcDbCircle
 10
53.93405538900498
 20
166.7241126787529
 30
0.0
 40
0.5
100
AcDbArc
 50
90.5000000000045
 51
180.0
1001
PHOENIX7010
1002
{
1070
    41
1040
1.0
1002
}
  0
LINE
  5
1FB0
330
1A
100
AcDbEntity
  8
1
  6
ACAD_ISO02W100
 62
     5
100
AcDbLine
 10
228.7842058633984
 20
132.0550537739998
 30
0.0
 11
228.7842058633985
 21
174.9241126787526
 31
0.0
1001
PHOENIX7010
1002
{
1070
    41
1040
1.0
1002
}
  0
LINE
  5
1FB2
330
1A
100
AcDbEntity
  8
1
  6
Continuous
 62
     7
100
AcDbLine
 10
220.7842058633985
 20
179.4895832263761
 30
0.0
 11
220.7842058633984
 21
127.4895832263762
 31
0.0
1001
PHOENIX7010
1002
{
1070
    41
1040
1.0
1002
}
  0
LINE
  5
1FB3
330
1A
100
AcDbEntity
  8
1
  6
Continuous
 62
     7
100
AcDbLine
 10
219.7842058633984
 20
127.4895832263761
 30
0.0
 11
219.7842058633985
 21
179.4895832263762
 31
0.0
1001
PHOENIX7010
1002
{
1070
    41
1040
1.0
1002
}
  0
LINE
  5
1FB4
330
1A
100
AcDbEntity
  8
1
  6
Continuous
 62
     7
100
AcDbLine
 10
193.7842058633984
 20
178.1623152992554
 30
0.0
 11
193.7842058633984
 21
128.8168511534971
 31
0.0
1001
PHOENIX7010
1002
{
1070
    41
1040
1.0
1002
}
  0
LINE
  5
1FB5
330
1A
100
AcDbEntity
  8
1
  6
ACAD_ISO02W100
 62
     5
100
AcDbLine
 10
195.7842058633985
 20
176.2626656246237
 30
0.0
 11
195.7842058633984
 21
130.7165008281289
 31
0.0
1001
PHOENIX7010
1002
{
1070
    41
1040
1.0
1002
}
  0
LINE
  5
1FB6
330
1A
100
AcDbEntity
  8
1
  6
ACAD_ISO02W100
 62
     5
100
AcDbLine
 10
201.2842058633985
 20
160.8395832263762
 30
0.0
 11
195.7842058633985
 21
160.8395832263762
 31
0.0
1001
PHOENIX7010
1002
{
1070
    41
1040
1.0
1002
}
  0
LINE
  5
1FB7
330
1A
100
AcDbEntity
  8
1
  6
ACAD_ISO02W100
 62
     5
100
AcDbLine
 10
201.2842058633985
 20
162.3395832263763
 30
0.0
 11
195.7842058633985
 21
162.3395832263763
 31
0.0
1001
PHOENIX7010
1002
{
1070
    41
1040
1.0
1002
}
  0
ARC
  5
1FB8
330
1A
100
AcDbEntity
  8
1
  6
ACAD_ISO02W100
 62
     5
100
AcDbCircle
 10
196.2842058633985
 20
176.2626656246237
 30
0.0
 40
0.5000000000000311
100
AcDbArc
 50
90.49999999999805
 51
180.0
1001
PHOENIX7010
1002
{
1070
    41
1040
1.0
1002
}
  0
ARC
  5
1FB9
330
1A
100
AcDbEntity
  8
1
  6
ACAD_ISO02W100
 62
     5
100
AcDbCircle
 10
196.2842058633985
 20
168.0626656246236
 30
0.0
 40
0.4999999999999743
100
AcDbArc
 50
90.49999999999805
 51
180.0
1001
PHOENIX7010
1002
{
1070
    41
1040
1.0
1002
}
  0
LINE
  5
1FBA
330
1A
100
AcDbEntity
  8
1
  6
ACAD_ISO02W100
 62
     5
100
AcDbLine
 10
201.2842058633985
 20
158.5895832263763
 30
0.0
 11
195.7842058633985
 21
158.5895832263763
 31
0.0
1001
PHOENIX7010
1002
{
1070
    41
1040
1.0
1002
}
  0
LINE
  5
1FBB
330
1A
100
AcDbEntity
  8
1
  6
ACAD_ISO04W100
 62
     1
100
AcDbLine
 10
203.2842058633985
 20
161.5895832263763
 30
0.0
 11
192.7842058633985
 21
161.5895832263763
 31
0.0
1001
PHOENIX7010
1002
{
1070
    41
1040
1.0
1002
}
  0
LINE
  5
1FBC
330
1A
100
AcDbEntity
  8
1
  6
ACAD_ISO04W100
 62
     1
100
AcDbLine
 10
232.7842058633985
 20
173.4895832263762
 30
0.0
 11
191.2842058633985
 21
173.4895832263763
 31
0.0
1001
PHOENIX7010
1002
{
1070
    41
1040
1.0
1002
}
  0
LINE
  5
1FBD
330
1A
100
AcDbEntity
  8
1
  6
Continuous
 62
     7
100
AcDbLine
 10
194.7842058633985
 20
179.1623152992554
 30
0.0
 11
219.7842058633985
 21
179.4895832263762
 31
0.0
1001
PHOENIX7010
1002
{
1070
    41
1040
1.0
1002
}
  0
LINE
  5
1FBE
330
1A
100
AcDbEntity
  8
1
  6
ACAD_ISO02W100
 62
     5
100
AcDbLine
 10
201.2842058633985
 20
164.5895832263763
 30
0.0
 11
195.7842058633985
 21
164.5895832263763
 31
0.0
1001
PHOENIX7010
1002
{
1070
    41
1040
1.0
1002
}
  0
LINE
  5
1FBF
330
1A
100
AcDbEntity
  8
1
  6
ACAD_ISO02W100
 62
     5
100
AcDbLine
 10
196.2798425956493
 20
176.7626465861558
 30
0.0
 11
222.2842058633986
 21
176.9895832263762
 31
0.0
1001
PHOENIX7010
1002
{
1070
    41
1040
1.0
1002
}
  0
LINE
  5
1FC0
330
1A
100
AcDbEntity
  8
1
  6
ACAD_ISO02W100
 62
     5
100
AcDbLine
 10
196.2798425956493
 20
168.5626465861557
 30
0.0
 11
220.7842058633985
 21
168.77649292469
 31
0.0
1001
PHOENIX7010
1002
{
1070
    41
1040
1.0
1002
}
  0
LINE
  5
1FC2
330
1A
100
AcDbEntity
  8
1
  6
ACAD_ISO02W100
 62
     5
100
AcDbLine
 10
228.2885691311477
 20
175.4240936402848
 30
0.0
 11
220.7842058633984
 21
175.4895832263762
 31
0.0
1001
PHOENIX7010
1002
{
1070
    41
1040
1.0
1002
}
  0
LINE
  5
1FC3
330
1A
100
AcDbEntity
  8
1
  6
Continuous
 62
     7
100
AcDbLine
 10
229.2842058633985
 20
179.3783121311551
 30
0.0
 11
220.7842058633984
 21
179.4895832263761
 31
0.0
1001
PHOENIX7010
1002
{
1070
    41
1040
1.0
1002
}
  0
ARC
  5
1FC4
330
1A
100
AcDbEntity
  8
1
  6
ACAD_ISO02W100
 62
     5
100
AcDbCircle
 10
228.2842058633985
 20
174.9241126787526
 30
0.0
 40
0.5
100
AcDbArc
 50
0.0
 51
89.49999999999542
1001
PHOENIX7010
1002
{
1070
    41
1040
1.0
1002
}
  0
ARC
  5
1FC6
330
1A
100
AcDbEntity
  8
1
  6
ACAD_ISO02W100
 62
     5
100
AcDbCircle
 10
223.0842058633986
 20
176.9895832263762
 30
0.0
 40
0.5
100
AcDbArc
 50
270.0
 51
0.0
1001
PHOENIX7010
1002
{
1070
    41
1040
1.0
1002
}
  0
ARC
  5
1FC7
330
1A
100
AcDbEntity
  8
1
  6
ACAD_ISO02W100
 62
     5
100
AcDbCircle
 10
223.0842058633986
 20
177.9895832263762
 30
0.0
 40
0.5
100
AcDbArc
 50
0.0
 51
90.0
1001
PHOENIX7010
1002
{
1070
    41
1040
1.0
1002
}
  0
LINE
  5
1FC8
330
1A
100
AcDbEntity
  8
1
  6
ACAD_ISO02W100
 62
     5
100
AcDbLine
 10
223.0842058633986
 20
176.4895832263762
 30
0.0
 11
220.7842058633984
 21
176.4895832263762
 31
0.0
1001
PHOENIX7010
1002
{
1070
    41
1040
1.0
1002
}
  0
LINE
  5
1FC9
330
1A
100
AcDbEntity
  8
1
  6
ACAD_ISO02W100
 62
     5
100
AcDbLine
 10
223.0842058633986
 20
178.4895832263762
 30
0.0
 11
220.7842058633984
 21
178.4895832263762
 31
0.0
1001
PHOENIX7010
1002
{
1070
    41
1040
1.0
1002
}
  0
LINE
  5
1FCA
330
1A
100
AcDbEntity
  8
1
  6
ACAD_ISO02W100
 62
     5
100
AcDbLine
 10
223.5842058633985
 20
177.9895832263762
 30
0.0
 11
223.5842058633985
 21
176.9895832263762
 31
0.0
1001
PHOENIX7010
1002
{
1070
    41
1040
1.0
1002
}
  0
LINE
  5
1FCB
330
1A
100
AcDbEntity
  8
1
  6
Continuous
 62
     7
100
AcDbLine
 10
220.7842058633985
 20
178.9895832263762
 30
0.0
 11
219.7842058633985
 21
178.9895832263762
 31
0.0
1001
PHOENIX7010
1002
{
1070
    41
1040
1.0
1002
}
  0
LINE
  5
1FCC
330
1A
100
AcDbEntity
  8
1
  6
ACAD_ISO02W100
 62
     5
100
AcDbLine
 10
220.7842058633985
 20
177.9895832263762
 30
0.0
 11
222.2842058633985
 21
177.7895832263762
 31
0.0
1001
PHOENIX7010
1002
{
1070
    41
1040
1.0
1002
}
  0
LINE
  5
1FCD
330
1A
100
AcDbEntity
  8
1
  6
ACAD_ISO02W100
 62
     5
100
AcDbLine
 10
228.2885691311477
 20
167.2240936402847
 30
0.0
 11
220.7842058633985
 21
167.2895832263762
 31
0.0
1001
PHOENIX7010
1002
{
1070
    41
1040
1.0
1002
}
  0
ARC
  5
1FCE
330
1A
100
AcDbEntity
  8
1
  6
ACAD_ISO02W100
 62
     5
100
AcDbCircle
 10
228.2842058633985
 20
166.7241126787527
 30
0.0
 40
0.5
100
AcDbArc
 50
0.0
 51
89.49999999999542
1001
PHOENIX7010
1002
{
1070
    41
1040
1.0
1002
}
  0
LINE
  5
1FCF
330
1A
100
AcDbEntity
  8
1
  6
ACAD_ISO02W100
 62
     5
100
AcDbLine
 10
201.2842058633985
 20
164.5895832263763
 30
0.0
 11
201.2842058633985
 21
158.5895832263763
 31
0.0
1001
PHOENIX7010
1002
{
1070
    41
1040
1.0
1002
}
  0
LINE
  5
1FD0
330
1A
100
AcDbEntity
  8
1
  6
Continuous
 62
     7
100
AcDbLine
 10
193.2842058633986
 20
169.4895832263762
 30
0.0
 11
193.2842058633986
 21
177.4895832263762
 31
0.0
1001
PHOENIX7010
1002
{
1070
    41
1040
1.0
1002
}
  0
LINE
  5
1FD1
330
1A
100
AcDbEntity
  8
1
  6
Continuous
 62
     7
100
AcDbLine
 10
193.7842058633986
 20
177.4895832263762
 30
0.0
 11
193.2842058633986
 21
177.4895832263762
 31
0.0
1001
PHOENIX7010
1002
{
1070
    41
1040
1.0
1002
}
  0
LINE
  5
1FD2
330
1A
100
AcDbEntity
  8
1
  6
Continuous
 62
     7
100
AcDbLine
 10
193.7842058633984
 20
178.1623152992554
 30
0.0
 11
194.7842058633985
 21
179.1623152992554
 31
0.0
1001
PHOENIX7010
1002
{
1070
    41
1040
1.0
1002
}
  0
LINE
  5
1FD3
330
1A
100
AcDbEntity
  8
1
  6
Continuous
 62
     7
100
AcDbLine
 10
193.7842058633986
 20
169.4895832263762
 30
0.0
 11
193.2842058633986
 21
169.4895832263762
 31
0.0
1001
PHOENIX7010
1002
{
1070
    41
1040
1.0
1002
}
  0
ARC
  5
1FD4
330
1A
100
AcDbEntity
  8
1
  6
ACAD_ISO02W100
 62
     5
100
AcDbCircle
 10
196.2842058633985
 20
138.916500828129
 30
0.0
 40
0.4999999999999743
100
AcDbArc
 50
180.0
 51
269.500000000002
1001
PHOENIX7010
1002
{
1070
    41
1040
1.0
1002
}
  0
ARC
  5
1FD5
330
1A
100
AcDbEntity
  8
1
  6
ACAD_ISO02W100
 62
     5
100
AcDbCircle
 10
196.2842058633984
 20
130.7165008281289
 30
0.0
 40
0.5000000000000311
100
AcDbArc
 50
180.0
 51
269.500000000002
1001
PHOENIX7010
1002
{
1070
    41
1040
1.0
1002
}
  0
LINE
  5
1FD6
330
1A
100
AcDbEntity
  8
1
  6
ACAD_ISO02W100
 62
     5
100
AcDbLine
 10
201.2842058633985
 20
144.6395832263763
 30
0.0
 11
195.7842058633985
 21
144.6395832263763
 31
0.0
1001
PHOENIX7010
1002
{
1070
    41
1040
1.0
1002
}
  0
LINE
  5
1FD7
330
1A
100
AcDbEntity
  8
1
  6
ACAD_ISO02W100
 62
     5
100
AcDbLine
 10
201.2842058633985
 20
146.1395832263764
 30
0.0
 11
195.7842058633985
 21
146.1395832263764
 31
0.0
1001
PHOENIX7010
1002
{
1070
    41
1040
1.0
1002
}
  0
LINE
  5
1FD8
330
1A
100
AcDbEntity
  8
1
  6
ACAD_ISO04W100
 62
     1
100
AcDbLine
 10
232.7842058633984
 20
133.4895832263762
 30
0.0
 11
191.2842058633984
 21
133.4895832263763
 31
0.0
1001
PHOENIX7010
1002
{
1070
    41
1040
1.0
1002
}
  0
LINE
  5
1FD9
330
1A
100
AcDbEntity
  8
1
  6
Continuous
 62
     7
100
AcDbLine
 10
194.7842058633984
 20
127.8168511534971
 30
0.0
 11
219.7842058633984
 21
127.4895832263761
 31
0.0
1001
PHOENIX7010
1002
{
1070
    41
1040
1.0
1002
}
  0
LINE
  5
1FDA
330
1A
100
AcDbEntity
  8
1
  6
ACAD_ISO02W100
 62
     5
100
AcDbLine
 10
201.2842058633985
 20
142.3895832263763
 30
0.0
 11
195.7842058633985
 21
142.3895832263763
 31
0.0
1001
PHOENIX7010
1002
{
1070
    41
1040
1.0
1002
}
  0
LINE
  5
1FDB
330
1A
100
AcDbEntity
  8
1
  6
ACAD_ISO04W100
 62
     1
100
AcDbLine
 10
203.2842058633985
 20
145.3895832263763
 30
0.0
 11
193.7842058633984
 21
145.3895832263763
 31
0.0
1001
PHOENIX7010
1002
{
1070
    41
1040
1.0
1002
}
  0
LINE
  5
1FDC
330
1A
100
AcDbEntity
  8
1
  6
ACAD_ISO02W100
 62
     5
100
AcDbLine
 10
201.2842058633985
 20
148.3895832263763
 30
0.0
 11
195.7842058633985
 21
148.3895832263763
 31
0.0
1001
PHOENIX7010
1002
{
1070
    41
1040
1.0
1002
}
  0
LINE
  5
1FDD
330
1A
100
AcDbEntity
  8
1
  6
ACAD_ISO04W100
 62
     1
100
AcDbLine
 10
232.7842058633984
 20
153.4895832263763
 30
0.0
 11
191.2842058633984
 21
153.4895832263763
 31
0.0
1001
PHOENIX7010
1002
{
1070
    41
1040
1.0
1002
}
  0
LINE
  5
1FDE
330
1A
100
AcDbEntity
  8
1
  6
ACAD_ISO02W100
 62
     5
100
AcDbLine
 10
196.2798425956493
 20
138.4165198665969
 30
0.0
 11
220.7842058633985
 21
138.2026735280625
 31
0.0
1001
PHOENIX7010
1002
{
1070
    41
1040
1.0
1002
}
  0
LINE
  5
1FDF
330
1A
100
AcDbEntity
  8
1
  6
ACAD_ISO02W100
 62
     5
100
AcDbLine
 10
196.2798425956493
 20
130.2165198665968
 30
0.0
 11
222.2842058633984
 21
129.9895832263762
 31
0.0
1001
PHOENIX7010
1002
{
1070
    41
1040
1.0
1002
}
  0
ARC
  5
1FE0
330
1A
100
AcDbEntity
  8
1
  6
ACAD_ISO02W100
 62
     5
100
AcDbCircle
 10
228.2842058633984
 20
140.2550537739998
 30
0.0
 40
0.5
100
AcDbArc
 50
270.5000000000045
 51
0.0
1001
PHOENIX7010
1002
{
1070
    41
1040
1.0
1002
}
  0
LINE
  5
1FE1
330
1A
100
AcDbEntity
  8
1
  6
ACAD_ISO02W100
 62
     5
100
AcDbLine
 10
228.2885691311477
 20
139.7550728124677
 30
0.0
 11
220.7842058633985
 21
139.6895832263763
 31
0.0
1001
PHOENIX7010
1002
{
1070
    41
1040
1.0
1002
}
  0
LINE
  5
1FE2
330
1A
100
AcDbEntity
  8
1
  6
Continuous
 62
     7
100
AcDbLine
 10
230.7842058633984
 20
129.1008543215974
 30
0.0
 11
229.2842058633983
 21
127.6008543215974
 31
0.0
1001
PHOENIX7010
1002
{
1070
    41
1040
1.0
1002
}
  0
LINE
  5
1FE3
330
1A
100
AcDbEntity
  8
1
  6
Continuous
 62
     7
100
AcDbLine
 10
230.7842058633984
 20
130.5812182459701
 30
0.0
 11
227.7842058633984
 21
127.5812182459701
 31
0.0
1001
PHOENIX7010
1002
{
1070
    41
1040
1.0
1002
}
  0
ARC
  5
1FE4
330
1A
100
AcDbEntity
  8
1
  6
ACAD_ISO02W100
 62
     5
100
AcDbCircle
 10
228.2842058633984
 20
132.0550537739998
 30
0.0
 40
0.5
100
AcDbArc
 50
270.5000000000045
 51
0.0
1001
PHOENIX7010
1002
{
1070
    41
1040
1.0
1002
}
  0
LINE
  5
1FE5
330
1A
100
AcDbEntity
  8
1
  6
ACAD_ISO02W100
 62
     5
100
AcDbLine
 10
228.2885691311477
 20
131.5550728124676
 30
0.0
 11
220.7842058633983
 21
131.4895832263762
 31
0.0
1001
PHOENIX7010
1002
{
1070
    41
1040
1.0
1002
}
  0
LINE
  5
1FE6
330
1A
100
AcDbEntity
  8
1
  6
Continuous
 62
     7
100
AcDbLine
 10
229.2842058633983
 20
127.6008543215974
 30
0.0
 11
220.7842058633984
 21
127.4895832263762
 31
0.0
1001
PHOENIX7010
1002
{
1070
    41
1040
1.0
1002
}
  0
LINE
  5
1FE7
330
1A
100
AcDbEntity
  8
1
  6
ACAD_ISO02W100
 62
     5
100
AcDbLine
 10
220.7842058633984
 20
128.9895832263762
 30
0.0
 11
222.2842058633984
 21
129.1895832263763
 31
0.0
1001
PHOENIX7010
1002
{
1070
    41
1040
1.0
1002
}
  0
LINE
  5
1FE8
330
1A
100
AcDbEntity
  8
1
  6
ACAD_ISO02W100
 62
     5
100
AcDbLine
 10
223.5842058633985
 20
128.9895832263762
 30
0.0
 11
223.5842058633985
 21
129.9895832263762
 31
0.0
1001
PHOENIX7010
1002
{
1070
    41
1040
1.0
1002
}
  0
LINE
  5
1FE9
330
1A
100
AcDbEntity
  8
1
  6
ACAD_ISO02W100
 62
     5
100
AcDbLine
 10
223.0842058633985
 20
130.4895832263762
 30
0.0
 11
220.7842058633983
 21
130.4895832263762
 31
0.0
1001
PHOENIX7010
1002
{
1070
    41
1040
1.0
1002
}
  0
ARC
  5
1FEA
330
1A
100
AcDbEntity
  8
1
  6
ACAD_ISO02W100
 62
     5
100
AcDbCircle
 10
223.0842058633985
 20
129.9895832263762
 30
0.0
 40
0.5
100
AcDbArc
 50
0.0
 51
90.0
1001
PHOENIX7010
1002
{
1070
    41
1040
1.0
1002
}
  0
LINE
  5
1FEB
330
1A
100
AcDbEntity
  8
1
  6
ACAD_ISO02W100
 62
     5
100
AcDbLine
 10
222.2842058633984
 20
177.7895832263762
 30
0.0
 11
222.2842058633984
 21
129.1895832263763
 31
0.0
1001
PHOENIX7010
1002
{
1070
    41
1040
1.0
1002
}
  0
LINE
  5
1FEC
330
1A
100
AcDbEntity
  8
1
  6
ACAD_ISO02W100
 62
     5
100
AcDbLine
 10
223.0842058633985
 20
128.4895832263762
 30
0.0
 11
220.7842058633983
 21
128.4895832263762
 31
0.0
1001
PHOENIX7010
1002
{
1070
    41
1040
1.0
1002
}
  0
ARC
  5
1FED
330
1A
100
AcDbEntity
  8
1
  6
ACAD_ISO02W100
 62
     5
100
AcDbCircle
 10
223.0842058633985
 20
128.9895832263762
 30
0.0
 40
0.5
100
AcDbArc
 50
270.0
 51
0.0
1001
PHOENIX7010
1002
{
1070
    41
1040
1.0
1002
}
  0
LINE
  5
1FEE
330
1A
100
AcDbEntity
  8
1
  6
Continuous
 62
     7
100
AcDbLine
 10
220.7842058633984
 20
127.9895832263761
 30
0.0
 11
219.7842058633984
 21
127.9895832263761
 31
0.0
1001
PHOENIX7010
1002
{
1070
    41
1040
1.0
1002
}
  0
LINE
  5
1FEF
330
1A
100
AcDbEntity
  8
1
  6
ACAD_ISO02W100
 62
     5
100
AcDbLine
 10
201.2842058633985
 20
142.3895832263763
 30
0.0
 11
201.2842058633985
 21
148.3895832263763
 31
0.0
1001
PHOENIX7010
1002
{
1070
    41
1040
1.0
1002
}
  0
LINE
  5
1FF0
330
1A
100
AcDbEntity
  8
1
  6
Continuous
 62
     7
100
AcDbLine
 10
193.2842058633984
 20
129.4895832263763
 30
0.0
 11
193.2842058633984
 21
137.4895832263762
 31
0.0
1001
PHOENIX7010
1002
{
1070
    41
1040
1.0
1002
}
  0
LINE
  5
1FF1
330
1A
100
AcDbEntity
  8
1
  6
Continuous
 62
     7
100
AcDbLine
 10
193.7842058633983
 20
137.4895832263762
 30
0.0
 11
193.2842058633984
 21
137.4895832263762
 31
0.0
1001
PHOENIX7010
1002
{
1070
    41
1040
1.0
1002
}
  0
LINE
  5
1FF2
330
1A
100
AcDbEntity
  8
1
  6
Continuous
 62
     7
100
AcDbLine
 10
193.7842058633984
 20
129.4895832263763
 30
0.0
 11
193.2842058633984
 21
129.4895832263763
 31
0.0
1001
PHOENIX7010
1002
{
1070
    41
1040
1.0
1002
}
  0
LINE
  5
1FF3
330
1A
100
AcDbEntity
  8
1
  6
Continuous
 62
     7
100
AcDbLine
 10
193.7842058633984
 20
128.8168511534971
 30
0.0
 11
194.7842058633984
 21
127.8168511534971
 31
0.0
1001
PHOENIX7010
1002
{
1070
    41
1040
1.0
1002
}
  0
LINE
  5
2087
330
1A
100
AcDbEntity
  8
1
  6
ACAD_ISO02W100
 62
     5
100
AcDbLine
 10
251.4453054207391
 20
141.6895832263763
 30
0.0
 11
251.4453054207391
 21
165.2895832263762
 31
0.0
1001
PHOENIX7010
1002
{
1070
    41
1040
1.0
1002
}
  0
ARC
  5
2088
330
1A
100
AcDbEntity
  8
1
  6
ACAD_ISO02W100
 62
     5
100
AcDbCircle
 10
254.9453054207392
 20
141.6895832263763
 30
0.0
 40
3.5
100
AcDbArc
 50
180.0
 51
270.0
1001
PHOENIX7010
1002
{
1070
    41
1040
1.0
1002
}
  0
ARC
  5
2089
330
1A
100
AcDbEntity
  8
1
  6
ACAD_ISO02W100
 62
     5
100
AcDbCircle
 10
254.9453054207392
 20
133.4895832263762
 30
0.0
 40
4.700000000000045
100
AcDbArc
 50
0.0
 51
90.0
1001
PHOENIX7010
1002
{
1070
    41
1040
1.0
1002
}
  0
ARC
  5
208A
330
1A
100
AcDbEntity
  8
1
  6
ACAD_ISO02W100
 62
     5
100
AcDbCircle
 10
263.1453054207393
 20
133.4895832263762
 30
0.0
 40
3.5
100
AcDbArc
 50
180.0
 51
270.0
1001
PHOENIX7010
1002
{
1070
    41
1040
1.0
1002
}
  0
LINE
  5
208B
330
1A
100
AcDbEntity
  8
1
  6
ACAD_ISO02W100
 62
     5
100
AcDbLine
 10
263.1453054207393
 20
129.9895832263762
 30
0.0
 11
284.7453054207391
 21
129.9895832263762
 31
0.0
1001
PHOENIX7010
1002
{
1070
    41
1040
1.0
1002
}
  0
ARC
  5
208C
330
1A
100
AcDbEntity
  8
1
  6
ACAD_ISO02W100
 62
     5
100
AcDbCircle
 10
284.7453054207391
 20
133.4895832263762
 30
0.0
 40
3.5
100
AcDbArc
 50
270.0
 51
0.0
1001
PHOENIX7010
1002
{
1070
    41
1040
1.0
1002
}
  0
ARC
  5
208D
330
1A
100
AcDbEntity
  8
1
  6
ACAD_ISO02W100
 62
     5
100
AcDbCircle
 10
292.9453054207392
 20
133.4895832263762
 30
0.0
 40
4.700000000000045
100
AcDbArc
 50
90.0
 51
180.0
1001
PHOENIX7010
1002
{
1070
    41
1040
1.0
1002
}
  0
ARC
  5
208E
330
1A
100
AcDbEntity
  8
1
  6
ACAD_ISO02W100
 62
     5
100
AcDbCircle
 10
292.9453054207392
 20
141.6895832263763
 30
0.0
 40
3.5
100
AcDbArc
 50
270.0
 51
0.0
1001
PHOENIX7010
1002
{
1070
    41
1040
1.0
1002
}
  0
LINE
  5
208F
330
1A
100
AcDbEntity
  8
1
  6
ACAD_ISO02W100
 62
     5
100
AcDbLine
 10
296.4453054207392
 20
165.2895832263762
 30
0.0
 11
296.4453054207392
 21
141.6895832263763
 31
0.0
1001
PHOENIX7010
1002
{
1070
    41
1040
1.0
1002
}
  0
ARC
  5
2090
330
1A
100
AcDbEntity
  8
1
  6
ACAD_ISO02W100
 62
     5
100
AcDbCircle
 10
292.9453054207391
 20
165.2895832263762
 30
0.0
 40
3.5
100
AcDbArc
 50
0.0
 51
90.0
1001
PHOENIX7010
1002
{
1070
    41
1040
1.0
1002
}
  0
ARC
  5
2091
330
1A
100
AcDbEntity
  8
1
  6
ACAD_ISO02W100
 62
     5
100
AcDbCircle
 10
292.9453054207391
 20
173.4895832263762
 30
0.0
 40
4.700000000000045
100
AcDbArc
 50
180.0
 51
270.0
1001
PHOENIX7010
1002
{
1070
    41
1040
1.0
1002
}
  0
ARC
  5
2092
330
1A
100
AcDbEntity
  8
1
  6
ACAD_ISO02W100
 62
     5
100
AcDbCircle
 10
284.7453054207391
 20
173.4895832263762
 30
0.0
 40
3.5
100
AcDbArc
 50
0.0
 51
90.0
1001
PHOENIX7010
1002
{
1070
    41
1040
1.0
1002
}
  0
LINE
  5
2093
330
1A
100
AcDbEntity
  8
1
  6
ACAD_ISO02W100
 62
     5
100
AcDbLine
 10
263.1453054207393
 20
176.9895832263762
 30
0.0
 11
284.7453054207391
 21
176.9895832263762
 31
0.0
1001
PHOENIX7010
1002
{
1070
    41
1040
1.0
1002
}
  0
ARC
  5
2094
330
1A
100
AcDbEntity
  8
1
  6
ACAD_ISO02W100
 62
     5
100
AcDbCircle
 10
263.1453054207393
 20
173.4895832263762
 30
0.0
 40
3.5
100
AcDbArc
 50
90.0
 51
180.0
1001
PHOENIX7010
1002
{
1070
    41
1040
1.0
1002
}
  0
ARC
  5
2095
330
1A
100
AcDbEntity
  8
1
  6
ACAD_ISO02W100
 62
     5
100
AcDbCircle
 10
254.9453054207392
 20
173.4895832263762
 30
0.0
 40
4.700000000000045
100
AcDbArc
 50
270.0
 51
0.0
1001
PHOENIX7010
1002
{
1070
    41
1040
1.0
1002
}
  0
ARC
  5
2096
330
1A
100
AcDbEntity
  8
1
  6
ACAD_ISO02W100
 62
     5
100
AcDbCircle
 10
254.9453054207392
 20
165.2895832263762
 30
0.0
 40
3.5
100
AcDbArc
 50
90.0
 51
180.0
1001
PHOENIX7010
1002
{
1070
    41
1040
1.0
1002
}
  0
LINE
  5
2112
330
1A
100
AcDbEntity
  8
0
  6
Continuous
 62
     7
100
AcDbLine
 10
114.9689177844228
 20
216.1571331299441
 30
0.0
 11
164.314381930181
 21
216.1571331299441
 31
0.0
1001
PHOENIX7010
1002
{
1070
    41
1040
1.0
1002
}
  0
LINE
  5
2114
330
1A
100
AcDbEntity
  8
0
  6
Continuous
 62
     7
100
AcDbLine
 10
87.43405538900498
 20
179.1623152992556
 30
0.0
 11
87.43405538900498
 21
127.8168511534973
 31
0.0
1001
PHOENIX7010
1002
{
1070
    41
1040
1.0
1002
}
  0
LINE
  5
2115
330
1A
100
AcDbEntity
  8
0
  6
Continuous
 62
     7
100
AcDbLine
 10
194.7842058633985
 20
179.1623152992554
 30
0.0
 11
194.7842058633985
 21
127.8168511534971
 31
0.0
1001
PHOENIX7010
1002
{
1070
    41
1040
1.0
1002
}
  0
LINE
  5
2395
330
1A
100
AcDbEntity
  8
1
  6
Continuous
 62
     7
100
AcDbLine
 10
230.7842058633985
 20
177.8783121311551
 30
0.0
 11
230.7842058633985
 21
129.1008543215974
 31
0.0
1001
PHOENIX7010
1002
{
1070
    41
1040
1.0
1002
}
  0
LINE
  5
239E
330
1A
100
AcDbEntity
  8
0
  6
Continuous
 62
     7
100
AcDbLine
 10
227.7842058633985
 20
127.5812182459702
 30
0.0
 11
227.7842058633985
 21
168.1122059182142
 31
0.0
1001
PHOENIX7010
1002
{
1070
    62
1070
     7
1070
    41
1040
1.0
1002
}
  0
LINE
  5
23A0
330
1A
100
AcDbEntity
  8
0
  6
Continuous
 62
     7
100
AcDbLine
 10
229.2842058633985
 20
173.4895832263763
 30
0.0
 11
229.2842058633985
 21
179.3783121311551
 31
0.0
1001
PHOENIX7010
1002
{
1070
    62
1070
     7
1070
    41
1040
1.0
1002
}
  0
ARC
  5
23A2
330
1A
100
AcDbEntity
  8
0
  6
Continuous
 62
     7
100
AcDbCircle
 10
224.8954769586196
 20
173.4895832263763
 30
0.0
 40
4.388728904778932
100
AcDbArc
 50
328.8274947999445
 51
0.0
1001
PHOENIX7010
1002
{
1070
    62
1070
     7
1070
    41
1040
1.0
1002
}
  0
ARC
  5
23A7
330
1A
100
AcDbEntity
  8
0
  6
Continuous
 62
     7
100
AcDbCircle
 10
233.7842058633985
 20
168.1122059182142
 30
0.0
 40
6.000000000000003
100
AcDbArc
 50
148.8274947999445
 51
180.0
1001
PHOENIX7010
1002
{
1070
    62
1070
     7
1070
    41
1040
1.0
1002
}
  0
LINE
  5
23AE
330
1A
100
AcDbEntity
  8
1
  6
Continuous
 62
     7
100
AcDbLine
 10
230.7842058633986
 20
177.8783121311551
 30
0.0
 11
229.2842058633985
 21
179.3783121311551
 31
0.0
1001
PHOENIX7010
1002
{
1070
    41
1040
1.0
1002
}
  0
LINE
  5
23B2
330
1A
100
AcDbEntity
  8
0
  6
Continuous
 62
     7
100
AcDbLine
 10
52.93405538900504
 20
133.4895832263764
 30
0.0
 11
52.93405538900504
 21
127.6008543215975
 31
0.0
1001
PHOENIX7010
1002
{
1070
    41
1040
1.0
1002
}
  0
ARC
  5
23B3
330
1A
100
AcDbEntity
  8
0
  6
Continuous
 62
     7
100
AcDbCircle
 10
57.32278429378391
 20
133.4895832263764
 30
0.0
 40
4.388728904778932
100
AcDbArc
 50
148.8274947999447
 51
180.0
1001
PHOENIX7010
1002
{
1070
    41
1040
1.0
1002
}
  0
ARC
  5
23B4
330
1A
100
AcDbEntity
  8
0
  6
Continuous
 62
     7
100
AcDbCircle
 10
48.43405538900504
 20
138.8669605345385
 30
0.0
 40
6.000000000000003
100
AcDbArc
 50
328.8274947999446
 51
0.0
1001
PHOENIX7010
1002
{
1070
    41
1040
1.0
1002
}
  0
LINE
  5
23B5
330
1A
100
AcDbEntity
  8
0
  6
Continuous
 62
     7
100
AcDbLine
 10
54.43405538900504
 20
179.3979482067825
 30
0.0
 11
54.43405538900504
 21
138.8669605345385
 31
0.0
1001
PHOENIX7010
1002
{
1070
    41
1040
1.0
1002
}
  0
LINE
  5
23BD
330
1A
100
AcDbEntity
  8
1
  6
Continuous
 62
     7
100
AcDbLine
 10
51.43405538900498
 20
129.1008543215976
 30
0.0
 11
52.93405538900504
 21
127.6008543215976
 31
0.0
1001
PHOENIX7010
1002
{
1070
    41
1040
1.0
1002
}
  0
LINE
  5
23CC
330
1A
100
AcDbEntity
  8
1
  6
Continuous
 62
     7
100
AcDbLine
 10
163.0303787620808
 20
252.157133129944
 30
0.0
 11
164.5303787620808
 21
250.6571331299441
 31
0.0
1001
PHOENIX7010
1002
{
1070
    41
1040
1.0
1002
}
  0
ARC
  5
23F9
330
1A
100
AcDbEntity
  8
0
  6
Continuous
 62
     7
100
AcDbCircle
 10
153.2642725491399
 20
255.1571331299441
 30
0.0
 40
6.000000000000003
100
AcDbArc
 50
270.0
 51
301.1725052000506
1001
PHOENIX7010
1002
{
1070
    41
1040
1.0
1002
}
  0
ARC
  5
23FA
330
1A
100
AcDbEntity
  8
0
  6
Continuous
 62
     7
100
AcDbCircle
 10
158.6416498573019
 20
246.2684042251652
 30
0.0
 40
4.388728904778932
100
AcDbArc
 50
90.0
 51
121.1725052000506
1001
PHOENIX7010
1002
{
1070
    41
1040
1.0
1002
}
  0
LINE
  5
23FB
330
1A
100
AcDbEntity
  8
0
  6
Continuous
 62
     7
100
AcDbLine
 10
158.6416498573019
 20
250.6571331299441
 30
0.0
 11
164.5303787620808
 21
250.6571331299441
 31
0.0
1001
PHOENIX7010
1002
{
1070
    41
1040
1.0
1002
}
  0
LINE
  5
23FC
330
1A
100
AcDbEntity
  8
0
  6
Continuous
 62
     7
100
AcDbLine
 10
153.2642725491399
 20
249.1571331299441
 30
0.0
 11
114.7332848768958
 21
249.1571331299441
 31
0.0
1001
PHOENIX7010
1002
{
1070
    41
1040
1.0
1002
}
  0
LINE
  5
2402
330
1A
100
AcDbEntity
  8
1
  6
ACAD_ISO02W100
 62
     5
100
AcDbLine
 10
161.9147132170811
 20
89.32639659055794
 30
0.0
 11
162.1416498573016
 21
63.32203332280872
 31
0.0
1001
PHOENIX7010
1002
{
1070
    41
1040
1.0
1002
}
  0
LINE
  5
2403
330
1A
100
AcDbEntity
  8
1
  6
ACAD_ISO02W100
 62
     5
100
AcDbLine
 10
153.7147132170813
 20
89.32639659055807
 30
0.0
 11
153.9416498573018
 21
63.32203332280883
 31
0.0
1001
PHOENIX7010
1002
{
1070
    41
1040
1.0
1002
}
  0
LINE
  5
2404
330
1A
100
AcDbEntity
  8
1
  6
ACAD_ISO02W100
 62
     5
100
AcDbLine
 10
117.3685864975229
 20
89.32639659055794
 30
0.0
 11
117.1416498573024
 21
63.32203332280872
 31
0.0
1001
PHOENIX7010
1002
{
1070
    41
1040
1.0
1002
}
  0
LINE
  5
2405
330
1A
100
AcDbEntity
  8
1
  6
ACAD_ISO02W100
 62
     5
100
AcDbLine
 10
125.5685864975226
 20
89.32639659055807
 30
0.0
 11
125.3416498573021
 21
63.32203332280883
 31
0.0
1001
PHOENIX7010
1002
{
1070
    41
1040
1.0
1002
}
  0
LINE
  5
2406
330
1A
100
AcDbEntity
  8
1
  6
ACAD_ISO04W100
 62
     1
100
AcDbLine
 10
158.6416498573019
 20
61.32203332280884
 30
0.0
 11
158.6416498573019
 21
94.32203332280883
 31
0.0
1001
PHOENIX7010
1002
{
1070
    41
1040
1.0
1002
}
  0
LINE
  5
2407
330
1A
100
AcDbEntity
  8
1
  6
ACAD_ISO04W100
 62
     1
100
AcDbLine
 10
120.6416498573021
 20
61.32203332280884
 30
0.0
 11
120.6416498573021
 21
94.32203332280883
 31
0.0
1001
PHOENIX7010
1002
{
1070
    41
1040
1.0
1002
}
  0
LINE
  5
2408
330
1A
100
AcDbEntity
  8
1
  6
ACAD_ISO04W100
 62
     1
100
AcDbLine
 10
139.6416498573019
 20
52.82203332280883
 30
0.0
 11
139.6416498573019
 21
94.32203332280883
 31
0.0
1001
PHOENIX7010
1002
{
1070
    41
1040
1.0
1002
}
  0
LINE
  5
2409
330
1A
100
AcDbEntity
  8
1
  6
Continuous
 62
     7
100
AcDbLine
 10
115.141649857302
 20
64.82203332280883
 30
0.0
 11
115.141649857302
 21
65.82203332280883
 31
0.0
1001
PHOENIX7010
1002
{
1070
    41
1040
1.0
1002
}
  0
LINE
  5
240A
330
1A
100
AcDbEntity
  8
1
  6
Continuous
 62
     7
100
AcDbLine
 10
164.1416498573019
 20
64.82203332280883
 30
0.0
 11
164.1416498573019
 21
65.82203332280883
 31
0.0
1001
PHOENIX7010
1002
{
1070
    41
1040
1.0
1002
}
  0
LINE
  5
240C
330
1A
100
AcDbEntity
  8
1
  6
ACAD_ISO04W100
 62
     1
100
AcDbLine
 10
121.6416498573018
 20
66.82203332280884
 30
0.0
 11
121.6416498573018
 21
52.82203332280883
 31
0.0
1001
PHOENIX7010
1002
{
1070
    41
1040
1.0
1002
}
  0
LINE
  5
240D
330
1A
100
AcDbEntity
  8
1
  6
ACAD_ISO04W100
 62
     1
100
AcDbLine
 10
157.6416498573019
 20
66.82203332280884
 30
0.0
 11
157.6416498573019
 21
52.82203332280883
 31
0.0
1001
PHOENIX7010
1002
{
1070
    41
1040
1.0
1002
}
  0
LINE
  5
240E
330
1A
100
AcDbEntity
  8
0
  6
Continuous
 62
     7
100
AcDbLine
 10
164.3143819301811
 20
90.82203332280883
 30
0.0
 11
114.9689177844229
 21
90.82203332280883
 31
0.0
1001
PHOENIX7010
1002
{
1070
    41
1040
1.0
1002
}
  0
LINE
  5
240F
330
1A
100
AcDbEntity
  8
1
  6
ACAD_ISO02W100
 62
     5
100
AcDbLine
 10
131.1416498573024
 20
84.32203332280883
 30
0.0
 11
148.1416498573012
 21
84.32203332280883
 31
0.0
1001
PHOENIX7010
1002
{
1070
    41
1040
1.0
1002
}
  0
LINE
  5
2410
330
1A
100
AcDbEntity
  8
1
  6
ACAD_ISO02W100
 62
     5
100
AcDbLine
 10
161.414732255549
 20
89.82203332280873
 30
0.0
 11
117.868567459055
 21
89.82203332280883
 31
0.0
1001
PHOENIX7010
1002
{
1070
    41
1040
1.0
1002
}
  0
LINE
  5
2411
330
1A
100
AcDbEntity
  8
1
  6
Continuous
 62
     7
100
AcDbLine
 10
164.6416498573019
 20
65.82203332280883
 30
0.0
 11
114.641649857302
 21
65.82203332280883
 31
0.0
1001
PHOENIX7010
1002
{
1070
    41
1040
1.0
1002
}
  0
LINE
  5
2412
330
1A
100
AcDbEntity
  8
1
  6
Continuous
 62
     7
100
AcDbLine
 10
115.9689177844229
 20
91.82203332280883
 30
0.0
 11
163.3143819301811
 21
91.82203332280883
 31
0.0
1001
PHOENIX7010
1002
{
1070
    41
1040
1.0
1002
}
  0
LINE
  5
2413
330
1A
100
AcDbEntity
  8
1
  6
ACAD_ISO02W100
 62
     5
100
AcDbLine
 10
148.1416498573012
 20
89.82203332280883
 30
0.0
 11
148.1416498573012
 21
84.32203332280883
 31
0.0
1001
PHOENIX7010
1002
{
1070
    41
1040
1.0
1002
}
  0
LINE
  5
2414
330
1A
100
AcDbEntity
  8
1
  6
ACAD_ISO02W100
 62
     5
100
AcDbLine
 10
142.5463873669576
 20
84.32203332280883
 30
0.0
 11
142.5463873669576
 21
89.82203332280883
 31
0.0
1001
PHOENIX7010
1002
{
1070
    41
1040
1.0
1002
}
  0
LINE
  5
2415
330
1A
100
AcDbEntity
  8
1
  6
ACAD_ISO02W100
 62
     5
100
AcDbLine
 10
136.7369123476463
 20
84.32203332280883
 30
0.0
 11
136.7369123476463
 21
89.82203332280883
 31
0.0
1001
PHOENIX7010
1002
{
1070
    41
1040
1.0
1002
}
  0
LINE
  5
2416
330
1A
100
AcDbEntity
  8
1
  6
Continuous
 62
     7
100
AcDbLine
 10
164.3143819301811
 20
90.82203332280883
 30
0.0
 11
164.6416498573019
 21
65.82203332280883
 31
0.0
1001
PHOENIX7010
1002
{
1070
    41
1040
1.0
1002
}
  0
LINE
  5
2417
330
1A
100
AcDbEntity
  8
1
  6
Continuous
 62
     7
100
AcDbLine
 10
154.1416498573019
 20
92.32203332280883
 30
0.0
 11
159.1416498573019
 21
92.3220333228086
 31
0.0
1001
PHOENIX7010
1002
{
1070
    41
1040
1.0
1002
}
  0
ARC
  5
2418
330
1A
100
AcDbEntity
  8
1
  6
ACAD_ISO02W100
 62
     5
100
AcDbCircle
 10
161.414732255549
 20
89.32203332280872
 30
0.0
 40
0.5000000000000316
100
AcDbArc
 50
0.5000000000045787
 51
90.0
1001
PHOENIX7010
1002
{
1070
    41
1040
1.0
1002
}
  0
LINE
  5
2419
330
1A
100
AcDbEntity
  8
1
  6
Continuous
 62
     7
100
AcDbLine
 10
163.3143819301811
 20
91.82203332280883
 30
0.0
 11
164.3143819301811
 21
90.82203332280883
 31
0.0
1001
PHOENIX7010
1002
{
1070
    41
1040
1.0
1002
}
  0
LINE
  5
241A
330
1A
100
AcDbEntity
  8
1
  6
Continuous
 62
     7
100
AcDbLine
 10
159.1416498573019
 20
92.3220333228086
 30
0.0
 11
159.1416498573019
 21
91.82203332280861
 31
0.0
1001
PHOENIX7010
1002
{
1070
    41
1040
1.0
1002
}
  0
ARC
  5
241B
330
1A
100
AcDbEntity
  8
1
  6
ACAD_ISO02W100
 62
     5
100
AcDbCircle
 10
153.2147322555492
 20
89.32203332280883
 30
0.0
 40
0.5000000000000031
100
AcDbArc
 50
0.5000000000045787
 51
90.0
1001
PHOENIX7010
1002
{
1070
    41
1040
1.0
1002
}
  0
LINE
  5
241C
330
1A
100
AcDbEntity
  8
1
  6
Continuous
 62
     7
100
AcDbLine
 10
154.1416498573019
 20
91.82203332280883
 30
0.0
 11
154.1416498573019
 21
92.32203332280883
 31
0.0
1001
PHOENIX7010
1002
{
1070
    41
1040
1.0
1002
}
  0
LINE
  5
241D
330
1A
100
AcDbEntity
  8
1
  6
ACAD_ISO02W100
 62
     5
100
AcDbLine
 10
131.1416498573024
 20
89.82203332280883
 30
0.0
 11
131.1416498573024
 21
84.32203332280883
 31
0.0
1001
PHOENIX7010
1002
{
1070
    41
1040
1.0
1002
}
  0
LINE
  5
241E
330
1A
100
AcDbEntity
  8
1
  6
Continuous
 62
     7
100
AcDbLine
 10
114.9689177844229
 20
90.82203332280883
 30
0.0
 11
114.641649857302
 21
65.82203332280883
 31
0.0
1001
PHOENIX7010
1002
{
1070
    41
1040
1.0
1002
}
  0
LINE
  5
241F
330
1A
100
AcDbEntity
  8
1
  6
Continuous
 62
     7
100
AcDbLine
 10
115.9689177844229
 20
91.82203332280883
 30
0.0
 11
114.9689177844229
 21
90.82203332280883
 31
0.0
1001
PHOENIX7010
1002
{
1070
    41
1040
1.0
1002
}
  0
LINE
  5
2420
330
1A
100
AcDbEntity
  8
1
  6
Continuous
 62
     7
100
AcDbLine
 10
124.641649857302
 20
92.32203332280883
 30
0.0
 11
116.641649857302
 21
92.32203332280883
 31
0.0
1001
PHOENIX7010
1002
{
1070
    41
1040
1.0
1002
}
  0
ARC
  5
2421
330
1A
100
AcDbEntity
  8
1
  6
ACAD_ISO02W100
 62
     5
100
AcDbCircle
 10
126.0685674590547
 20
89.32203332280883
 30
0.0
 40
0.5
100
AcDbArc
 50
90.0
 51
179.4999999999954
1001
PHOENIX7010
1002
{
1070
    41
1040
1.0
1002
}
  0
LINE
  5
2422
330
1A
100
AcDbEntity
  8
1
  6
Continuous
 62
     7
100
AcDbLine
 10
124.641649857302
 20
91.82203332280883
 30
0.0
 11
124.641649857302
 21
92.32203332280883
 31
0.0
1001
PHOENIX7010
1002
{
1070
    41
1040
1.0
1002
}
  0
ARC
  5
2423
330
1A
100
AcDbEntity
  8
1
  6
ACAD_ISO02W100
 62
     5
100
AcDbCircle
 10
117.868567459055
 20
89.32203332280872
 30
0.0
 40
0.5
100
AcDbArc
 50
90.0
 51
179.4999999999954
1001
PHOENIX7010
1002
{
1070
    41
1040
1.0
1002
}
  0
LINE
  5
2424
330
1A
100
AcDbEntity
  8
1
  6
Continuous
 62
     7
100
AcDbLine
 10
116.641649857302
 20
91.82203332280883
 30
0.0
 11
116.641649857302
 21
92.32203332280883
 31
0.0
1001
PHOENIX7010
1002
{
1070
    41
1040
1.0
1002
}
  0
LINE
  5
2425
102
{ACAD_REACTORS
330
869B
102
}
330
1A
100
AcDbEntity
  8
1
  6
Continuous
 62
     7
100
AcDbLine
 10
163.0303787620808
 20
54.82203332280883
 30
0.0
 11
116.2529209525231
 21
54.82203332280883
 31
0.0
1001
PHOENIX7010
1002
{
1070
    41
1040
1.0
1002
}
  0
LINE
  5
2426
330
1A
100
AcDbEntity
  8
0
  6
Continuous
 62
     7
100
AcDbLine
 10
126.019027165464
 20
57.82203332280883
 30
0.0
 11
164.550014837708
 21
57.82203332280883
 31
0.0
1001
PHOENIX7010
1002
{
1070
    41
1040
1.0
1002
}
  0
LINE
  5
2428
330
1A
100
AcDbEntity
  8
1
  6
ACAD_ISO02W100
 62
     5
100
AcDbLine
 10
116.3416498573021
 20
63.32203332280883
 30
0.0
 11
162.9416498573018
 21
63.32203332280883
 31
0.0
1001
PHOENIX7010
1002
{
1070
    41
1040
1.0
1002
}
  0
LINE
  5
2429
102
{ACAD_REACTORS
330
869A
102
}
330
1A
100
AcDbEntity
  8
1
  6
Continuous
 62
     7
100
AcDbLine
 10
114.6416498573019
 20
64.82203332280883
 30
0.0
 11
164.6416498573018
 21
64.82203332280883
 31
0.0
1001
PHOENIX7010
1002
{
1070
    41
1040
1.0
1002
}
  0
LINE
  5
242A
330
1A
100
AcDbEntity
  8
1
  6
ACAD_ISO02W100
 62
     5
100
AcDbLine
 10
160.0761793096783
 20
56.82203332280884
 30
0.0
 11
119.2071204049254
 21
56.82203332280884
 31
0.0
1001
PHOENIX7010
1002
{
1070
    41
1040
1.0
1002
}
  0
LINE
  5
242D
330
1A
100
AcDbEntity
  8
1
  6
ACAD_ISO02W100
 62
     5
100
AcDbLine
 10
160.5761602712105
 20
57.31767005505961
 30
0.0
 11
160.6416498573019
 21
64.82203332280883
 31
0.0
1001
PHOENIX7010
1002
{
1070
    41
1040
1.0
1002
}
  0
LINE
  5
242E
330
1A
100
AcDbEntity
  8
1
  6
Continuous
 62
     7
100
AcDbLine
 10
164.5303787620808
 20
56.32203332280884
 30
0.0
 11
164.6416498573018
 21
64.82203332280883
 31
0.0
1001
PHOENIX7010
1002
{
1070
    41
1040
1.0
1002
}
  0
LINE
  5
242F
330
1A
100
AcDbEntity
  8
1
  6
ACAD_ISO02W100
 62
     5
100
AcDbLine
 10
163.1416498573018
 20
64.82203332280883
 30
0.0
 11
162.9416498573018
 21
63.32203332280883
 31
0.0
1001
PHOENIX7010
1002
{
1070
    41
1040
1.0
1002
}
  0
ARC
  5
2430
330
1A
100
AcDbEntity
  8
1
  6
ACAD_ISO02W100
 62
     5
100
AcDbCircle
 10
162.1416498573019
 20
62.52203332280877
 30
0.0
 40
0.5
100
AcDbArc
 50
180.0
 51
270.0
1001
PHOENIX7010
1002
{
1070
    41
1040
1.0
1002
}
  0
ARC
  5
2431
330
1A
100
AcDbEntity
  8
1
  6
ACAD_ISO02W100
 62
     5
100
AcDbCircle
 10
163.1416498573019
 20
62.52203332280877
 30
0.0
 40
0.5
100
AcDbArc
 50
270.0
 51
0.000000000000007
1001
PHOENIX7010
1002
{
1070
    41
1040
1.0
1002
}
  0
LINE
  5
2432
330
1A
100
AcDbEntity
  8
1
  6
ACAD_ISO02W100
 62
     5
100
AcDbLine
 10
161.6416498573019
 20
62.52203332280877
 30
0.0
 11
161.6416498573019
 21
64.82203332280883
 31
0.0
1001
PHOENIX7010
1002
{
1070
    41
1040
1.0
1002
}
  0
LINE
  5
2433
330
1A
100
AcDbEntity
  8
1
  6
ACAD_ISO02W100
 62
     5
100
AcDbLine
 10
163.6416498573019
 20
62.52203332280877
 30
0.0
 11
163.6416498573019
 21
64.82203332280883
 31
0.0
1001
PHOENIX7010
1002
{
1070
    41
1040
1.0
1002
}
  0
LINE
  5
2434
330
1A
100
AcDbEntity
  8
1
  6
ACAD_ISO02W100
 62
     5
100
AcDbLine
 10
163.1416498573019
 20
62.02203332280877
 30
0.0
 11
162.1416498573019
 21
62.02203332280877
 31
0.0
1001
PHOENIX7010
1002
{
1070
    41
1040
1.0
1002
}
  0
LINE
  5
2435
330
1A
100
AcDbEntity
  8
1
  6
Continuous
 62
     7
100
AcDbLine
 10
163.0303787620808
 20
54.82203332280883
 30
0.0
 11
164.5303787620808
 21
56.32203332280884
 31
0.0
1001
PHOENIX7010
1002
{
1070
    41
1040
1.0
1002
}
  0
LINE
  5
2436
330
1A
100
AcDbEntity
  8
1
  6
Continuous
 62
     7
100
AcDbLine
 10
161.550014837708
 20
54.82203332280883
 30
0.0
 11
164.550014837708
 21
57.82203332280883
 31
0.0
1001
PHOENIX7010
1002
{
1070
    41
1040
1.0
1002
}
  0
ARC
  5
2437
330
1A
100
AcDbEntity
  8
1
  6
ACAD_ISO02W100
 62
     5
100
AcDbCircle
 10
160.0761793096783
 20
57.32203332280883
 30
0.0
 40
0.5
100
AcDbArc
 50
270.0
 51
359.4999999999954
1001
PHOENIX7010
1002
{
1070
    41
1040
1.0
1002
}
  0
LINE
  5
2438
330
1A
100
AcDbEntity
  8
1
  6
ACAD_ISO02W100
 62
     5
100
AcDbLine
 10
152.3761602712104
 20
57.31767005505961
 30
0.0
 11
152.4416498573019
 21
64.82203332280883
 31
0.0
1001
PHOENIX7010
1002
{
1070
    41
1040
1.0
1002
}
  0
ARC
  5
2439
330
1A
100
AcDbEntity
  8
1
  6
ACAD_ISO02W100
 62
     5
100
AcDbCircle
 10
151.8761793096783
 20
57.32203332280883
 30
0.0
 40
0.5
100
AcDbArc
 50
270.0
 51
359.4999999999954
1001
PHOENIX7010
1002
{
1070
    41
1040
1.0
1002
}
  0
LINE
  5
243A
330
1A
100
AcDbEntity
  8
0
  6
Continuous
 62
     7
100
AcDbLine
 10
120.6416498573019
 20
56.32203332280884
 30
0.0
 11
114.7529209525231
 21
56.32203332280884
 31
0.0
1001
PHOENIX7010
1002
{
1070
    41
1040
1.0
1002
}
  0
LINE
  5
243B
330
1A
100
AcDbEntity
  8
1
  6
Continuous
 62
     7
100
AcDbLine
 10
116.2529209525231
 20
54.82203332280883
 30
0.0
 11
114.7529209525231
 21
56.32203332280884
 31
0.0
1001
PHOENIX7010
1002
{
1070
    41
1040
1.0
1002
}
  0
ARC
  5
243C
330
1A
100
AcDbEntity
  8
1
  6
ACAD_ISO02W100
 62
     5
100
AcDbCircle
 10
116.1416498573018
 20
62.52203332280888
 30
0.0
 40
0.5
100
AcDbArc
 50
180.0
 51
270.0
1001
PHOENIX7010
1002
{
1070
    41
1040
1.0
1002
}
  0
ARC
  5
243F
330
1A
100
AcDbEntity
  8
0
  6
Continuous
 62
     7
100
AcDbCircle
 10
126.019027165464
 20
51.82203332280884
 30
0.0
 40
6.000000000000003
100
AcDbArc
 50
90.0
 51
121.1725052000506
1001
PHOENIX7010
1002
{
1070
    41
1040
1.0
1002
}
  0
LINE
  5
2440
330
1A
100
AcDbEntity
  8
1
  6
ACAD_ISO02W100
 62
     5
100
AcDbLine
 10
126.9071394433934
 20
57.31767005505972
 30
0.0
 11
126.8416498573019
 21
64.82203332280883
 31
0.0
1001
PHOENIX7010
1002
{
1070
    41
1040
1.0
1002
}
  0
ARC
  5
2441
330
1A
100
AcDbEntity
  8
1
  6
ACAD_ISO02W100
 62
     5
100
AcDbCircle
 10
127.4071204049255
 20
57.32203332280883
 30
0.0
 40
0.5
100
AcDbArc
 50
180.4999999999915
 51
270.0
1001
PHOENIX7010
1002
{
1070
    41
1040
1.0
1002
}
  0
LINE
  5
2442
330
1A
100
AcDbEntity
  8
1
  6
ACAD_ISO02W100
 62
     5
100
AcDbLine
 10
118.7071394433933
 20
57.31767005505961
 30
0.0
 11
118.6416498573018
 21
64.82203332280883
 31
0.0
1001
PHOENIX7010
1002
{
1070
    41
1040
1.0
1002
}
  0
LINE
  5
2443
330
1A
100
AcDbEntity
  8
1
  6
ACAD_ISO02W100
 62
     5
100
AcDbLine
 10
116.141649857302
 20
64.82203332280883
 30
0.0
 11
116.3416498573021
 21
63.32203332280883
 31
0.0
1001
PHOENIX7010
1002
{
1070
    41
1040
1.0
1002
}
  0
ARC
  5
2444
330
1A
100
AcDbEntity
  8
1
  6
ACAD_ISO02W100
 62
     5
100
AcDbCircle
 10
117.1416498573018
 20
62.52203332280888
 30
0.0
 40
0.5
100
AcDbArc
 50
270.0
 51
0.000000000000007
1001
PHOENIX7010
1002
{
1070
    41
1040
1.0
1002
}
  0
LINE
  5
2445
330
1A
100
AcDbEntity
  8
1
  6
ACAD_ISO02W100
 62
     5
100
AcDbLine
 10
117.6416498573018
 20
62.52203332280888
 30
0.0
 11
117.6416498573018
 21
64.82203332280883
 31
0.0
1001
PHOENIX7010
1002
{
1070
    41
1040
1.0
1002
}
  0
LINE
  5
2446
330
1A
100
AcDbEntity
  8
1
  6
ACAD_ISO02W100
 62
     5
100
AcDbLine
 10
116.1416498573018
 20
62.02203332280888
 30
0.0
 11
117.1416498573018
 21
62.02203332280888
 31
0.0
1001
PHOENIX7010
1002
{
1070
    41
1040
1.0
1002
}
  0
ARC
  5
2447
330
1A
100
AcDbEntity
  8
0
  6
Continuous
 62
     7
100
AcDbCircle
 10
120.6416498573019
 20
60.71076222758771
 30
0.0
 40
4.388728904778932
100
AcDbArc
 50
270.0
 51
301.1725052000506
1001
PHOENIX7010
1002
{
1070
    41
1040
1.0
1002
}
  0
ARC
  5
2448
330
1A
100
AcDbEntity
  8
1
  6
ACAD_ISO02W100
 62
     5
100
AcDbCircle
 10
119.2071204049254
 20
57.32203332280883
 30
0.0
 40
0.4999999999999748
100
AcDbArc
 50
180.5000000000046
 51
270.0
1001
PHOENIX7010
1002
{
1070
    41
1040
1.0
1002
}
  0
LINE
  5
2449
330
1A
100
AcDbEntity
  8
1
  6
Continuous
 62
     7
100
AcDbLine
 10
114.7529209525231
 20
56.32203332280884
 30
0.0
 11
114.6416498573019
 21
64.82203332280883
 31
0.0
1001
PHOENIX7010
1002
{
1070
    41
1040
1.0
1002
}
  0
LINE
  5
244A
330
1A
100
AcDbEntity
  8
1
  6
ACAD_ISO02W100
 62
     5
100
AcDbLine
 10
115.6416498573018
 20
62.52203332280888
 30
0.0
 11
115.6416498573018
 21
64.82203332280883
 31
0.0
1001
PHOENIX7010
1002
{
1070
    41
1040
1.0
1002
}
  0
INSERT
  5
2450
330
1A
100
AcDbEntity
  8
0
  6
Continuous
 62
     7
100
AcDbBlockReference
  2
PH_GRPBLK
 10
62.43405538900493
 20
179.4895832263764
 30
0.0
  0
INSERT
  5
2454
330
1A
100
AcDbEntity
  8
0
  6
Continuous
 62
     7
100
AcDbBlockReference
  2
PH_GRPBLK
 10
153.6416498573019
 20
179.4895832263763
 30
0.0
  0
INSERT
  5
2458
330
1A
100
AcDbEntity
  8
0
  6
Continuous
 62
     7
100
AcDbBlockReference
  2
PH_GRPBLK
 10
219.7842058633985
 20
179.4895832263762
 30
0.0
  0
INSERT
  5
245D
330
1A
100
AcDbEntity
  8
0
  6
Continuous
 62
     7
100
AcDbBlockReference
  2
PH_GRPBLK
 10
157.641649857302
 20
252.1571331299441
 30
0.0
  0
INSERT
  5
2462
330
1A
100
AcDbEntity
  8
0
  6
Continuous
 62
     7
100
AcDbBlockReference
  2
PH_GRPBLK
 10
158.6416498573019
 20
92.32203332280869
 30
0.0
  0
INSERT
  5
2467
330
1A
100
AcDbEntity
  8
0
  6
Continuous
 62
     7
100
AcDbBlockReference
  2
PH_GRPBLK
 10
292.9453054207379
 20
179.4895832263762
 30
0.0
  0
DIMENSION
  5
5166
102
{ACAD_REACTORS
330
5508
102
}
330
1A
100
AcDbEntity
  8
2
  6
Continuous
 62
     7
100
AcDbDimension
  2
*D3
 10
298.9453054207393
 20
193.4895832263763
 30
0.0
 11
273.9453054207392
 21
196.9895832263763
 31
0.0
 70
    32
 71
     5
 42
50.0
  3
PHOENIX
100
AcDbAlignedDimension
 13
248.9453054207392
 23
173.4895832263762
 33
0.0
 14
298.9453054207393
 24
173.4895832263762
 34
0.0
100
AcDbRotatedDimension
1001
ACAD
1000
DSTYLE
1002
{
1070
   140
1040
5.0
1070
   147
1040
1.0
1070
   271
1070
     6
1070
   272
1070
     6
1002
}
  0
DIMENSION
  5
6E57
102
{ACAD_REACTORS
330
7482
102
}
330
1A
100
AcDbEntity
  8
2
  6
Continuous
 62
     7
100
AcDbDimension
  2
*D4
 10
312.9453054207387
 20
127.4895832263762
 30
0.0
 11
309.4448132947544
 21
153.4895832263763
 31
0.0
 70
    32
 71
     5
 42
51.99999999999999
  3
PHOENIX
100
AcDbAlignedDimension
 13
292.9453054207392
 23
179.4895832263762
 33
0.0
 14
292.9453054207392
 24
127.4895832263762
 34
0.0
 50
90.0
100
AcDbRotatedDimension
1001
ACAD
1000
DSTYLE
1002
{
1070
   140
1040
5.0
1070
   147
1040
1.0
1070
   271
1070
     6
1070
   272
1070
     6
1002
}
  0
DIMENSION
  5
8277
102
{ACAD_REACTORS
330
869C
102
}
330
1A
100
AcDbEntity
  8
2
  6
Continuous
 62
     7
100
AcDbDimension
  2
*D5
 10
178.6416498573018
 20
54.82203332280882
 30
0.0
 11
175.1416498573018
 21
59.82203332280886
 31
0.0
 70
    32
 71
     5
 42
10.0
  3
PHOENIX
100
AcDbAlignedDimension
 13
164.6416498573018
 23
64.82203332280883
 33
0.0
 14
163.0303787620808
 24
54.82203332280883
 34
0.0
 50
90.0
100
AcDbRotatedDimension
1001
ACAD
1000
DSTYLE
1002
{
1070
   140
1040
5.0
1070
   147
1040
1.0
1070
   271
1070
     6
1070
   272
1070
     6
1002
}
  0
DIMENSION
  5
924A
330
1A
100
AcDbEntity
  8
2
  6
Continuous
 62
     7
100
AcDbDimension
  2
*D6
 10
188.6416498573018
 20
54.82203332280882
 30
0.0
 11
185.1416498573018
 21
73.32203332280887
 31
0.0
 70
    32
 71
     5
 42
37.00000000000001
  3
PHOENIX
100
AcDbAlignedDimension
 13
163.3143819301811
 23
91.82203332280883
 33
0.0
 14
163.0303787620808
 24
54.82203332280883
 34
0.0
 50
90.0
100
AcDbRotatedDimension
1001
ACAD
1000
DSTYLE
1002
{
1070
   140
1040
5.0
1070
   147
1040
1.0
1070
   271
1070
     6
1070
   272
1070
     6
1002
}
  0
MTEXT
  5
BBE3
330
1A
100
AcDbEntity
  8
0
  6
Continuous
 62
     5
370
    35
100
AcDbMText
 10
94.70764759758322
 20
97.20418606996862
 30
0.0
 40
5.0
 41
0.0
 71
     7
 72
     5
  1
Seite 4/\P{\Q20;Side 4}
 73
     1
 44
1.0
1001
PHOENIX7010
1002
{
1070
    41
1040
1.0
1002
}
1001
ACAD
1000
MTEXTBEGIN
1070
    73
1070
     1
1070
    44
1040
1.0
1070
    74
1070
     0
1000
MTEXTEND
  0
MTEXT
  5
BBE4
330
1A
100
AcDbEntity
  8
0
  6
Continuous
 62
     5
370
    35
100
AcDbMText
 10
37.19938566427459
 20
184.7828394883958
 30
0.0
 40
5.0
 41
0.0
 71
     7
 72
     5
  1
Seite 2/\P{\Q20;Side 2}
 73
     1
 44
1.0
1001
PHOENIX7010
1002
{
1070
    41
1040
1.0
1002
}
1001
ACAD
1000
MTEXTBEGIN
1070
    73
1070
     1
1070
    44
1040
1.0
1070
    74
1070
     0
1000
MTEXTEND
  0
MTEXT
  5
BBE5
330
1A
100
AcDbEntity
  8
0
  6
Continuous
 62
     5
370
    35
100
AcDbMText
 10
104.1751970755626
 20
185.0771094293644
 30
0.0
 40
5.0
 41
0.0
 71
     7
 72
     5
  1
Seite 6 (Deckel)/\P{\Q20;Side 6 (Lid)}
 73
     1
 44
1.0
1001
PHOENIX7010
1002
{
1070
    41
1040
1.0
1002
}
1001
ACAD
1000
MTEXTBEGIN
1070
    73
1070
     1
1070
    44
1040
1.0
1070
    74
1070
     0
1000
MTEXTEND
  0
MTEXT
  5
BBE6
330
1A
100
AcDbEntity
  8
0
  6
Continuous
 62
     5
370
    35
100
AcDbMText
 10
187.6175671946714
 20
185.0771094293645
 30
0.0
 40
5.0
 41
0.0
 71
     7
 72
     5
  1
Seite 1/\P{\Q20;Side 1}
 73
     1
 44
1.0
1001
PHOENIX7010
1002
{
1070
    41
1040
1.0
1002
}
1001
ACAD
1000
MTEXTBEGIN
1070
    73
1070
     1
1070
    44
1040
1.0
1070
    74
1070
     0
1000
MTEXTEND
  0
MTEXT
  5
BBE7
330
1A
100
AcDbEntity
  8
0
  6
Continuous
 62
     5
370
    35
100
AcDbMText
 10
309.3615249711438
 20
186.8427170016972
 30
0.0
 40
5.0
 41
0.0
 71
     7
 72
     5
  1
Seite 5 (Boden)/\P{\Q20;Side 5 (Base)}
 73
     1
 44
1.0
1001
PHOENIX7010
1002
{
1070
    41
1040
1.0
1002
}
1001
ACAD
1000
MTEXTBEGIN
1070
    73
1070
     1
1070
    44
1040
1.0
1070
    74
1070
     0
1000
MTEXTEND
  0
MTEXT
  5
BBE8
330
1A
100
AcDbEntity
  8
0
  6
Continuous
 62
     5
370
    35
100
AcDbMText
 10
97.36637285559073
 20
258.7330241456395
 30
0.0
 40
5.0
 41
0.0
 71
     7
 72
     5
  1
Seite 3/\P{\Q20;Side 3}
 73
     1
 44
1.0
1001
PHOENIX7010
1002
{
1070
    41
1040
1.0
1002
}
1001
ACAD
1000
MTEXTBEGIN
1070
    73
1070
     1
1070
    44
1040
1.0
1070
    74
1070
     0
1000
MTEXTEND
  0
LINE
  5
BBE9
102
{ACAD_REACTORS
330
BBF8
102
}
330
1A
100
AcDbEntity
  8
0
  6
Continuous
 62
     1
100
AcDbLine
 10
230.0
 20
5.000000000000113
 30
0.0
 11
230.0
 21
1.000000000000113
 31
0.0
1001
PHOENIX7010
1002
{
1070
    62
1070
     1
1070
    41
1040
1.0
1002
}
  0
LINE
  5
BBEA
102
{ACAD_REACTORS
330
BBF8
102
}
330
1A
100
AcDbEntity
  8
0
  6
Continuous
 62
     3
100
AcDbLine
 10
415.0
 20
5.000000000000113
 30
0.0
 11
20.0
 21
5.000000000000113
 31
0.0
1001
PHOENIX7010
1002
{
1070
    62
1070
     3
1070
    41
1040
1.0
1002
}
  0
LINE
  5
BBEB
102
{ACAD_REACTORS
330
BBF8
102
}
330
1A
100
AcDbEntity
  8
0
  6
Continuous
 62
     1
100
AcDbLine
 10
125.0
 20
296.0000000000001
 30
0.0
 11
125.0
 21
292.0000000000001
 31
0.0
1001
PHOENIX7010
1002
{
1070
    62
1070
     1
1070
    41
1040
1.0
1002
}
  0
LINE
  5
BBEC
102
{ACAD_REACTORS
330
BBF8
102
}
330
1A
100
AcDbEntity
  8
0
  6
Continuous
 62
     1
100
AcDbLine
 10
230.0
 20
296.0000000000001
 30
0.0
 11
230.0
 21
292.0000000000001
 31
0.0
1001
PHOENIX7010
1002
{
1070
    62
1070
     1
1070
    41
1040
1.0
1002
}
  0
LINE
  5
BBED
102
{ACAD_REACTORS
330
BBF8
102
}
330
1A
100
AcDbEntity
  8
0
  6
Continuous
 62
     1
100
AcDbLine
 10
125.0
 20
5.000000000000113
 30
0.0
 11
125.0
 21
1.000000000000113
 31
0.0
1001
PHOENIX7010
1002
{
1070
    62
1070
     1
1070
    41
1040
1.0
1002
}
  0
LINE
  5
BBEE
102
{ACAD_REACTORS
330
BBF8
102
}
330
1A
100
AcDbEntity
  8
0
  6
Continuous
 62
     1
100
AcDbLine
 10
419.0
 20
1.000000000000113
 30
0.0
 11
1.0
 21
1.000000000000113
 31
0.0
1001
PHOENIX7010
1002
{
1070
    62
1070
     1
1070
    41
1040
1.0
1002
}
  0
LINE
  5
BBEF
102
{ACAD_REACTORS
330
BBF8
102
}
330
1A
100
AcDbEntity
  8
0
  6
Continuous
 62
     1
100
AcDbLine
 10
1.0
 20
1.000000000000113
 30
0.0
 11
1.0
 21
296.0000000000001
 31
0.0
1001
PHOENIX7010
1002
{
1070
    62
1070
     1
1070
    41
1040
1.0
1002
}
  0
LINE
  5
BBF0
102
{ACAD_REACTORS
330
BBF8
102
}
330
1A
100
AcDbEntity
  8
0
  6
Continuous
 62
     1
100
AcDbLine
 10
1.0
 20
296.0000000000001
 30
0.0
 11
419.0
 21
296.0000000000001
 31
0.0
1001
PHOENIX7010
1002
{
1070
    62
1070
     1
1070
    41
1040
1.0
1002
}
  0
LINE
  5
BBF1
102
{ACAD_REACTORS
330
BBF8
102
}
330
1A
100
AcDbEntity
  8
0
  6
Continuous
 62
     1
100
AcDbLine
 10
419.0
 20
296.0000000000001
 30
0.0
 11
419.0
 21
1.000000000000113
 31
0.0
1001
PHOENIX7010
1002
{
1070
    62
1070
     1
1070
    41
1040
1.0
1002
}
  0
LINE
  5
BBF2
102
{ACAD_REACTORS
330
BBF8
102
}
330
1A
100
AcDbEntity
  8
0
  6
Continuous
 62
     3
100
AcDbLine
 10
20.0
 20
5.000000000000113
 30
0.0
 11
20.0
 21
292.0000000000001
 31
0.0
1001
PHOENIX7010
1002
{
1070
    62
1070
     3
1070
    41
1040
1.0
1002
}
  0
LINE
  5
BBF3
102
{ACAD_REACTORS
330
BBF8
102
}
330
1A
100
AcDbEntity
  8
0
  6
Continuous
 62
     3
100
AcDbLine
 10
20.0
 20
292.0000000000001
 30
0.0
 11
415.0
 21
292.0000000000001
 31
0.0
1001
PHOENIX7010
1002
{
1070
    62
1070
     3
1070
    41
1040
1.0
1002
}
  0
LINE
  5
BBF4
102
{ACAD_REACTORS
330
BBF8
102
}
330
1A
100
AcDbEntity
  8
0
  6
Continuous
 62
     3
100
AcDbLine
 10
415.0
 20
292.0000000000001
 30
0.0
 11
415.0
 21
5.000000000000113
 31
0.0
1001
PHOENIX7010
1002
{
1070
    62
1070
     3
1070
    41
1040
1.0
1002
}
  0
MTEXT
  5
BBF5
102
{ACAD_REACTORS
330
BBF8
102
}
330
1A
100
AcDbEntity
  8
0
  6
Continuous
 62
     7
370
    50
100
AcDbMText
 10
19.70248718641096
 20
55.39351207913341
 30
0.0
 40
2.0
 41
0.0
 71
     7
 72
     5
  1
{\T1.1;\C1;"Schutzvermerk nach DIN ISO 16016 beachten" \Q20;"Please pay attention to copyright note DIN ISO 16016"}
 11
0.0000000000000002
 21
1.0
 31
0.0
 73
     1
 44
1.0
1001
PHOENIX7010
1002
{
1070
    41
1040
1.0
1002
}
1001
ACAD
1000
MTEXTBEGIN
1070
    73
1070
     1
1070
    44
1040
1.0
1070
    74
1070
     0
1000
MTEXTEND
  0
INSERT
  5
BBF6
102
{ACAD_REACTORS
330
BBF8
102
}
330
1A
100
AcDbEntity
  8
0
  6
Continuous
 62
     1
100
AcDbBlockReference
  2
PH_GRPBLK
 10
230.0
 20
5.000000000000113
 30
0.0
1001
PHOENIX7010
1002
{
1070
    41
1040
1.0
1002
}
  0
MTEXT
  5
BBFF
102
{ACAD_REACTORS
330
B5EE
102
}
330
1A
100
AcDbEntity
  8
0
  6
Continuous
 62
     5
370
    35
100
AcDbMText
 10
339.7913305013808
 20
133.1355030484365
 30
0.0
 40
2.5
 41
0.0
 71
     7
 72
     5
  1
{\Q20;DIN ISO 2768-mk for machining}
 73
     1
 44
1.0
1001
PHOENIX7010
1002
{
1070
    41
1040
1.0
1002
}
1001
ACAD
1000
MTEXTBEGIN
1070
    73
1070
     1
1070
    44
1040
1.0
1070
    74
1070
     0
1000
MTEXTEND
  0
MTEXT
  5
BC00
102
{ACAD_REACTORS
330
B5EE
102
}
330
1A
100
AcDbEntity
  8
0
  6
Continuous
 62
     5
370
    35
100
AcDbMText
 10
318.9304981780733
 20
75.18090043987115
 30
0.0
 40
4.0
 41
0.0
 71
     7
 72
     5
  1
{\C7;-}
 73
     1
 44
1.0
1001
PHOENIX7010
1002
{
1070
    41
1040
1.0
1002
}
1001
ACAD
1000
MTEXTBEGIN
1070
    73
1070
     1
1070
    44
1040
1.0
1070
    74
1070
     0
1000
MTEXTEND
  0
MTEXT
  5
BC01
102
{ACAD_REACTORS
330
B5EE
102
}
330
1A
100
AcDbEntity
  8
0
  6
Continuous
 62
     5
370
    35
100
AcDbMText
 10
318.9304981780733
 20
82.18090043987116
 30
0.0
 40
4.0
 41
0.0
 71
     7
 72
     5
  1
{\C7;GRUNDZEICHNUNG/\Q20;Basic drawing}
 73
     1
 44
1.0
1001
PHOENIX7010
1002
{
1070
    41
1040
1.0
1002
}
1001
ACAD
1000
MTEXTBEGIN
1070
    73
1070
     1
1070
    44
1040
1.0
1070
    74
1070
     0
1000
MTEXTEND
  0
MTEXT
  5
BC02
102
{ACAD_REACTORS
330
B5EE
102
}
330
1A
100
AcDbEntity
  8
0
  6
Continuous
 62
     5
370
    35
100
AcDbMText
 10
318.9304981780733
 20
89.18090043987115
 30
0.0
 40
4.0
 41
0.0
 71
     7
 72
     5
  1
{\C7;EM/ET 205}
 73
     1
 44
1.0
1001
PHOENIX7010
1002
{
1070
    41
1040
1.0
1002
}
1001
ACAD
1000
MTEXTBEGIN
1070
    73
1070
     1
1070
    44
1040
1.0
1070
    74
1070
     0
1000
MTEXTEND
  0
INSERT
  5
BC03
102
{ACAD_REACTORS
330
B5EE
102
}
330
1A
100
AcDbEntity
  8
0
  6
Continuous
 62
     5
370
    35
100
AcDbBlockReference
  2
PH_GRPBLK
 10
314.9999999999998
 20
37.50000000000011
 30
0.0
1001
PHOENIX7010
1002
{
1070
    41
1040
1.0
1002
}
  0
MTEXT
  5
BC04
102
{ACAD_REACTORS
330
B5EE
102
}
330
1A
100
AcDbEntity
  8
0
  6
Continuous
 62
     5
370
    35
100
AcDbMText
 10
343.8410013521216
 20
172.4665922501285
 30
0.0
 40
5.0
 41
0.0
 71
     7
 72
     5
  1
{\C7;-}
 73
     1
 44
1.0
1001
PHOENIX7010
1002
{
1070
    41
1040
1.0
1002
}
1001
ACAD
1000
MTEXTBEGIN
1070
    73
1070
     1
1070
    44
1040
1.0
1070
    74
1070
     0
1000
MTEXTEND
  0
MTEXT
  5
BC05
102
{ACAD_REACTORS
330
B5EE
102
}
330
1A
100
AcDbEntity
  8
0
  6
Continuous
 62
     5
370
    35
100
AcDbMText
 10
319.2942762589885
 20
172.2466907925511
 30
0.0
 40
2.5
 41
0.0
 71
     7
 72
     5
  1
{\C1;Artikel-Nr./\P\Q20;Art-No.:}
 73
     1
 44
1.0
1001
PHOENIX7010
1002
{
1070
    41
1040
1.0
1002
}
1001
ACAD
1000
MTEXTBEGIN
1070
    73
1070
     1
1070
    44
1040
1.0
1070
    74
1070
     0
1000
MTEXTEND
  0
MTEXT
  5
BC06
102
{ACAD_REACTORS
330
B5EE
102
}
330
1A
100
AcDbEntity
  8
0
  6
Continuous
 62
     5
370
    35
100
AcDbMText
 10
319.2942762589885
 20
156.4060399636789
 30
0.0
 40
2.5
 41
0.0
 71
     7
 72
     5
  1
{\Q20;\C1;Material:}
 73
     1
 44
1.0
1001
PHOENIX7010
1002
{
1070
    41
1040
1.0
1002
}
1001
ACAD
1000
MTEXTBEGIN
1070
    73
1070
     1
1070
    44
1040
1.0
1070
    74
1070
     0
1000
MTEXTEND
  0
MTEXT
  5
BC07
102
{ACAD_REACTORS
330
B5EE
102
}
330
1A
100
AcDbEntity
  8
0
  6
Continuous
 62
     5
370
    35
100
AcDbMText
 10
319.971247442415
 20
152.1994932222069
 30
0.0
 40
2.5
 41
0.0
 71
     7
 72
     5
  1
{\Q20;-}
 73
     1
 44
1.0
1001
PHOENIX7010
1002
{
1070
    41
1040
1.0
1002
}
1001
ACAD
1000
MTEXTBEGIN
1070
    73
1070
     1
1070
    44
1040
1.0
1070
    74
1070
     0
1000
MTEXTEND
  0
MTEXT
  5
BC08
102
{ACAD_REACTORS
330
B5EE
102
}
330
1A
100
AcDbEntity
  8
0
  6
Continuous
 62
     5
370
    35
100
AcDbMText
 10
339.7913305013808
 20
156.4483496090742
 30
0.0
 40
2.5
 41
0.0
 71
     7
 72
     5
  1
{\Q20;-}
 73
     1
 44
1.0
1001
PHOENIX7010
1002
{
1070
    41
1040
1.0
1002
}
1001
ACAD
1000
MTEXTBEGIN
1070
    73
1070
     1
1070
    44
1040
1.0
1070
    74
1070
     0
1000
MTEXTEND
  0
MTEXT
  5
BC09
102
{ACAD_REACTORS
330
B5EE
102
}
330
1A
100
AcDbEntity
  8
0
  6
Continuous
 62
     5
370
    35
100
AcDbMText
 10
319.971247442415
 20
160.5538554514223
 30
0.0
 40
2.5
 41
0.0
 71
     7
 72
     5
  1
-
 73
     1
 44
1.0
1001
PHOENIX7010
1002
{
1070
    41
1040
1.0
1002
}
1001
ACAD
1000
MTEXTBEGIN
1070
    73
1070
     1
1070
    44
1040
1.0
1070
    74
1070
     0
1000
MTEXTEND
  0
MTEXT
  5
BC0A
102
{ACAD_REACTORS
330
B5EE
102
}
330
1A
100
AcDbEntity
  8
0
  6
Continuous
 62
     5
370
    35
100
AcDbMText
 10
339.7913305013808
 20
164.8027118382897
 30
0.0
 40
2.5
 41
0.0
 71
     7
 72
     5
  1
-
 73
     1
 44
1.0
1001
PHOENIX7010
1002
{
1070
    41
1040
1.0
1002
}
1001
ACAD
1000
MTEXTBEGIN
1070
    73
1070
     1
1070
    44
1040
1.0
1070
    74
1070
     0
1000
MTEXTEND
  0
MTEXT
  5
BC0B
102
{ACAD_REACTORS
330
B5EE
102
}
330
1A
100
AcDbEntity
  8
0
  6
Continuous
 62
     5
370
    35
100
AcDbMText
 10
319.2942762589885
 20
164.7604021928944
 30
0.0
 40
2.5
 41
0.0
 71
     7
 72
     5
  1
{\C1;Werkstoff:}
 73
     1
 44
1.0
1001
PHOENIX7010
1002
{
1070
    41
1040
1.0
1002
}
1001
ACAD
1000
MTEXTBEGIN
1070
    73
1070
     1
1070
    44
1040
1.0
1070
    74
1070
     0
1000
MTEXTEND
  0
MTEXT
  5
BC0C
102
{ACAD_REACTORS
330
B5EE
102
}
330
1A
100
AcDbEntity
  8
0
  6
Continuous
 62
     5
370
    35
100
AcDbMText
 10
319.2942762589885
 20
136.4060399636789
 30
0.0
 40
2.5
 41
0.0
 71
     7
 72
     5
  1
{\Q20;\C1;Gen.Tol.:}
 73
     1
 44
1.0
1001
PHOENIX7010
1002
{
1070
    41
1040
1.0
1002
}
1001
ACAD
1000
MTEXTBEGIN
1070
    73
1070
     1
1070
    44
1040
1.0
1070
    74
1070
     0
1000
MTEXTEND
  0
MTEXT
  5
BC0D
102
{ACAD_REACTORS
330
B5EE
102
}
330
1A
100
AcDbEntity
  8
0
  6
Continuous
 62
     5
370
    35
100
AcDbMText
 10
339.7913305013808
 20
137.3843594353038
 30
0.0
 40
2.5
 41
0.0
 71
     7
 72
     5
  1
{\Q20;DIN 16901 for plastic part}
 73
     1
 44
1.0
1001
PHOENIX7010
1002
{
1070
    41
1040
1.0
1002
}
1001
ACAD
1000
MTEXTBEGIN
1070
    73
1070
     1
1070
    44
1040
1.0
1070
    74
1070
     0
1000
MTEXTEND
  0
MTEXT
  5
BC0E
102
{ACAD_REACTORS
330
B5EE
102
}
330
1A
100
AcDbEntity
  8
0
  6
Continuous
 62
     5
370
    35
100
AcDbMText
 10
339.7913305013808
 20
141.4898652776519
 30
0.0
 40
2.5
 41
0.0
 71
     7
 72
     5
  1
DIN ISO 2768-mk für Bearbeitung
 73
     1
 44
1.0
1001
PHOENIX7010
1002
{
1070
    41
1040
1.0
1002
}
1001
ACAD
1000
MTEXTBEGIN
1070
    73
1070
     1
1070
    44
1040
1.0
1070
    74
1070
     0
1000
MTEXTEND
  0
MTEXT
  5
BC0F
102
{ACAD_REACTORS
330
B5EE
102
}
330
1A
100
AcDbEntity
  8
0
  6
Continuous
 62
     5
370
    35
100
AcDbMText
 10
339.7913305013808
 20
145.7387216645193
 30
0.0
 40
2.5
 41
0.0
 71
     7
 72
     5
  1
DIN 16901 für Kunststoffteil
 73
     1
 44
1.0
1001
PHOENIX7010
1002
{
1070
    41
1040
1.0
1002
}
1001
ACAD
1000
MTEXTBEGIN
1070
    73
1070
     1
1070
    44
1040
1.0
1070
    74
1070
     0
1000
MTEXTEND
  0
MTEXT
  5
BC10
102
{ACAD_REACTORS
330
B5EE
102
}
330
1A
100
AcDbEntity
  8
0
  6
Continuous
 62
     5
370
    35
100
AcDbMText
 10
319.2942762589885
 20
144.7604021928944
 30
0.0
 40
2.5
 41
0.0
 71
     7
 72
     5
  1
{\C1;Allg.Tol.:}
 73
     1
 44
1.0
1001
PHOENIX7010
1002
{
1070
    41
1040
1.0
1002
}
1001
ACAD
1000
MTEXTBEGIN
1070
    73
1070
     1
1070
    44
1040
1.0
1070
    74
1070
     0
1000
MTEXTEND
  0
MTEXT
  5
BC11
102
{ACAD_REACTORS
330
B5EE
102
}
330
1A
100
AcDbEntity
  8
0
  6
Continuous
 62
     5
370
    35
100
AcDbMText
 10
318.2310194173415
 20
103.0621268735633
 30
0.0
 40
2.0
 41
0.0
 71
     7
 72
     5
  1
{\C1;-}
 73
     1
 44
1.0
1001
PHOENIX7010
1002
{
1070
    41
1040
1.0
1002
}
1001
ACAD
1000
MTEXTBEGIN
1070
    73
1070
     1
1070
    44
1040
1.0
1070
    74
1070
     0
1000
MTEXTEND
  0
MTEXT
  5
BC12
102
{ACAD_REACTORS
330
B5EE
102
}
330
1A
100
AcDbEntity
  8
0
  6
Continuous
 62
     5
370
    35
100
AcDbMText
 10
317.4904144324187
 20
106.1420006354828
 30
0.0
 40
2.0
 41
0.0
 71
     7
 72
     5
  1
{\C1;Bem.: Erstellt nach Vorlage / \Q20;Dim.: constructed by specification:}
 73
     1
 44
1.0
1001
PHOENIX7010
1002
{
1070
    41
1040
1.0
1002
}
1001
ACAD
1000
MTEXTBEGIN
1070
    73
1070
     1
1070
    44
1040
1.0
1070
    74
1070
     0
1000
MTEXTEND
  0
ARC
  5
BC13
102
{ACAD_REACTORS
330
B5EE
102
}
330
1A
100
AcDbEntity
  8
0
  6
Continuous
 62
     5
100
AcDbCircle
 10
317.4999999999998
 20
178.0000000000001
 30
0.0
 40
2.5
100
AcDbArc
 50
90.0
 51
180.0
1001
PHOENIX7010
1002
{
1070
    41
1040
1.0
1002
}
  0
ARC
  5
BC14
102
{ACAD_REACTORS
330
B5EE
102
}
330
1A
100
AcDbEntity
  8
0
  6
Continuous
 62
     5
100
AcDbCircle
 10
317.4999999999998
 20
167.0000000000001
 30
0.0
 40
2.5
100
AcDbArc
 50
90.0
 51
180.0
1001
PHOENIX7010
1002
{
1070
    41
1040
1.0
1002
}
  0
ARC
  5
BC15
102
{ACAD_REACTORS
330
B5EE
102
}
330
1A
100
AcDbEntity
  8
0
  6
Continuous
 62
     5
100
AcDbCircle
 10
317.4999999999998
 20
147.0000000000001
 30
0.0
 40
2.5
100
AcDbArc
 50
90.0
 51
180.0
1001
PHOENIX7010
1002
{
1070
    41
1040
1.0
1002
}
  0
LINE
  5
BC16
102
{ACAD_REACTORS
330
B5EE
102
}
330
1A
100
AcDbEntity
  8
0
  6
Continuous
 62
     5
370
    35
100
AcDbLine
 10
415.0
 20
180.5000000000001
 30
0.0
 11
317.4999999999998
 21
180.5000000000001
 31
0.0
1001
PHOENIX7010
1002
{
1070
    41
1040
1.0
1002
}
  0
LINE
  5
BC17
102
{ACAD_REACTORS
330
B5EE
102
}
330
1A
100
AcDbEntity
  8
0
  6
Continuous
 62
     5
370
    35
100
AcDbLine
 10
415.0
 20
169.5000000000001
 30
0.0
 11
317.4999999999998
 21
169.5000000000001
 31
0.0
1001
PHOENIX7010
1002
{
1070
    41
1040
1.0
1002
}
  0
LINE
  5
BC18
102
{ACAD_REACTORS
330
B5EE
102
}
330
1A
100
AcDbEntity
  8
0
  6
Continuous
 62
     5
100
AcDbLine
 10
415.0
 20
149.5000000000001
 30
0.0
 11
317.4999999999998
 21
149.5000000000001
 31
0.0
1001
PHOENIX7010
1002
{
1070
    41
1040
1.0
1002
}
  0
MTEXT
  5
BC19
102
{ACAD_REACTORS
330
B5EE
102
}
330
1A
100
AcDbEntity
  8
0
  6
Continuous
 62
     5
370
    35
100
AcDbMText
 10
342.2178658257174
 20
29.24888752318759
 30
0.0
 40
2.5
 41
0.0
 71
     7
 72
     5
  1
-
 73
     1
 44
1.0
1001
PHOENIX7010
1002
{
1070
    41
1040
1.0
1002
}
1001
ACAD
1000
MTEXTBEGIN
1070
    73
1070
     1
1070
    44
1040
1.0
1070
    74
1070
     0
1000
MTEXTEND
  0
MTEXT
  5
BC1A
102
{ACAD_REACTORS
330
B5EE
102
}
330
1A
100
AcDbEntity
  8
0
  6
Continuous
 62
     5
370
    35
100
AcDbMText
 10
342.2178658257174
 20
33.60592166613924
 30
0.0
 40
2.5
 41
0.0
 71
     7
 72
     5
  1
2 501 956
 73
     1
 44
1.0
1001
PHOENIX7010
1002
{
1070
    41
1040
1.0
1002
}
1001
ACAD
1000
MTEXTBEGIN
1070
    73
1070
     1
1070
    44
1040
1.0
1070
    74
1070
     0
1000
MTEXTEND
  0
MTEXT
  5
BC1B
102
{ACAD_REACTORS
330
B5EE
102
}
330
1A
100
AcDbEntity
  8
0
  6
Continuous
 62
     5
370
    35
100
AcDbMText
 10
316.5289912646938
 20
6.24888752318759
 30
0.0
 40
2.5
 41
0.0
 71
     7
 72
     5
  1
{\T0.9;Fertigungsfreigabe/\P\Q20;Production release}
 73
     1
 44
1.0
1001
PHOENIX7010
1002
{
1070
    41
1040
1.0
1002
}
1001
ACAD
1000
MTEXTBEGIN
1070
    73
1070
     1
1070
    44
1040
1.0
1070
    74
1070
     0
1000
MTEXTEND
  0
MTEXT
  5
BC1C
102
{ACAD_REACTORS
330
B5EE
102
}
330
1A
100
AcDbEntity
  8
0
  6
Continuous
 62
     5
370
    35
100
AcDbMText
 10
316.5289912646938
 20
15.24888752318759
 30
0.0
 40
2.5
 41
0.0
 71
     7
 72
     5
  1
geprüft/\P{\Q20;checked}
 73
     1
 44
1.0
1001
PHOENIX7010
1002
{
1070
    41
1040
1.0
1002
}
1001
ACAD
1000
MTEXTBEGIN
1070
    73
1070
     1
1070
    44
1040
1.0
1070
    74
1070
     0
1000
MTEXTEND
  0
MTEXT
  5
BC1D
102
{ACAD_REACTORS
330
B5EE
102
}
330
1A
100
AcDbEntity
  8
0
  6
Continuous
 62
     5
370
    35
100
AcDbMText
 10
375.528991264694
 20
23.72415732371144
 30
0.0
 40
2.5
 41
0.0
 71
     7
 72
     5
  1
{\T0.9;Unterschrift/\Q20;Signature}
 73
     1
 44
1.0
1001
PHOENIX7010
1002
{
1070
    41
1040
1.0
1002
}
1001
ACAD
1000
MTEXTBEGIN
1070
    73
1070
     1
1070
    44
1040
1.0
1070
    74
1070
     0
1000
MTEXTEND
  0
MTEXT
  5
BC1E
102
{ACAD_REACTORS
330
B5EE
102
}
330
1A
100
AcDbEntity
  8
0
  6
Continuous
 62
     5
370
    35
100
AcDbMText
 10
351.528991264694
 20
24.52073237545164
 30
0.0
 40
2.5
 41
0.0
 71
     7
 72
     5
  1
Datum/{\Q20;Date}
 73
     1
 44
1.0
1001
PHOENIX7010
1002
{
1070
    41
1040
1.0
1002
}
1001
ACAD
1000
MTEXTBEGIN
1070
    73
1070
     1
1070
    44
1040
1.0
1070
    74
1070
     0
1000
MTEXTEND
  0
MTEXT
  5
BC1F
102
{ACAD_REACTORS
330
B5EE
102
}
330
1A
100
AcDbEntity
  8
0
  6
Continuous
 62
     5
370
    35
100
AcDbMText
 10
372.1764856757657
 20
29.24888752318759
 30
0.0
 40
2.5
 41
0.0
 71
     7
 72
     5
  1
Blatt/{\Q20;Sheet:   }1   /   1
 73
     1
 44
1.0
1001
PHOENIX7010
1002
{
1070
    41
1040
1.0
1002
}
1001
ACAD
1000
MTEXTBEGIN
1070
    73
1070
     1
1070
    44
1040
1.0
1070
    74
1070
     0
1000
MTEXTEND
  0
LINE
  5
BC20
102
{ACAD_REACTORS
330
B5EE
102
}
330
1A
100
AcDbEntity
  8
0
  6
Continuous
 62
     5
100
AcDbLine
 10
350.0
 20
28.00000000000011
 30
0.0
 11
350.0
 21
5.000000000000113
 31
0.0
1001
PHOENIX7010
1002
{
1070
    62
1070
     5
1070
    41
1040
1.0
1002
}
  0
LINE
  5
BC21
102
{ACAD_REACTORS
330
B5EE
102
}
330
1A
100
AcDbEntity
  8
0
  6
Continuous
 62
     5
100
AcDbLine
 10
350.0
 20
71.00000000000012
 30
0.0
 11
350.0
 21
37.50000000000011
 31
0.0
1001
PHOENIX7010
1002
{
1070
    62
1070
     5
1070
    41
1040
1.0
1002
}
  0
LINE
  5
BC22
102
{ACAD_REACTORS
330
B5EE
102
}
330
1A
100
AcDbEntity
  8
0
  6
Continuous
 62
     1
370
    25
100
AcDbLine
 10
314.9999999999998
 20
14.00000000000011
 30
0.0
 11
415.0
 21
14.00000000000011
 31
0.0
1001
PHOENIX7010
1002
{
1070
    41
1040
1.0
1002
}
  0
LINE
  5
BC23
102
{ACAD_REACTORS
330
B5EE
102
}
330
1A
100
AcDbEntity
  8
0
  6
Continuous
 62
     5
370
    35
100
AcDbLine
 10
314.9999999999998
 20
23.00000000000011
 30
0.0
 11
415.0
 21
23.00000000000011
 31
0.0
1001
PHOENIX7010
1002
{
1070
    41
1040
1.0
1002
}
  0
LINE
  5
BC24
102
{ACAD_REACTORS
330
B5EE
102
}
330
1A
100
AcDbEntity
  8
0
  6
Continuous
 62
     5
370
    35
100
AcDbLine
 10
314.9999999999998
 20
23.00000000000011
 30
0.0
 11
415.0
 21
23.00000000000011
 31
0.0
1001
PHOENIX7010
1002
{
1070
    41
1040
1.0
1002
}
  0
LINE
  5
BC25
102
{ACAD_REACTORS
330
B5EE
102
}
330
1A
100
AcDbEntity
  8
0
  6
Continuous
 62
     5
370
    35
100
AcDbLine
 10
314.9999999999998
 20
28.00000000000011
 30
0.0
 11
415.0
 21
28.00000000000011
 31
0.0
1001
PHOENIX7010
1002
{
1070
    41
1040
1.0
1002
}
  0
LINE
  5
BC26
102
{ACAD_REACTORS
330
B5EE
102
}
330
1A
100
AcDbEntity
  8
0
  6
Continuous
 62
     5
100
AcDbLine
 10
314.9999999999998
 20
178.0000000000001
 30
0.0
 11
314.9999999999998
 21
5.000000000000113
 31
0.0
1001
PHOENIX7010
1002
{
1070
    62
1070
     5
1070
    41
1040
1.0
1002
}
  0
LINE
  5
BC27
102
{ACAD_REACTORS
330
B5EE
102
}
330
1A
100
AcDbEntity
  8
0
  6
Continuous
 62
     5
100
AcDbLine
 10
415.0
 20
71.00000000000012
 30
0.0
 11
317.4999999999998
 21
71.00000000000012
 31
0.0
1001
PHOENIX7010
1002
{
1070
    62
1070
     5
1070
    41
1040
1.0
1002
}
  0
LINE
  5
BC28
102
{ACAD_REACTORS
330
B5EE
102
}
330
1A
100
AcDbEntity
  8
0
  6
Continuous
 62
     5
100
AcDbLine
 10
415.0
 20
101.5000000000001
 30
0.0
 11
317.4999999999998
 21
101.5000000000001
 31
0.0
1001
PHOENIX7010
1002
{
1070
    62
1070
     5
1070
    41
1040
1.0
1002
}
  0
LINE
  5
BC29
102
{ACAD_REACTORS
330
B5EE
102
}
330
1A
100
AcDbEntity
  8
0
  6
Continuous
 62
     1
100
AcDbLine
 10
314.9999999999998
 20
44.50000000000011
 30
0.0
 11
350.0
 21
44.50000000000011
 31
0.0
1001
PHOENIX7010
1002
{
1070
    62
1070
     1
1070
    41
1040
1.0
1002
}
  0
LINE
  5
BC2A
102
{ACAD_REACTORS
330
B5EE
102
}
330
1A
100
AcDbEntity
  8
0
  6
Continuous
 62
     1
100
AcDbLine
 10
327.9999999999998
 20
71.00000000000012
 30
0.0
 11
327.9999999999998
 21
37.50000000000011
 31
0.0
1001
PHOENIX7010
1002
{
1070
    62
1070
     1
1070
    41
1040
1.0
1002
}
  0
TEXT
  5
BC2B
102
{ACAD_REACTORS
330
B5EE
102
}
330
1A
100
AcDbEntity
  8
0
  6
Continuous
 62
     1
100
AcDbText
 10
315.9999996997324
 20
60.74999981501355
 30
0.0
 40
2.0
  1
-
 41
1.5
100
AcDbText
1001
PHOENIX7010
1002
{
1070
    62
1070
     1
1070
    41
1040
1.0
1002
}
  0
TEXT
  5
BC2C
102
{ACAD_REACTORS
330
B5EE
102
}
330
1A
100
AcDbEntity
  8
0
  6
Continuous
 62
     1
100
AcDbText
 10
315.9999996997324
 20
58.24999981501355
 30
0.0
 40
2.0
  1
-
 41
1.5
100
AcDbText
1001
PHOENIX7010
1002
{
1070
    62
1070
     1
1070
    41
1040
1.0
1002
}
  0
TEXT
  5
BC2D
102
{ACAD_REACTORS
330
B5EE
102
}
330
1A
100
AcDbEntity
  8
0
  6
Continuous
 62
     1
100
AcDbText
 10
315.9999996997324
 20
55.74999981501355
 30
0.0
 40
2.0
  1
-
 41
1.5
100
AcDbText
1001
PHOENIX7010
1002
{
1070
    62
1070
     1
1070
    41
1040
1.0
1002
}
  0
TEXT
  5
BC2E
102
{ACAD_REACTORS
330
B5EE
102
}
330
1A
100
AcDbEntity
  8
0
  6
Continuous
 62
     1
100
AcDbText
 10
315.9999996997324
 20
50.74999981501355
 30
0.0
 40
2.0
  1
-
 41
1.5
100
AcDbText
1001
PHOENIX7010
1002
{
1070
    62
1070
     1
1070
    41
1040
1.0
1002
}
  0
TEXT
  5
BC2F
102
{ACAD_REACTORS
330
B5EE
102
}
330
1A
100
AcDbEntity
  8
0
  6
Continuous
 62
     1
100
AcDbText
 10
315.9999996997324
 20
53.24999981501355
 30
0.0
 40
2.0
  1
-
 41
1.5
100
AcDbText
1001
PHOENIX7010
1002
{
1070
    62
1070
     1
1070
    41
1040
1.0
1002
}
  0
TEXT
  5
BC30
102
{ACAD_REACTORS
330
B5EE
102
}
330
1A
100
AcDbEntity
  8
0
  6
Continuous
 62
     1
100
AcDbText
 10
315.9999996997324
 20
45.74999981501355
 30
0.0
 40
2.0
  1
-
 41
1.5
100
AcDbText
1001
PHOENIX7010
1002
{
1070
    62
1070
     1
1070
    41
1040
1.0
1002
}
  0
TEXT
  5
BC31
102
{ACAD_REACTORS
330
B5EE
102
}
330
1A
100
AcDbEntity
  8
0
  6
Continuous
 62
     1
100
AcDbText
 10
315.9999996997324
 20
48.24999981501355
 30
0.0
 40
2.0
  1
-
 41
1.5
100
AcDbText
1001
PHOENIX7010
1002
{
1070
    62
1070
     1
1070
    41
1040
1.0
1002
}
  0
TEXT
  5
BC32
102
{ACAD_REACTORS
330
B5EE
102
}
330
1A
100
AcDbEntity
  8
0
  6
Continuous
 62
     1
100
AcDbText
 10
328.9999996997324
 20
60.74999981501355
 30
0.0
 40
2.0
  1
-
 41
1.5
100
AcDbText
1001
PHOENIX7010
1002
{
1070
    62
1070
     1
1070
    41
1040
1.0
1002
}
  0
TEXT
  5
BC33
102
{ACAD_REACTORS
330
B5EE
102
}
330
1A
100
AcDbEntity
  8
0
  6
Continuous
 62
     1
100
AcDbText
 10
328.9999996997324
 20
58.24999981501355
 30
0.0
 40
2.0
  1
-
 41
1.5
100
AcDbText
1001
PHOENIX7010
1002
{
1070
    62
1070
     1
1070
    41
1040
1.0
1002
}
  0
TEXT
  5
BC34
102
{ACAD_REACTORS
330
B5EE
102
}
330
1A
100
AcDbEntity
  8
0
  6
Continuous
 62
     1
100
AcDbText
 10
328.9999996997324
 20
55.74999981501355
 30
0.0
 40
2.0
  1
-
 41
1.5
100
AcDbText
1001
PHOENIX7010
1002
{
1070
    62
1070
     1
1070
    41
1040
1.0
1002
}
  0
TEXT
  5
BC35
102
{ACAD_REACTORS
330
B5EE
102
}
330
1A
100
AcDbEntity
  8
0
  6
Continuous
 62
     1
100
AcDbText
 10
328.9999996997324
 20
50.74999981501355
 30
0.0
 40
2.0
  1
-
 41
1.5
100
AcDbText
1001
PHOENIX7010
1002
{
1070
    62
1070
     1
1070
    41
1040
1.0
1002
}
  0
TEXT
  5
BC36
102
{ACAD_REACTORS
330
B5EE
102
}
330
1A
100
AcDbEntity
  8
0
  6
Continuous
 62
     1
100
AcDbText
 10
328.9999996997324
 20
53.24999981501355
 30
0.0
 40
2.0
  1
-
 41
1.5
100
AcDbText
1001
PHOENIX7010
1002
{
1070
    62
1070
     1
1070
    41
1040
1.0
1002
}
  0
TEXT
  5
BC37
102
{ACAD_REACTORS
330
B5EE
102
}
330
1A
100
AcDbEntity
  8
0
  6
Continuous
 62
     1
100
AcDbText
 10
328.9999996997324
 20
45.74999981501355
 30
0.0
 40
2.0
  1
-
 41
1.5
100
AcDbText
1001
PHOENIX7010
1002
{
1070
    62
1070
     1
1070
    41
1040
1.0
1002
}
  0
TEXT
  5
BC38
102
{ACAD_REACTORS
330
B5EE
102
}
330
1A
100
AcDbEntity
  8
0
  6
Continuous
 62
     1
100
AcDbText
 10
328.9999996997324
 20
48.24999981501355
 30
0.0
 40
2.0
  1
-
 41
1.5
100
AcDbText
1001
PHOENIX7010
1002
{
1070
    62
1070
     1
1070
    41
1040
1.0
1002
}
  0
ARC
  5
BC39
102
{ACAD_REACTORS
330
B5EE
102
}
330
1A
100
AcDbEntity
  8
0
  6
Continuous
 62
     5
100
AcDbCircle
 10
317.4999999999998
 20
99.00000000000012
 30
0.0
 40
2.5
100
AcDbArc
 50
90.0
 51
180.0
1001
PHOENIX7010
1002
{
1070
    62
1070
     5
1070
    41
1040
1.0
1002
}
  0
ARC
  5
BC3A
102
{ACAD_REACTORS
330
B5EE
102
}
330
1A
100
AcDbEntity
  8
0
  6
Continuous
 62
     5
100
AcDbCircle
 10
317.4999999999998
 20
68.50000000000012
 30
0.0
 40
2.5
100
AcDbArc
 50
90.0
 51
180.0
1001
PHOENIX7010
1002
{
1070
    62
1070
     5
1070
    41
1040
1.0
1002
}
  0
TEXT
  5
BC3B
102
{ACAD_REACTORS
330
B5EE
102
}
330
1A
100
AcDbEntity
  8
0
  6
Continuous
 62
     1
100
AcDbText
 10
315.9999996997324
 20
68.24999981501355
 30
0.0
 40
2.0
  1
-
 41
1.5
100
AcDbText
1001
PHOENIX7010
1002
{
1070
    62
1070
     1
1070
    41
1040
1.0
1002
}
  0
TEXT
  5
BC3C
102
{ACAD_REACTORS
330
B5EE
102
}
330
1A
100
AcDbEntity
  8
0
  6
Continuous
 62
     1
100
AcDbText
 10
315.9999996997324
 20
63.24999981501355
 30
0.0
 40
2.0
  1
-
 41
1.5
100
AcDbText
1001
PHOENIX7010
1002
{
1070
    62
1070
     1
1070
    41
1040
1.0
1002
}
  0
TEXT
  5
BC3D
102
{ACAD_REACTORS
330
B5EE
102
}
330
1A
100
AcDbEntity
  8
0
  6
Continuous
 62
     1
100
AcDbText
 10
315.9999996997324
 20
65.74999981501355
 30
0.0
 40
2.0
  1
-
 41
1.5
100
AcDbText
1001
PHOENIX7010
1002
{
1070
    62
1070
     1
1070
    41
1040
1.0
1002
}
  0
TEXT
  5
BC3E
102
{ACAD_REACTORS
330
B5EE
102
}
330
1A
100
AcDbEntity
  8
0
  6
Continuous
 62
     1
100
AcDbText
 10
328.9999996997324
 20
68.24999981501355
 30
0.0
 40
2.0
  1
-
 41
1.5
100
AcDbText
1001
PHOENIX7010
1002
{
1070
    62
1070
     1
1070
    41
1040
1.0
1002
}
  0
TEXT
  5
BC3F
102
{ACAD_REACTORS
330
B5EE
102
}
330
1A
100
AcDbEntity
  8
0
  6
Continuous
 62
     1
100
AcDbText
 10
328.9999996997324
 20
63.24999981501355
 30
0.0
 40
2.0
  1
-
 41
1.5
100
AcDbText
1001
PHOENIX7010
1002
{
1070
    62
1070
     1
1070
    41
1040
1.0
1002
}
  0
TEXT
  5
BC40
102
{ACAD_REACTORS
330
B5EE
102
}
330
1A
100
AcDbEntity
  8
0
  6
Continuous
 62
     1
100
AcDbText
 10
328.9999996997324
 20
65.74999981501355
 30
0.0
 40
2.0
  1
-
 41
1.5
100
AcDbText
1001
PHOENIX7010
1002
{
1070
    62
1070
     1
1070
    41
1040
1.0
1002
}
  0
LINE
  5
BC41
102
{ACAD_REACTORS
330
B5EE
102
}
330
1A
100
AcDbEntity
  8
0
  6
Continuous
 62
     1
370
    25
100
AcDbLine
 10
374.0
 20
28.00000000000011
 30
0.0
 11
374.0
 21
5.000000000000113
 31
0.0
1001
PHOENIX7010
1002
{
1070
    62
1070
     5
1070
    41
1040
1.0
1002
}
  0
LINE
  5
BC42
102
{ACAD_REACTORS
330
B5EE
102
}
330
1A
100
AcDbEntity
  8
0
  6
Continuous
 62
     5
100
AcDbLine
 10
415.0
 20
122.5000000000001
 30
0.0
 11
317.4999999999998
 21
122.5000000000001
 31
0.0
1001
PHOENIX7010
1002
{
1070
    62
1070
     5
1070
    41
1040
1.0
1002
}
  0
ARC
  5
BC43
102
{ACAD_REACTORS
330
B5EE
102
}
330
1A
100
AcDbEntity
  8
0
  6
Continuous
 62
     5
100
AcDbCircle
 10
317.4999999999998
 20
120.0000000000001
 30
0.0
 40
2.5
100
AcDbArc
 50
90.0
 51
180.0
1001
PHOENIX7010
1002
{
1070
    62
1070
     5
1070
    41
1040
1.0
1002
}
  0
LINE
  5
BC44
102
{ACAD_REACTORS
330
B5EE
102
}
330
1A
100
AcDbEntity
  8
0
  6
Continuous
 62
     5
100
AcDbLine
 10
405.4999999999997
 20
130.5000000000001
 30
0.0
 11
398.4999999999998
 21
128.7500000000001
 31
0.0
1001
PHOENIX7010
1002
{
1070
    62
1070
     5
1070
    41
1040
1.0
1002
}
  0
LINE
  5
BC45
102
{ACAD_REACTORS
330
B5EE
102
}
330
1A
100
AcDbEntity
  8
0
  6
Continuous
 62
     5
100
AcDbLine
 10
405.4999999999997
 20
123.5000000000001
 30
0.0
 11
398.4999999999998
 21
125.2500000000001
 31
0.0
1001
PHOENIX7010
1002
{
1070
    62
1070
     5
1070
    41
1040
1.0
1002
}
  0
LINE
  5
BC46
102
{ACAD_REACTORS
330
B5EE
102
}
330
1A
100
AcDbEntity
  8
0
  6
ACAD_ISO04W100
 62
     1
 48
0.282258064516129
100
AcDbLine
 10
414.9999999999997
 20
127.0000000000001
 30
0.0
 11
397.4999999999998
 21
127.0000000000001
 31
0.0
1001
PHOENIX7010
1002
{
1070
    62
1070
     1
1070
    41
1040
1.0
1002
}
  0
LINE
  5
BC47
102
{ACAD_REACTORS
330
B5EE
102
}
330
1A
100
AcDbEntity
  8
0
  6
Continuous
 62
     5
100
AcDbLine
 10
398.4999999999998
 20
125.2500000000001
 30
0.0
 11
398.4999999999998
 21
128.7500000000001
 31
0.0
1001
PHOENIX7010
1002
{
1070
    62
1070
     5
1070
    41
1040
1.0
1002
}
  0
CIRCLE
  5
BC48
102
{ACAD_REACTORS
330
B5EE
102
}
330
1A
100
AcDbEntity
  8
0
  6
Continuous
 62
     5
100
AcDbCircle
 10
410.4999999999997
 20
127.0000000000001
 30
0.0
 40
3.5
1001
PHOENIX7010
1002
{
1070
    62
1070
     5
1070
    41
1040
1.0
1002
}
  0
CIRCLE
  5
BC49
102
{ACAD_REACTORS
330
B5EE
102
}
330
1A
100
AcDbEntity
  8
0
  6
Continuous
 62
     5
100
AcDbCircle
 10
410.4999999999997
 20
127.0000000000001
 30
0.0
 40
1.75
1001
PHOENIX7010
1002
{
1070
    62
1070
     5
1070
    41
1040
1.0
1002
}
  0
LINE
  5
BC4A
102
{ACAD_REACTORS
330
B5EE
102
}
330
1A
100
AcDbEntity
  8
0
  6
ACAD_ISO04W100
 62
     1
 48
0.1451612903225806
100
AcDbLine
 10
410.4999999999997
 20
122.5000000000001
 30
0.0
 11
410.4999999999997
 21
131.5000000000001
 31
0.0
1001
PHOENIX7010
1002
{
1070
    62
1070
     1
1070
    41
1040
1.0
1002
}
  0
LINE
  5
BC4B
102
{ACAD_REACTORS
330
B5EE
102
}
330
1A
100
AcDbEntity
  8
0
  6
Continuous
 62
     5
100
AcDbLine
 10
405.4999999999997
 20
123.5000000000001
 30
0.0
 11
405.4999999999997
 21
130.5000000000001
 31
0.0
1001
PHOENIX7010
1002
{
1070
    62
1070
     5
1070
    41
1040
1.0
1002
}
  0
LINE
  5
BC4C
102
{ACAD_REACTORS
330
B5EE
102
}
330
1A
100
AcDbEntity
  8
0
  6
Continuous
 62
     5
370
    35
100
AcDbLine
 10
314.9999999999998
 20
37.50000000000011
 30
0.0
 11
415.0
 21
37.50000000000011
 31
0.0
1001
PHOENIX7010
1002
{
1070
    41
1040
1.0
1002
}
  0
MTEXT
  5
BC4D
102
{ACAD_REACTORS
330
B5EE
102
}
330
1A
100
AcDbEntity
  8
0
  6
Continuous
 62
     5
370
    35
100
AcDbMText
 10
316.5289912646938
 20
29.24888752318759
 30
0.0
 40
2.5
 41
0.0
 71
     7
 72
     5
  1
Datum/{\Q20;Date:}
 73
     1
 44
1.0
1001
PHOENIX7010
1002
{
1070
    41
1040
1.0
1002
}
1001
ACAD
1000
MTEXTBEGIN
1070
    73
1070
     1
1070
    44
1040
1.0
1070
    74
1070
     0
1000
MTEXTEND
  0
MTEXT
  5
BC4E
102
{ACAD_REACTORS
330
B5EE
102
}
330
1A
100
AcDbEntity
  8
0
  6
Continuous
 62
     5
370
    35
100
AcDbMText
 10
316.5289912646938
 20
33.49475527098105
 30
0.0
 40
2.5
 41
0.0
 71
     7
 72
     5
  1
DISK:
 73
     1
 44
1.0
1001
PHOENIX7010
1002
{
1070
    41
1040
1.0
1002
}
1001
ACAD
1000
MTEXTBEGIN
1070
    73
1070
     1
1070
    44
1040
1.0
1070
    74
1070
     0
1000
MTEXTEND
  0
MTEXT
  5
BC4F
102
{ACAD_REACTORS
330
B5EE
102
}
330
1A
100
AcDbEntity
  8
0
  6
Continuous
 62
     5
370
    35
100
AcDbMText
 10
316.167758256943
 20
38.32303913053613
 30
0.0
 40
2.0
 41
0.0
 71
     7
 72
     5
  1
{\C1;Ä.Nr/\P\Q20;Alt-No.:}
 73
     1
 44
1.0
1001
PHOENIX7010
1002
{
1070
    41
1040
1.0
1002
}
1001
ACAD
1000
MTEXTBEGIN
1070
    73
1070
     1
1070
    44
1040
1.0
1070
    74
1070
     0
1000
MTEXTEND
  0
MTEXT
  5
BC50
102
{ACAD_REACTORS
330
B5EE
102
}
330
1A
100
AcDbEntity
  8
0
  6
Continuous
 62
     5
370
    35
100
AcDbMText
 10
329.5918340418987
 20
38.32304279191078
 30
0.0
 40
2.0
 41
0.0
 71
     7
 72
     5
  1
{\C1;Datum/\P\Q20;Date:}
 73
     1
 44
1.0
1001
PHOENIX7010
1002
{
1070
    41
1040
1.0
1002
}
1001
ACAD
1000
MTEXTBEGIN
1070
    73
1070
     1
1070
    44
1040
1.0
1070
    74
1070
     0
1000
MTEXTEND
  0
MTEXT
  5
BC51
102
{ACAD_REACTORS
330
B5EE
102
}
330
1A
100
AcDbEntity
  8
0
  6
Continuous
 62
     5
370
    35
100
AcDbMText
 10
318.8800602381664
 20
95.42896167163702
 30
0.0
 40
4.0
 41
0.0
 71
     7
 72
     5
  1
{\C7;Artikel / \Q20;Article:}
 73
     1
 44
1.0
1001
PHOENIX7010
1002
{
1070
    41
1040
1.0
1002
}
1001
ACAD
1000
MTEXTBEGIN
1070
    73
1070
     1
1070
    44
1040
1.0
1070
    74
1070
     0
1000
MTEXTEND
  0
MTEXT
  5
BC52
102
{ACAD_REACTORS
330
B5EE
102
}
330
1A
100
AcDbEntity
  8
0
  6
Continuous
 62
     5
370
    35
100
AcDbMText
 10
340.6810942169352
 20
111.4363046740557
 30
0.0
 40
4.0
 41
0.0
 71
     7
 72
     5
  1
{\C7;3G 5145.159.01}
 73
     1
 44
1.0
1001
PHOENIX7010
1002
{
1070
    41
1040
1.0
1002
}
1001
ACAD
1000
MTEXTBEGIN
1070
    73
1070
     1
1070
    44
1040
1.0
1070
    74
1070
     0
1000
MTEXTEND
  0
MTEXT
  5
BC53
102
{ACAD_REACTORS
330
B5EE
102
}
330
1A
100
AcDbEntity
  8
0
  6
Continuous
 62
     5
370
    35
100
AcDbMText
 10
319.5702130763932
 20
117.578461793006
 30
0.0
 40
3.0
 41
0.0
 71
     7
 72
     5
  1
Zeichnungs-Nr. / {\Q20;Drawing-No.:}
 73
     1
 44
1.0
1001
PHOENIX7010
1002
{
1070
    41
1040
1.0
1002
}
1001
ACAD
1000
MTEXTBEGIN
1070
    73
1070
     1
1070
    44
1040
1.0
1070
    74
1070
     0
1000
MTEXTEND
  0
MTEXT
  5
BC54
102
{ACAD_REACTORS
330
B5EE
102
}
330
1A
100
AcDbEntity
  8
0
  6
Continuous
 62
     5
370
    35
100
AcDbMText
 10
319.2942762589885
 20
125.2466907925511
 30
0.0
 40
2.5
 41
0.0
 71
     7
 72
     5
  1
{\C1;Maßstab/\P\Q20;Scale:}
 73
     1
 44
1.0
1001
PHOENIX7010
1002
{
1070
    41
1040
1.0
1002
}
1001
ACAD
1000
MTEXTBEGIN
1070
    73
1070
     1
1070
    44
1040
1.0
1070
    74
1070
     0
1000
MTEXTEND
  0
MTEXT
  5
BC55
102
{ACAD_REACTORS
330
B5EE
102
}
330
1A
100
AcDbEntity
  8
0
  6
Continuous
 62
     5
370
    35
100
AcDbMText
 10
340.3074630969179
 20
126.1987580068237
 30
0.0
 40
4.0
 41
0.0
 71
     7
 72
     5
  1
{\C7;1:1}
 73
     1
 44
1.0
1001
PHOENIX7010
1002
{
1070
    41
1040
1.0
1002
}
1001
ACAD
1000
MTEXTBEGIN
1070
    73
1070
     1
1070
    44
1040
1.0
1070
    74
1070
     0
1000
MTEXTEND
  0
MTEXT
  5
BC56
102
{ACAD_REACTORS
330
B5EE
102
}
330
1A
100
AcDbEntity
  8
0
  6
Continuous
 62
     7
370
    50
100
AcDbMText
 10
381.0842366554657
 20
40.88346060003141
 30
0.0
 40
1.6
 41
0.0
 71
     7
 72
     5
  1
{\fArial|b0|i0|c0|p34;\W1.1;\C1;A Phoenix Mecano Company}
 73
     1
 44
1.0
1001
PHOENIX7010
1002
{
1070
    41
1040
1.0
1002
}
1001
ACAD
1000
MTEXTBEGIN
1070
    73
1070
     1
1070
    44
1040
1.0
1070
    74
1070
     0
1000
MTEXTEND
  0
MTEXT
  5
BC57
102
{ACAD_XDICTIONARY
360
BCBA
102
}
102
{ACAD_REACTORS
330
B5EE
102
}
330
1A
100
AcDbEntity
  8
0
  6
Continuous
 62
     7
370
    50
100
AcDbMText
 10
393.5658807175857
 20
44.46517927327727
 30
0.0
 40
3.7
 41
0.0
 71
     7
 72
     5
  1
{\fArial|b1|i0|c0|p34;\W1.1;BOPLA}
 73
     1
 44
1.135135135135135
1001
PHOENIX7010
1002
{
1070
    41
1040
1.0
1002
}
1001
ACAD
1000
MTEXTBEGIN
1070
    73
1070
     1
1070
    44
1040
1.135135135135135
1070
    74
1070
     0
1000
MTEXTEND
  0
INSERT
  5
BC58
102
{ACAD_REACTORS
330
B5EE
102
}
330
1A
100
AcDbEntity
  8
0
  6
Continuous
 62
     7
370
    50
100
AcDbBlockReference
  2
PH_GRPBLK
 10
400.7334749940254
 20
50.3645381139803
 30
0.0
1001
PHOENIX7010
1002
{
1070
    41
1040
1.0
1002
}
  0
HATCH
  5
BC59
102
{ACAD_REACTORS
330
B5EE
102
}
330
1A
100
AcDbEntity
  8
0
  6
Continuous
 62
     1
370
    25
100
AcDbHatch
 10
0.0
 20
0.0
 30
0.0
210
0.0
220
0.0
230
1.0
  2
_U
 70
     0
 71
     0
 91
        1
 92
        1
 93
        5
 72
     1
 10
407.4334749940256
 20
58.16453811398037
 11
400.7334749940254
 21
50.3645381139803
 72
     1
 10
400.7334749940254
 20
50.3645381139803
 11
412.7334749940255
 21
50.3645381139803
 72
     1
 10
412.7334749940255
 20
50.3645381139803
 11
412.7334749940255
 21
58.16453811398026
 72
     1
 10
412.7334749940255
 20
58.16453811398026
 11
407.4334749940256
 21
51.2645381139804
 72
     1
 10
407.4334749940256
 20
51.2645381139804
 11
407.4334749940256
 21
58.16453811398037
 97
        0
 75
     0
 76
     0
 52
45.0
 41
0.1
 77
     0
 78
     1
 53
45.0
 43
0.0
 44
-9.08885297207064
 45
-0.0707106781186548
 46
0.0707106781186548
 79
     0
 98
        1
 10
0.0
 20
-9.08885297207064
1001
PHOENIX7010
1002
{
1070
    41
1040
1.0
1002
}
  0
HATCH
  5
BC5A
102
{ACAD_REACTORS
330
B5EE
102
}
330
1A
100
AcDbEntity
  8
0
  6
Continuous
 62
     1
370
    25
100
AcDbHatch
 10
0.0
 20
0.0
 30
0.0
210
0.0
220
0.0
230
1.0
  2
_U
 70
     0
 71
     0
 91
        1
 92
        1
 93
        3
 72
     1
 10
399.8834749940256
 20
50.3645381139803
 11
399.8834749940256
 21
54.51453811398028
 72
     1
 10
399.8834749940256
 20
54.51453811398028
 11
404.0334749940257
 21
54.51453811398028
 72
     2
 10
399.8834749940256
 20
54.51453811398028
 40
4.149999999999977
 50
0.0
 51
270.0
 73
     1
 97
        0
 75
     0
 76
     0
 52
45.0
 41
0.65
 77
     0
 78
     1
 53
45.0
 43
0.0
 44
-9.08885297207064
 45
-0.4596194077712559
 46
0.459619407771256
 79
     0
 98
        1
 10
0.0
 20
-9.08885297207064
1001
PHOENIX7010
1002
{
1070
    41
1040
1.0
1002
}
  0
LINE
  5
BC5B
102
{ACAD_REACTORS
330
B5EE
102
}
330
1A
100
AcDbEntity
  8
0
  6
Continuous
 62
     7
370
    50
100
AcDbLine
 10
400.7334749940254
 20
50.3645381139803
 30
0.0
 11
412.7334749940255
 21
50.3645381139803
 31
0.0
1001
PHOENIX7010
1002
{
1070
    41
1040
1.0
1002
}
  0
LINE
  5
BC5C
102
{ACAD_REACTORS
330
B5EE
102
}
330
1A
100
AcDbEntity
  8
0
  6
Continuous
 62
     7
370
    50
100
AcDbLine
 10
412.7334749940255
 20
50.3645381139803
 30
0.0
 11
412.7334749940255
 21
58.16453811398026
 31
0.0
1001
PHOENIX7010
1002
{
1070
    41
1040
1.0
1002
}
  0
LINE
  5
BC5D
102
{ACAD_REACTORS
330
B5EE
102
}
330
1A
100
AcDbEntity
  8
0
  6
Continuous
 62
     7
370
    50
100
AcDbLine
 10
407.4334749940256
 20
51.26453811398028
 30
0.0
 11
407.4334749940256
 21
58.16453811398026
 31
0.0
1001
PHOENIX7010
1002
{
1070
    41
1040
1.0
1002
}
  0
LINE
  5
BC5E
102
{ACAD_REACTORS
330
B5EE
102
}
330
1A
100
AcDbEntity
  8
0
  6
Continuous
 62
     7
370
    50
100
AcDbLine
 10
407.4334749940256
 20
58.16453811398026
 30
0.0
 11
400.7334749940254
 21
50.3645381139803
 31
0.0
1001
PHOENIX7010
1002
{
1070
    41
1040
1.0
1002
}
  0
LINE
  5
BC5F
102
{ACAD_REACTORS
330
B5EE
102
}
330
1A
100
AcDbEntity
  8
0
  6
Continuous
 62
     7
370
    50
100
AcDbLine
 10
412.7334749940255
 20
58.16453811398026
 30
0.0
 11
407.4334749940256
 21
51.26453811398028
 31
0.0
1001
PHOENIX7010
1002
{
1070
    41
1040
1.0
1002
}
  0
INSERT
  5
BC60
102
{ACAD_REACTORS
330
B5EE
102
}
330
1A
100
AcDbEntity
  8
0
  6
Continuous
 62
     1
370
    25
100
AcDbBlockReference
  2
PH_GRPBLK
 10
400.7334749940254
 20
50.3645381139803
 30
0.0
1001
PHOENIX7010
1002
{
1070
    41
1040
1.0
1002
}
  0
ENDSEC
  0
SECTION
  2
OBJECTS
  0
DICTIONARY
  5
C
330
0
100
AcDbDictionary
281
     1
  3
ACAD_COLOR
350
AF65
  3
ACAD_GROUP
350
D
  3
ACAD_LAYOUT
350
AF68
  3
ACAD_MATERIAL
350
AF64
  3
ACAD_MLEADERSTYLE
350
BAE7
  3
ACAD_MLINESTYLE
350
E
  3
ACAD_PLOTSETTINGS
350
AF69
  3
ACAD_PLOTSTYLENAME
350
AF62
  3
ACAD_SCALELIST
350
BAC5
  3
ACAD_TABLESTYLE
350
AF66
  3
ACAD_VISUALSTYLE
350
B950
  3
ACASAPPOBJECT
350
D4
  3
ACASGREF_MASTER
350
84
  3
ACCELVIEW
350
DA
  3
ACDB_RECOMPOSE_DATA
350
BCBC
  3
AcDbVariableDictionary
350
B625
  3
ACDMSYSVARMGR
350
A0
  3
ACGREF_MASTER
350
82
  3
ACME_COMMAND_HISTORY
350
80
  3
ACME_SCOPE_NAME
350
7F
  3
AD_APPL
350
93
  3
AD_DRAWMGR_NAME
350
B4
  3
AD_GREF_MODULE
350
9B
  3
AD_HOLENOTE_REPOSITORY
350
9A
  3
ADSYSVARMGR
350
89
  3
AMI_MASTER
350
83
  3
AUTOCAD_ASSEMBLIES_PROJECT
350
C0
  3
DESIGNER_ASSEMBLIES_SYSVARS
350
BB
  3
DWGPROPS
350
BCBD
  3
PH_OBJREACTOR_DICT
350
3C
  3
PH_ROOTGROUP_DICT
350
3B
  3
PH_VARS
350
31
  0
DICTIONARY
  5
B928
330
2
100
AcDbDictionary
280
     1
281
     1
  3
ACAD_LAYERFILTERS
360
B92A
  3
ACAD_LAYERSTATES
360
BBD6
  3
ACLYDICTIONARY
360
B929
  0
DICTIONARY
  5
BC68
330
F
100
AcDbDictionary
280
     1
281
     1
  3
ADSK_XREC_LAYER_RECONCILED
360
BC69
  0
DICTIONARY
  5
BC6A
330
44
100
AcDbDictionary
280
     1
281
     1
  3
ADSK_XREC_LAYER_RECONCILED
360
BC6B
  0
DICTIONARY
  5
BC6C
330
48
100
AcDbDictionary
280
     1
281
     1
  3
ADSK_XREC_LAYER_RECONCILED
360
BC6D
  0
DICTIONARY
  5
BC6E
330
68B
100
AcDbDictionary
280
     1
281
     1
  3
ADSK_XREC_LAYER_RECONCILED
360
BC6F
  0
DICTIONARY
  5
BC70
330
B926
100
AcDbDictionary
280
     1
281
     1
  3
ADSK_XREC_LAYER_RECONCILED
360
BC71
  0
DICTIONARY
  5
BC72
330
B974
100
AcDbDictionary
280
     1
281
     1
  3
ADSK_XREC_LAYER_RECONCILED
360
BC73
  0
DICTIONARY
  5
B5F4
330
1A
100
AcDbDictionary
280
     1
281
     1
  3
ACAD_SORTENTS
360
B5F5
  0
DICTIONARY
  5
BCBA
330
BC57
100
AcDbDictionary
280
     1
281
     1
  3
ACAD_MTEXT_2008_RT
360
BCBB
  0
DICTIONARY
  5
AF65
102
{ACAD_REACTORS
330
C
102
}
330
C
100
AcDbDictionary
281
     1
  0
DICTIONARY
  5
D
102
{ACAD_REACTORS
330
C
102
}
330
C
100
AcDbDictionary
281
     1
  3
*A1
350
246C
  3
*A2
350
9C14
  3
*A3
350
A7DA
  3
PH_BOUNDARYLIST
350
3D
  0
DICTIONARY
  5
AF68
102
{ACAD_REACTORS
330
C
102
}
330
C
100
AcDbDictionary
281
     1
  3
Layout1
350
AF6B
  3
Model
350
AF6A
  0
DICTIONARY
  5
AF64
102
{ACAD_REACTORS
330
C
102
}
330
C
100
AcDbDictionary
281
     1
  3
ByBlock
350
B94E
  3
ByLayer
350
B94D
  3
Global
350
B94F
  0
DICTIONARY
  5
BAE7
102
{ACAD_REACTORS
330
C
102
}
330
C
100
AcDbDictionary
281
     1
  3
Standard
350
BAE8
  0
DICTIONARY
  5
E
102
{ACAD_REACTORS
330
C
102
}
330
C
100
AcDbDictionary
281
     1
  3
STANDARD
350
13
  0
DICTIONARY
  5
AF69
102
{ACAD_REACTORS
330
C
102
}
330
C
100
AcDbDictionary
281
     1
  3
A3_Randlos
350
B941
  0
ACDBDICTIONARYWDFLT
  5
AF62
102
{ACAD_REACTORS
330
C
102
}
330
C
100
AcDbDictionary
281
     1
  3
Normal
350
AF63
100
AcDbDictionaryWithDefault
340
AF63
  0
DICTIONARY
  5
BAC5
102
{ACAD_REACTORS
330
C
102
}
330
C
100
AcDbDictionary
281
     1
  3
A0
350
BAC6
  3
A1
350
BAC7
  3
A2
350
BAC8
  3
A3
350
BAC9
  3
A4
350
BACA
  3
A5
350
BACB
  3
A6
350
BACC
  3
A7
350
BACD
  3
A8
350
BACE
  3
A9
350
BACF
  3
B0
350
BAD0
  3
B1
350
BAD1
  3
B2
350
BAD2
  3
B3
350
BAD3
  3
B4
350
BAD4
  3
B5
350
BAD5
  3
B6
350
BAD6
  3
B7
350
BAD7
  3
B8
350
BAD8
  3
B9
350
BAD9
  3
C0
350
BADA
  3
C1
350
BADB
  3
C2
350
BADC
  3
C3
350
BADD
  3
C4
350
BADE
  3
C5
350
BADF
  3
C6
350
BAE0
  3
C7
350
BAE1
  3
C8
350
BAE2
  3
C9
350
BAE3
  3
D0
350
BAE4
  3
D1
350
BAE5
  3
D2
350
BAE6
  0
DICTIONARY
  5
AF66
102
{ACAD_REACTORS
330
C
102
}
330
C
100
AcDbDictionary
281
     1
  3
Standard
350
AF67
  0
DICTIONARY
  5
B950
102
{ACAD_REACTORS
330
C
102
}
330
C
100
AcDbDictionary
281
     1
  3
2dWireframe
350
B956
  3
3D Hidden
350
B958
  3
3dWireframe
350
B957
  3
Basic
350
B955
  3
Brighten
350
B95C
  3
ColorChange
350
B960
  3
Conceptual
350
B959
  3
Dim
350
B95B
  3
EdgeColorOff
350
BAC4
  3
Facepattern
350
B95F
  3
Flat
350
B951
  3
FlatWithEdges
350
B952
  3
Gouraud
350
B953
  3
GouraudWithEdges
350
B954
  3
JitterOff
350
BAC2
  3
Linepattern
350
B95E
  3
OverhangOff
350
BAC3
  3
Realistic
350
B95A
  3
Thicken
350
B95D
  0
ACAD_PROXY_OBJECT
  5
D4
102
{ACAD_REACTORS
330
C
102
}
330
C
100
AcDbProxyObject
 90
      499
 91
      540
 95
   589845
 70
     0
 93
        2
310
BF
360
D2
 94
        0
1001
ACAD
1000
AcRTDxfName
1000
ASAPP
  0
ACAD_PROXY_OBJECT
  5
84
102
{ACAD_REACTORS
330
C
102
}
330
C
100
AcDbProxyObject
 90
      499
 91
      506
 95
   589845
 70
     0
 93
       34
310
010000407F
 94
        0
1001
ACAD
1000
AcRTDxfName
1000
ACASGREFMASTER
  0
ACAD_PROXY_OBJECT
  5
DA
102
{ACAD_REACTORS
330
C
102
}
330
C
100
AcDbProxyObject
 90
      499
 91
      541
 95
   589845
 70
     0
 93
       12
310
901F
330
0
 94
        0
1001
ACAD
1000
AcRTDxfName
1000
AGDICTIONARY
  0
XRECORD
  5
BCBC
102
{ACAD_REACTORS
330
C
102
}
330
C
100
AcDbXrecord
280
     1
 90
        1
330
AF67
330
BC57
  0
DICTIONARY
  5
B625
102
{ACAD_REACTORS
330
C
102
}
330
C
100
AcDbDictionary
281
     1
  3
CANNOSCALE
350
BCAB
  3
CMLEADERSTYLE
350
BCA9
  3
CTABLESTYLE
350
B626
  3
DIMASSOC
350
BCB8
  3
INDEXCTL
350
BCB6
  3
LAYEREVAL
350
BCAD
  3
LAYERNOTIFY
350
BCAE
  3
LIGHTINGUNITS
350
BCAC
  3
MSLTSCALE
350
BCAA
  3
SORTENTS
350
BCB5
  3
XCLIPFRAME
350
BCB7
  0
ACAD_PROXY_OBJECT
  5
A0
102
{ACAD_REACTORS
330
C
102
}
330
C
100
AcDbProxyObject
 90
      499
 91
      511
 95
   589845
 70
     0
 93
      184
310
4C5124810100000000000000000000000000000000000000
330
A1
330
A2
330
A3
330
A4
330
A5
330
A6
330
A7
330
A9
330
AA
330
AB
330
AC
330
AD
330
AE
330
AF
330
B0
330
B1
330
B2
330
B3
 94
        0
1001
ACAD
1000
AcRTDxfName
1000
"IM_SYSVAR_MAN"
  0
ACAD_PROXY_OBJECT
  5
82
102
{ACAD_REACTORS
330
C
102
}
330
C
100
AcDbProxyObject
 90
      499
 91
      504
 95
   589845
 70
     0
 93
      114
310
01010041000000000000000000003F
 94
        0
1001
ACAD
1000
AcRTDxfName
1000
ACGREFMASTER
  0
ACAD_PROXY_OBJECT
  5
80
102
{ACAD_REACTORS
330
C
102
}
330
C
100
AcDbProxyObject
 90
      499
 91
      502
 95
   589845
 70
     0
 93
     1726
310
4280508554E444546494E4580508554E444546494E458050C41445F434F4E56455254523140805084E202D20554E444F014213880B4815539113C050C414D4C54595045434845434B41405084E202D20554E444F014313880B481312539155165411405094E202D204C41594552014313880B481312539155165411405084E
310
202D20554E444F01431053531516541150D21150D2D03014213880B4815539113C05094E202D204C41594552014213880B4815539113C0504554E444F80504554E444F80504554E444F80504554E444F80506534156454153B
 94
        0
1001
ACAD
1000
AcRTDxfName
1000
ACMECOMMANDHISTORY
  0
ACAD_PROXY_OBJECT
  5
7F
102
{ACAD_REACTORS
330
C
102
}
330
C
100
AcDbProxyObject
 90
      499
 91
      501
 95
   589845
 70
     0
 93
      464
310
0101004093200000000000000000000000000000000000000000000000000000000000000000000000000000000000000000000000000009010000
360
85
360
86
360
87
360
88
360
8A
360
8B
360
8C
360
8D
360
8E
360
8F
360
90
360
91
360
92
360
95
360
96
360
97
360
98
360
99
360
9C
360
9D
360
9E
360
9F
360
A1
360
A2
360
A3
360
A4
360
A5
360
A6
360
A7
360
A9
360
AA
360
AB
360
AC
360
AD
360
AE
360
AF
360
B0
360
B1
360
B2
360
B3
360
BC
360
BD
360
BE
360
BF
360
C6
360
C7
360
C8
360
C9
360
CA
360
CE
330
0
 94
        0
1001
ACAD
1000
AcRTDxfName
1000
ACMESCOPE
  0
ACAD_PROXY_OBJECT
  5
93
102
{ACAD_REACTORS
330
C
102
}
330
C
100
AcDbProxyObject
 90
      499
 91
      515
 95
   589845
 70
     0
 93
       42
310
00010200453F
330
85
 94
        0
1001
ACAD
1000
AcRTDxfName
1000
NAMEDAPPL
  0
ACAD_PROXY_OBJECT
  5
B4
102
{ACAD_REACTORS
330
C
102
}
330
C
100
AcDbProxyObject
 90
      499
 91
      527
 95
   589845
 70
     0
 93
       42
310
00010000453F
330
9C
 94
        0
1001
ACAD
1000
AcRTDxfName
1000
AM_DWGMGR_NAME
  0
ACAD_PROXY_OBJECT
  5
9B
102
{ACAD_REACTORS
330
C
102
}
330
C
100
AcDbProxyObject
 90
      499
 91
      522
 95
   589845
 70
     0
 93
      114
310
00000042800000000000000000003F
 94
        0
1001
ACAD
1000
AcRTDxfName
1000
AcAdGrefModule
  0
ACAD_PROXY_OBJECT
  5
9A
102
{ACAD_REACTORS
330
C
102
}
330
C
100
AcDbProxyObject
 90
      499
 91
      521
 95
   589845
 70
     0
 93
        8
310
003D
330
99
 94
        0
1001
ACAD
1000
AcRTDxfName
1000
AM_HNTEMPLATE_MGR_NAME
  0
ACAD_PROXY_OBJECT
  5
89
102
{ACAD_REACTORS
330
C
102
}
330
C
100
AcDbProxyObject
 90
      499
 91
      511
 95
   589845
 70
     0
 93
      104
310
9094410100000000000000000000
330
8A
330
8B
330
8C
330
8D
330
8E
330
8F
330
90
330
91
330
92
 94
        0
1001
ACAD
1000
AcRTDxfName
1000
"IM_SYSVAR_MAN"
  0
ACAD_PROXY_OBJECT
  5
83
102
{ACAD_REACTORS
330
C
102
}
330
C
100
AcDbProxyObject
 90
      499
 91
      505
 95
   589845
 70
     0
 93
       34
310
010000407F
 94
        0
1001
ACAD
1000
AcRTDxfName
1000
AmiMaster
  0
ACAD_PROXY_OBJECT
  5
C0
102
{ACAD_REACTORS
330
C
102
}
330
C
100
AcDbProxyObject
 90
      499
 91
      528
 95
   589845
 70
     0
 93
       58
310
010200420000003F
330
C8
330
CE
330
C9
 94
        0
1001
ACAD
1000
AcRTDxfName
1000
ACAMPROJECT
  0
ACAD_PROXY_OBJECT
  5
BB
102
{ACAD_REACTORS
330
C
102
}
330
C
100
AcDbProxyObject
 90
      499
 91
      511
 95
   589845
 70
     0
 93
       64
310
904441010000000000
330
BC
330
BD
330
BE
330
BF
 94
        0
1001
ACAD
1000
AcRTDxfName
1000
"IM_SYSVAR_MAN"
  0
XRECORD
  5
BCBD
102
{ACAD_REACTORS
330
C
102
}
330
C
100
AcDbXrecord
280
     1
  1
DWGPROPS COOKIE
  2

  3

  4

  6

  7

  8
nowak
  9

300
=
301
=
302
=
303
=
304
=
305
=
306
=
307
=
308
=
309
=
 40
0.1602757754629629
 41
2450968.327315312
 42
2455917.414079097
  1

 90
        0
  0
DICTIONARY
  5
3C
102
{ACAD_REACTORS
330
C
102
}
330
C
100
AcDbDictionary
281
     1
  3
*A1
350
7480
  3
*A2
350
7481
  3
*A3
350
7482
  3
*A4
350
869A
  3
*A5
350
869B
  3
*A6
350
869C
  3
*A7
350
5507
  3
*A8
350
5508
  0
DICTIONARY
  5
3B
102
{ACAD_REACTORS
330
C
102
}
330
C
100
AcDbDictionary
281
     1
  3
$PH$AAAOCANDP
350
1C59
  3
$PH$AABA3H
350
BBF7
  3
PH_GRPMEMBERS
350
B5EE
  0
PH_VARS
  5
31
102
{ACAD_REACTORS
330
C
102
}
330
C
  0
DICTIONARY
  5
B92A
102
{ACAD_REACTORS
330
B928
102
}
330
B928
100
AcDbDictionary
281
     1
  0
DICTIONARY
  5
BBD6
102
{ACAD_REACTORS
330
B928
102
}
330
B928
100
AcDbDictionary
281
     1
  0
DICTIONARY
  5
B929
102
{ACAD_REACTORS
330
B928
102
}
330
B928
100
AcDbDictionary
281
     1
1001
ACAD
1000
<All
  0
XRECORD
  5
BC69
102
{ACAD_REACTORS
330
BC68
102
}
330
BC68
100
AcDbXrecord
280
     1
290
     1
  0
XRECORD
  5
BC6B
102
{ACAD_REACTORS
330
BC6A
102
}
330
BC6A
100
AcDbXrecord
280
     1
290
     1
  0
XRECORD
  5
BC6D
102
{ACAD_REACTORS
330
BC6C
102
}
330
BC6C
100
AcDbXrecord
280
     1
290
     1
  0
XRECORD
  5
BC6F
102
{ACAD_REACTORS
330
BC6E
102
}
330
BC6E
100
AcDbXrecord
280
     1
290
     1
  0
XRECORD
  5
BC71
102
{ACAD_REACTORS
330
BC70
102
}
330
BC70
100
AcDbXrecord
280
     1
290
     1
  0
XRECORD
  5
BC73
102
{ACAD_REACTORS
330
BC72
102
}
330
BC72
100
AcDbXrecord
280
     1
290
     1
  0
SORTENTSTABLE
  5
B5F5
102
{ACAD_REACTORS
330
B5F4
102
}
330
B5F4
100
AcDbSortentsTable
330
1A
331
2462
  5
8277
331
1C1C
  5
1C1E
331
B32
  5
B34
331
B2E
  5
B31
331
1C18
  5
1C1A
331
D85
  5
D87
331
1C14
  5
1C16
331
B2A
  5
B2E
331
D81
  5
D83
331
1FCE
  5
1FD1
331
8CC
  5
8CD
331
1FCA
  5
1FCD
331
AD7
  5
AD9
331
889
  5
890
331
208D
  5
2090
331
1FC6
  5
1FC9
331
8C4
  5
8C7
331
AD3
  5
AD5
331
2089
  5
208C
331
1FC2
  5
1FC6
331
2423
  5
2428
331
23B4
  5
23CC
331
244A
  5
245D
331
C35
  5
C37
331
1C4F
  5
1E60
331
1C4B
  5
1C4E
331
C31
  5
C33
331
B1E
  5
B29
331
1C47
  5
1C4A
331
1C43
  5
1C46
331
ACF
  5
AD1
331
885
  5
886
331
881
  5
882
331
241F
  5
2422
331
1FBE
  5
1FC2
331
ACB
  5
ACE
331
1FBA
  5
1FBD
331
241B
  5
241E
331
87D
  5
87E
331
2417
  5
241A
331
1FB6
  5
1FB9
331
879
  5
87A
331
1FB2
  5
1FB5
331
2413
  5
2416
331
1FF1
  5
2087
331
23A0
  5
23AE
331
2446
  5
244A
331
2442
  5
2446
331
243A
  5
2440
331
AF6
  5
B1C
331
1C3F
  5
1C42
331
C1D
  5
C2F
331
DA4
  5
1C14
331
1C3B
  5
1C3E
331
C19
  5
C1B
331
AEE
  5
AF0
331
1C37
  5
1C3A
331
DA0
  5
DA2
331
C15
  5
C17
331
1C33
  5
1C36
331
D9C
  5
D9E
331
D98
  5
D9A
331
997
  5
A0D
331
875
  5
876
331
871
  5
872
331
993
  5
994
331
240F
  5
2412
331
1FED
  5
1FF0
331
8AC
  5
8AE
331
98F
  5
990
331
1FE9
  5
1FEC
331
1E72
  5
1E75
331
8A8
  5
8A9
331
86D
  5
86E
331
869
  5
869
331
1FE5
  5
1FE8
331
2407
  5
240A
331
1E6E
  5
1E71
331
98B
  5
98C
331
1FE1
  5
1FE4
331
1E6A
  5
1E6D
331
2403
  5
2406
331
2436
  5
243A
331
2432
  5
2436
331
242E
  5
2432
331
242A
  5
2430
331
AE6
  5
AE9
331
1C2F
  5
1C32
331
1C2B
  5
1C2E
331
D94
  5
D96
331
AE2
  5
AE7
331
ADE
  5
AE0
331
1C27
  5
1C2A
331
D90
  5
D92
331
D8C
  5
D8F
331
1C23
  5
1C25
331
ADA
  5
ADC
331
D88
  5
D8A
331
987
  5
988
331
865
  5
865
331
1FDD
  5
1FE0
331
983
  5
984
331
1FD9
  5
1FDC
331
23FB
  5
2403
331
2114
  5
225B
331
97F
  5
980
331
97B
  5
97C
331
1FD5
  5
1FD8
331
894
  5
89A
331
1FD1
  5
1FD4
331
2094
  5
2112
331
890
  5
892
331
2090
  5
2093
331
245D
  5
6E57
331
B35
  5
C0F
331
1C1F
  5
1C21
331
1C1B
  5
1C1D
331
B31
  5
B33
331
D84
  5
D86
331
B2D
  5
B2F
331
1C17
  5
1C19
331
D80
  5
D82
331
1C13
  5
1C15
331
B29
  5
B2D
331
1FCD
  5
1FD0
331
1FC9
  5
1FCC
331
8C7
  5
8CC
331
AD6
  5
AD8
331
888
  5
889
331
AD2
  5
AD4
331
2426
  5
242D
331
208C
  5
208F
331
8C3
  5
8C4
331
2088
  5
208B
331
2422
  5
2426
331
23B3
  5
23BD
331
2449
  5
2458
331
B25
  5
B2A
331
1C4E
  5
1C5B
331
C34
  5
C36
331
1C4A
  5
1C4D
331
C30
  5
C32
331
B1D
  5
B25
331
1C46
  5
1C49
331
1C42
  5
1C45
331
ACE
  5
AD0
331
884
  5
885
331
880
  5
881
331
ACA
  5
ACD
331
241E
  5
2421
331
1FBD
  5
1FC0
331
8BB
  5
8BE
331
1FB9
  5
1FBC
331
241A
  5
241D
331
87C
  5
87D
331
2416
  5
2419
331
23A7
  5
23B3
331
1FB5
  5
1FB8
331
878
  5
879
331
1FF0
  5
1FF3
331
2412
  5
2415
331
2445
  5
2449
331
2441
  5
2445
331
2439
  5
243F
331
C1C
  5
C2E
331
1C3E
  5
1C41
331
1C3A
  5
1C3D
331
DA3
  5
1C13
331
C18
  5
C1A
331
1C36
  5
1C39
331
D9F
  5
DA1
331
C10
  5
C16
331
D9B
  5
D9D
331
1C32
  5
1C35
331
AE9
  5
AEE
331
996
  5
997
331
874
  5
875
331
870
  5
871
331
1FEC
  5
1FEF
331
240E
  5
2411
331
1E75
  5
1FB3
331
992
  5
993
331
98E
  5
98F
331
1FE8
  5
1FEB
331
1E71
  5
1E74
331
240A
  5
240E
331
8A7
  5
8A8
331
86C
  5
86D
331
2406
  5
2409
331
1E6D
  5
1E70
331
1FE4
  5
1FE7
331
868
  5
868
331
1FE0
  5
1FE3
331
2402
  5
2405
331
2435
  5
2439
331
2431
  5
2435
331
242D
  5
2431
331
8277
  5
AFBD
331
2429
  5
242F
331
D97
  5
D99
331
1C2E
  5
1C31
331
D93
  5
D95
331
1C2A
  5
1C2D
331
AE1
  5
AE6
331
ADD
  5
ADF
331
1C26
  5
1C29
331
D8F
  5
D91
331
1C22
  5
1C24
331
AD9
  5
ADB
331
986
  5
987
331
1FDC
  5
1FDF
331
982
  5
983
331
1FD8
  5
1FDB
331
1E61
  5
1E6A
331
23FA
  5
2402
331
97E
  5
97F
331
1FD4
  5
1FD7
331
1FD0
  5
1FD3
331
2093
  5
2096
331
B34
  5
B63
331
1C1E
  5
1C20
331
2458
  5
5166
331
1C1A
  5
1C1C
331
D87
  5
D89
331
D83
  5
D85
331
1C16
  5
1C18
331
1FCC
  5
1FCF
331
1FC8
  5
1FCB
331
208F
  5
2092
331
AD5
  5
AD7
331
208B
  5
208E
331
1FC4
  5
1FC8
331
2425
  5
242A
331
AD1
  5
AD3
331
2421
  5
2425
331
23B2
  5
23B5
331
1FC0
  5
1FC4
331
2454
  5
2467
331
2450
  5
2462
331
6E57
  5
AFBC
331
C37
  5
D81
331
C33
  5
C35
331
1C4D
  5
1C50
331
2448
  5
2454
331
1C49
  5
1C4C
331
C2F
  5
C31
331
B1C
  5
B1E
331
1C45
  5
1C48
331
1C41
  5
1C44
331
887
  5
888
331
2087
  5
208A
331
8BE
  5
8C3
331
ACD
  5
ACF
331
883
  5
884
331
87F
  5
880
331
1FBC
  5
1FBF
331
241D
  5
2420
331
23AE
  5
23B4
331
8BA
  5
8BB
331
2419
  5
241C
331
1FB8
  5
1FBB
331
A0D
  5
ACB
331
87B
  5
87C
331
1FB4
  5
1FB7
331
2415
  5
2418
331
1FF3
  5
2089
331
8B2
  5
8B5
331
23A2
  5
23B2
331
2411
  5
2414
331
1FB0
  5
1FB4
331
2444
  5
2448
331
2440
  5
2444
331
924A
  5
AFBE
331
243C
  5
2442
331
C1B
  5
C1D
331
1C3D
  5
1C40
331
2438
  5
243C
331
1C39
  5
1C3C
331
DA2
  5
DA4
331
AF0
  5
AF7
331
C17
  5
C19
331
1C35
  5
1C38
331
D9E
  5
DA0
331
1C31
  5
1C34
331
D9A
  5
D9C
331
877
  5
878
331
995
  5
996
331
1FEF
  5
1FF2
331
8AE
  5
8B2
331
873
  5
874
331
86F
  5
870
331
1FEB
  5
1FEE
331
1E74
  5
1FB2
331
239E
  5
23A7
331
240D
  5
2410
331
991
  5
992
331
1FE7
  5
1FEA
331
2409
  5
240D
331
1E70
  5
1E73
331
8A6
  5
8A7
331
98D
  5
98E
331
86B
  5
86C
331
1FE3
  5
1FE6
331
1E6C
  5
1E6F
331
2405
  5
2408
331
1E68
  5
1E6C
331
2434
  5
2438
331
2430
  5
2434
331
C0F
  5
C15
331
1C2D
  5
1C30
331
D96
  5
D98
331
2428
  5
242E
331
1C29
  5
1C2C
331
D92
  5
D94
331
AE0
  5
AE2
331
B63
  5
C10
331
ADC
  5
ADE
331
1C25
  5
1C28
331
D8E
  5
D90
331
D8A
  5
D8E
331
1C21
  5
1C23
331
AD8
  5
ADA
331
867
  5
867
331
1FDF
  5
1FE2
331
981
  5
982
331
1FDB
  5
1FDE
331
89A
  5
8A6
331
1FD7
  5
1FDA
331
23F9
  5
23FC
331
2112
  5
225A
331
1E60
  5
1E68
331
97D
  5
97E
331
1FD3
  5
1FD6
331
2096
  5
2115
331
892
  5
894
331
2092
  5
2095
331
2467
  5
924A
331
B33
  5
B35
331
1C1D
  5
1C1F
331
D86
  5
D88
331
1C19
  5
1C1B
331
B2F
  5
B32
331
D82
  5
D84
331
1C15
  5
1C17
331
1C50
  5
1E61
331
1FCF
  5
1FD2
331
8CD
  5
97B
331
1FCB
  5
1FCE
331
23BD
  5
23FA
331
1FC7
  5
1FCA
331
208E
  5
2091
331
AD4
  5
AD6
331
1FC3
  5
1FC7
331
2424
  5
2429
331
23B5
  5
23F9
331
208A
  5
208D
331
AD0
  5
AD2
331
2420
  5
2424
331
C36
  5
D80
331
C32
  5
C34
331
1C4C
  5
1C4F
331
1C48
  5
1C4B
331
C2E
  5
C30
331
1C44
  5
1C47
331
1C40
  5
1C43
331
886
  5
887
331
1FBF
  5
1FC3
331
882
  5
883
331
1FBB
  5
1FBE
331
241C
  5
241F
331
87E
  5
87F
331
2418
  5
241B
331
1FB7
  5
1FBA
331
8B5
  5
8BA
331
87A
  5
87B
331
1FF2
  5
2088
331
1FB3
  5
1FB6
331
2414
  5
2417
331
2410
  5
2413
331
2447
  5
2450
331
2443
  5
2447
331
243F
  5
2443
331
AF7
  5
B1D
331
243B
  5
2441
331
C1A
  5
C1C
331
1C3C
  5
1C3F
331
C16
  5
C18
331
1C38
  5
1C3B
331
DA1
  5
DA3
331
AEF
  5
AF6
331
AEB
  5
AEF
331
D9D
  5
D9F
331
1C34
  5
1C37
331
D99
  5
D9B
331
1C30
  5
1C33
331
876
  5
877
331
1FEE
  5
1FF1
331
994
  5
995
331
872
  5
873
331
86E
  5
86F
331
990
  5
991
331
1FEA
  5
1FED
331
1E73
  5
1FB0
331
240C
  5
240F
331
8A9
  5
8AC
331
2408
  5
240C
331
1E6F
  5
1E72
331
1FE6
  5
1FE9
331
98C
  5
98D
331
86A
  5
86B
331
1E6B
  5
1E6E
331
2395
  5
23A2
331
2404
  5
2407
331
1FE2
  5
1FE5
331
988
  5
98B
331
5166
  5
AFB9
331
2437
  5
243B
331
2433
  5
2437
331
242F
  5
2433
331
AE7
  5
AEB
331
D95
  5
D97
331
1C2C
  5
1C2F
331
1C28
  5
1C2B
331
D91
  5
D93
331
ADF
  5
AE1
331
ADB
  5
ADD
331
1C24
  5
1C26
331
1C20
  5
1C22
331
D89
  5
D8C
331
866
  5
866
331
1E67
  5
1E6B
331
1FDE
  5
1FE1
331
984
  5
986
331
1FDA
  5
1FDD
331
23FC
  5
2404
331
2115
  5
225C
331
980
  5
981
331
1FD6
  5
1FD9
331
97C
  5
97D
331
1FD2
  5
1FD5
331
1C5B
  5
1E67
331
23CC
  5
23FB
331
2095
  5
2114
331
2091
  5
2094
  0
XRECORD
  5
BCBB
102
{ACAD_REACTORS
330
BCBA
102
}
330
BCBA
100
AcDbXrecord
280
     1
 40
46997.0
  1
\pxql;{\fArial|b1|i0|c0|p34;\W1.1;BOPLA}
  0
GROUP
  5
246C
102
{ACAD_REACTORS
330
D
102
}
330
D
100
AcDbGroup
300

 70
     0
 71
     0
  0
GROUP
  5
9C14
102
{ACAD_REACTORS
330
D
102
}
330
D
100
AcDbGroup
300

 70
     0
 71
     0
  0
GROUP
  5
A7DA
102
{ACAD_REACTORS
330
D
102
}
330
D
100
AcDbGroup
300

 70
     0
 71
     0
  0
GROUP
  5
3D
102
{ACAD_REACTORS
330
D
102
}
330
D
100
AcDbGroup
300

 70
     0
 71
     0
  0
LAYOUT
  5
AF6B
102
{ACAD_XDICTIONARY
360
BCC0
102
}
102
{ACAD_REACTORS
330
AF68
102
}
330
AF68
100
AcDbPlotSettings
  1

  2
\\kon7\HP DeskJet 870Cxi
  4

  6

 40
0.0
 41
0.0
 42
0.0
 43
0.0
 44
0.0
 45
0.0
 46
0.0
 47
0.0
 48
0.0
 49
0.0
140
0.0
141
0.0
142
1.0
143
1.0
 70
   688
 72
     0
 73
     0
 74
     5
  7
HP_SW.ctb
 75
    16
147
1.0
148
0.0
149
0.0
100
AcDbLayout
  1
Layout1
 70
     1
 71
     1
 10
0.0
 20
0.0
 11
420.0
 21
297.0
 12
0.0
 22
0.0
 32
0.0
 14
1.000000000000000E+20
 24
1.000000000000000E+20
 34
1.000000000000000E+20
 15
-1.000000000000000E+20
 25
-1.000000000000000E+20
 35
-1.000000000000000E+20
146
0.0
 13
0.0
 23
0.0
 33
0.0
 16
1.0
 26
0.0
 36
0.0
 17
0.0
 27
1.0
 37
0.0
 76
     0
330
17
  0
LAYOUT
  5
AF6A
102
{ACAD_XDICTIONARY
360
BC7B
102
}
102
{ACAD_REACTORS
330
AF68
102
}
330
AF68
100
AcDbPlotSettings
  1
A3_Randlos
  2
hp deskjet 9600 series
  4
A3
  6

 40
3.841749906539916
 41
12.47774982452392
 42
3.841766357421875
 43
3.17498779296875
 44
296.9683227539062
 45
419.9889831542968
 46
-2.879999999999999
 47
-12.0
 48
0.0
 49
0.0
140
0.0
141
0.0
142
1.0
143
1.0
 70
 28336
 72
     1
 73
     3
 74
     1
  7
HP_SW.ctb
 75
    16
147
1.0
148
-0.9805307641864828
149
-0.9879462492978063
100
AcDbLayout
  1
Model
 70
     1
 71
     0
 10
0.0
 20
0.0
 11
12.0
 21
9.0
 12
0.0
 22
0.0
 32
0.0
 14
0.0
 24
0.0
 34
0.0
 15
0.0
 25
0.0
 35
0.0
146
0.0
 13
0.0
 23
0.0
 33
0.0
 16
1.0
 26
0.0
 36
0.0
 17
0.0
 27
1.0
 37
0.0
 76
     0
330
1A
331
B94B
1001
ACAD_PSEXT
1000
hp deskjet 9600 series
1000
hp deskjet 9600 series
1000
CentronicsPrinter/Plotter
1000

1070
     0
  0
MATERIAL
  5
B94E
102
{ACAD_XDICTIONARY
360
BCC6
102
}
102
{ACAD_REACTORS
330
AF64
102
}
330
AF64
100
AcDbMaterial
  1
ByBlock
 73
     1
 78
     1
172
     1
176
     1
270
     1
274
     1
  0
MATERIAL
  5
B94D
102
{ACAD_XDICTIONARY
360
BCC4
102
}
102
{ACAD_REACTORS
330
AF64
102
}
330
AF64
100
AcDbMaterial
  1
ByLayer
 73
     1
 78
     1
172
     1
176
     1
270
     1
274
     1
  0
MATERIAL
  5
B94F
102
{ACAD_XDICTIONARY
360
BCC8
102
}
102
{ACAD_REACTORS
330
AF64
102
}
330
AF64
100
AcDbMaterial
  1
Global
 73
     1
 78
     1
172
     1
176
     1
270
     1
274
     1
  0
MLEADERSTYLE
  5
BAE8
102
{ACAD_REACTORS
330
BAE7
102
}
330
BAE7
100
AcDbMLeaderStyle
170
     2
171
     1
172
     0
 90
        2
 40
0.0
 41
0.0
173
     1
 91
-1056964608
340
14
 92
       -2
290
     1
 42
0.09
291
     1
 43
0.36
  3
Standard
 44
0.18
300

342
10
174
     1
178
     6
175
     1
176
     0
 93
-1056964608
 45
0.18
292
     0
297
     0
 46
0.18
 94
-1056964608
 47
1.0
 49
1.0
140
1.0
293
     1
141
0.0
294
     1
177
     0
142
1.0
295
     0
296
     0
143
0.125
1001
ACAD_MLEADERVER
1070
     2
  0
MLINESTYLE
  5
13
102
{ACAD_REACTORS
330
E
102
}
330
E
100
AcDbMlineStyle
  2
STANDARD
 70
     0
  3

 62
     0
 51
90.0
 52
90.0
 71
     2
 49
0.5
 62
   256
  6
BYLAYER
 49
-0.5
 62
   256
  6
BYLAYER
  0
PLOTSETTINGS
  5
B941
102
{ACAD_XDICTIONARY
360
BCC2
102
}
102
{ACAD_REACTORS
330
AF69
102
}
330
AF69
100
AcDbPlotSettings
  1
A3_Randlos
  2
hp deskjet 9600 series
  4
A3
  6

 40
3.841749906539916
 41
12.47774982452392
 42
3.841766357421875
 43
3.17498779296875
 44
296.9683227539062
 45
419.9889831542968
 46
-2.879999999999999
 47
-12.0
 48
0.0
 49
0.0
140
0.0
141
0.0
142
1.0
143
1.0
 70
 28336
 72
     1
 73
     3
 74
     1
  7
HP_SW.ctb
 75
    16
147
1.0
148
-0.9805307641864828
149
-0.9879462492978063
1001
ACAD_PSEXT
1000
hp deskjet 9600 series
1000
hp deskjet 9600 series
1000
CentronicsPrinter/Plotter
1000

1070
     0
  0
ACDBPLACEHOLDER
  5
AF63
102
{ACAD_REACTORS
330
AF62
102
}
330
AF62
  0
SCALE
  5
BAC6
102
{ACAD_REACTORS
330
BAC5
102
}
330
BAC5
100
AcDbScale
 70
     0
300
1:1
140
1.0
141
1.0
290
     1
  0
SCALE
  5
BAC7
102
{ACAD_REACTORS
330
BAC5
102
}
330
BAC5
100
AcDbScale
 70
     0
300
1:2
140
1.0
141
2.0
290
     0
  0
SCALE
  5
BAC8
102
{ACAD_REACTORS
330
BAC5
102
}
330
BAC5
100
AcDbScale
 70
     0
300
1:4
140
1.0
141
4.0
290
     0
  0
SCALE
  5
BAC9
102
{ACAD_REACTORS
330
BAC5
102
}
330
BAC5
100
AcDbScale
 70
     0
300
1:5
140
1.0
141
5.0
290
     0
  0
SCALE
  5
BACA
102
{ACAD_REACTORS
330
BAC5
102
}
330
BAC5
100
AcDbScale
 70
     0
300
1:8
140
1.0
141
8.0
290
     0
  0
SCALE
  5
BACB
102
{ACAD_REACTORS
330
BAC5
102
}
330
BAC5
100
AcDbScale
 70
     0
300
1:10
140
1.0
141
10.0
290
     0
  0
SCALE
  5
BACC
102
{ACAD_REACTORS
330
BAC5
102
}
330
BAC5
100
AcDbScale
 70
     0
300
1:16
140
1.0
141
16.0
290
     0
  0
SCALE
  5
BACD
102
{ACAD_REACTORS
330
BAC5
102
}
330
BAC5
100
AcDbScale
 70
     0
300
1:20
140
1.0
141
20.0
290
     0
  0
SCALE
  5
BACE
102
{ACAD_REACTORS
330
BAC5
102
}
330
BAC5
100
AcDbScale
 70
     0
300
1:30
140
1.0
141
30.0
290
     0
  0
SCALE
  5
BACF
102
{ACAD_REACTORS
330
BAC5
102
}
330
BAC5
100
AcDbScale
 70
     0
300
1:40
140
1.0
141
40.0
290
     0
  0
SCALE
  5
BAD0
102
{ACAD_REACTORS
330
BAC5
102
}
330
BAC5
100
AcDbScale
 70
     0
300
1:50
140
1.0
141
50.0
290
     0
  0
SCALE
  5
BAD1
102
{ACAD_REACTORS
330
BAC5
102
}
330
BAC5
100
AcDbScale
 70
     0
300
1:100
140
1.0
141
100.0
290
     0
  0
SCALE
  5
BAD2
102
{ACAD_REACTORS
330
BAC5
102
}
330
BAC5
100
AcDbScale
 70
     0
300
2:1
140
2.0
141
1.0
290
     0
  0
SCALE
  5
BAD3
102
{ACAD_REACTORS
330
BAC5
102
}
330
BAC5
100
AcDbScale
 70
     0
300
4:1
140
4.0
141
1.0
290
     0
  0
SCALE
  5
BAD4
102
{ACAD_REACTORS
330
BAC5
102
}
330
BAC5
100
AcDbScale
 70
     0
300
8:1
140
8.0
141
1.0
290
     0
  0
SCALE
  5
BAD5
102
{ACAD_REACTORS
330
BAC5
102
}
330
BAC5
100
AcDbScale
 70
     0
300
10:1
140
10.0
141
1.0
290
     0
  0
SCALE
  5
BAD6
102
{ACAD_REACTORS
330
BAC5
102
}
330
BAC5
100
AcDbScale
 70
     0
300
100:1
140
100.0
141
1.0
290
     0
  0
SCALE
  5
BAD7
102
{ACAD_REACTORS
330
BAC5
102
}
330
BAC5
100
AcDbScale
 70
     0
300
1/128" = 1'-0"
140
0.0078125
141
12.0
290
     0
  0
SCALE
  5
BAD8
102
{ACAD_REACTORS
330
BAC5
102
}
330
BAC5
100
AcDbScale
 70
     0
300
1/64" = 1'-0"
140
0.015625
141
12.0
290
     0
  0
SCALE
  5
BAD9
102
{ACAD_REACTORS
330
BAC5
102
}
330
BAC5
100
AcDbScale
 70
     0
300
1/32" = 1'-0"
140
0.03125
141
12.0
290
     0
  0
SCALE
  5
BADA
102
{ACAD_REACTORS
330
BAC5
102
}
330
BAC5
100
AcDbScale
 70
     0
300
1/16" = 1'-0"
140
0.0625
141
12.0
290
     0
  0
SCALE
  5
BADB
102
{ACAD_REACTORS
330
BAC5
102
}
330
BAC5
100
AcDbScale
 70
     0
300
3/32" = 1'-0"
140
0.09375
141
12.0
290
     0
  0
SCALE
  5
BADC
102
{ACAD_REACTORS
330
BAC5
102
}
330
BAC5
100
AcDbScale
 70
     0
300
1/8" = 1'-0"
140
0.125
141
12.0
290
     0
  0
SCALE
  5
BADD
102
{ACAD_REACTORS
330
BAC5
102
}
330
BAC5
100
AcDbScale
 70
     0
300
3/16" = 1'-0"
140
0.1875
141
12.0
290
     0
  0
SCALE
  5
BADE
102
{ACAD_REACTORS
330
BAC5
102
}
330
BAC5
100
AcDbScale
 70
     0
300
1/4" = 1'-0"
140
0.25
141
12.0
290
     0
  0
SCALE
  5
BADF
102
{ACAD_REACTORS
330
BAC5
102
}
330
BAC5
100
AcDbScale
 70
     0
300
3/8" = 1'-0"
140
0.375
141
12.0
290
     0
  0
SCALE
  5
BAE0
102
{ACAD_REACTORS
330
BAC5
102
}
330
BAC5
100
AcDbScale
 70
     0
300
1/2" = 1'-0"
140
0.5
141
12.0
290
     0
  0
SCALE
  5
BAE1
102
{ACAD_REACTORS
330
BAC5
102
}
330
BAC5
100
AcDbScale
 70
     0
300
3/4" = 1'-0"
140
0.75
141
12.0
290
     0
  0
SCALE
  5
BAE2
102
{ACAD_REACTORS
330
BAC5
102
}
330
BAC5
100
AcDbScale
 70
     0
300
1" = 1'-0"
140
1.0
141
12.0
290
     0
  0
SCALE
  5
BAE3
102
{ACAD_REACTORS
330
BAC5
102
}
330
BAC5
100
AcDbScale
 70
     0
300
1-1/2" = 1'-0"
140
1.5
141
12.0
290
     0
  0
SCALE
  5
BAE4
102
{ACAD_REACTORS
330
BAC5
102
}
330
BAC5
100
AcDbScale
 70
     0
300
3" = 1'-0"
140
3.0
141
12.0
290
     0
  0
SCALE
  5
BAE5
102
{ACAD_REACTORS
330
BAC5
102
}
330
BAC5
100
AcDbScale
 70
     0
300
6" = 1'-0"
140
6.0
141
12.0
290
     0
  0
SCALE
  5
BAE6
102
{ACAD_REACTORS
330
BAC5
102
}
330
BAC5
100
AcDbScale
 70
     0
300
1'-0" = 1'-0"
140
12.0
141
12.0
290
     0
  0
TABLESTYLE
  5
AF67
102
{ACAD_XDICTIONARY
360
BC7D
102
}
102
{ACAD_REACTORS
330
AF66
102
}
330
AF66
100
AcDbTableStyle
  3
Standard
 70
     0
 71
     0
 40
0.06
 41
0.06
280
     0
281
     0
  7
STANDARD
140
0.18
170
     2
 62
     0
 63
     7
283
     0
274
    -2
284
     1
 64
     0
275
    -2
285
     1
 65
     0
276
    -2
286
     1
 66
     0
277
    -2
287
     1
 67
     0
278
    -2
288
     1
 68
     0
279
    -2
289
     1
 69
     0
  7
STANDARD
140
0.25
170
     5
 62
     0
 63
     7
283
     0
274
    -2
284
     1
 64
     0
275
    -2
285
     1
 65
     0
276
    -2
286
     1
 66
     0
277
    -2
287
     1
 67
     0
278
    -2
288
     1
 68
     0
279
    -2
289
     1
 69
     0
  7
STANDARD
140
0.18
170
     5
 62
     0
 63
     7
283
     0
274
    -2
284
     1
 64
     0
275
    -2
285
     1
 65
     0
276
    -2
286
     1
 66
     0
277
    -2
287
     1
 67
     0
278
    -2
288
     1
 68
     0
279
    -2
289
     1
 69
     0
  0
VISUALSTYLE
  5
B956
102
{ACAD_XDICTIONARY
360
BCD4
102
}
102
{ACAD_REACTORS
330
B950
102
}
330
B950
100
AcDbVisualStyle
  2
2dWireframe
 70
     4
 71
     0
 72
     2
 73
     0
 90
        0
 40
-0.6
 41
-30.0
 62
     5
 63
     7
 74
     1
 91
        4
 64
     7
 65
   257
 75
     1
175
     1
 42
1.0
 92
        0
 66
   257
 43
1.0
 76
     1
 77
     6
 78
     2
 67
     7
 79
     5
170
     0
171
     0
290
     0
174
     0
 93
        1
 44
0.0
173
     0
291
     0
 45
0.0
1001
ACAD
1000
AcDbSavedByObjectVersion
1070
     0
  0
VISUALSTYLE
  5
B958
102
{ACAD_XDICTIONARY
360
BCD8
102
}
102
{ACAD_REACTORS
330
B950
102
}
330
B950
100
AcDbVisualStyle
  2
3D Hidden
 70
     6
 71
     1
 72
     2
 73
     2
 90
        0
 40
-0.6
 41
-30.0
 62
     5
 63
     7
 74
     2
 91
        2
 64
     7
 65
   257
 75
     2
175
     1
 42
40.0
 92
        0
 66
   257
 43
1.0
 76
     1
 77
     6
 78
     2
 67
     7
 79
     3
170
     0
171
     0
290
     0
174
     0
 93
        1
 44
0.0
173
     0
291
     0
 45
0.0
1001
ACAD
1000
AcDbSavedByObjectVersion
1070
     0
  0
VISUALSTYLE
  5
B957
102
{ACAD_XDICTIONARY
360
BCD6
102
}
102
{ACAD_REACTORS
330
B950
102
}
330
B950
100
AcDbVisualStyle
  2
3dWireframe
 70
     5
 71
     0
 72
     2
 73
     0
 90
        0
 40
-0.6
 41
-30.0
 62
     5
 63
     7
 74
     1
 91
        4
 64
     7
 65
   257
 75
     1
175
     1
 42
1.0
 92
        0
 66
   257
 43
1.0
 76
     1
 77
     6
 78
     2
 67
     7
 79
     5
170
     0
171
     0
290
     0
174
     0
 93
        1
 44
0.0
173
     0
291
     0
 45
0.0
1001
ACAD
1000
AcDbSavedByObjectVersion
1070
     0
  0
VISUALSTYLE
  5
B955
102
{ACAD_XDICTIONARY
360
BCD2
102
}
102
{ACAD_REACTORS
330
B950
102
}
330
B950
100
AcDbVisualStyle
  2
Basic
 70
     7
 71
     1
 72
     0
 73
     1
 90
        0
 40
-0.6
 41
-30.0
 62
     5
 63
     7
 74
     0
 91
        4
 64
     7
 65
   257
 75
     1
175
     1
 42
1.0
 92
        8
 66
     7
 43
1.0
 76
     1
 77
     6
 78
     2
 67
     7
 79
     5
170
     0
171
     0
290
     0
174
     0
 93
        1
 44
0.0
173
     0
291
     1
 45
0.0
1001
ACAD
1000
AcDbSavedByObjectVersion
1070
     0
  0
VISUALSTYLE
  5
B95C
102
{ACAD_XDICTIONARY
360
BCE0
102
}
102
{ACAD_REACTORS
330
B950
102
}
330
B950
100
AcDbVisualStyle
  2
Brighten
 70
    12
 71
     2
 72
     2
 73
     0
 90
        0
 40
-0.6
 41
-30.0
 62
     5
 63
     7
 74
     1
 91
        4
 64
     7
 65
   257
 75
     1
175
     1
 42
1.0
 92
        8
 66
     7
 43
1.0
 76
     1
 77
     6
 78
     2
 67
     7
 79
     5
170
     0
171
     0
290
     0
174
     0
 93
        1
 44
50.0
173
     0
291
     1
 45
0.0
1001
ACAD
1000
AcDbSavedByObjectVersion
1070
     0
  0
VISUALSTYLE
  5
B960
102
{ACAD_XDICTIONARY
360
BCE8
102
}
102
{ACAD_REACTORS
330
B950
102
}
330
B950
100
AcDbVisualStyle
  2
ColorChange
 70
    16
 71
     2
 72
     2
 73
     3
 90
        0
 40
-0.6
 41
-30.0
 62
     5
 63
     8
 74
     1
 91
        4
 64
     7
 65
   257
 75
     1
175
     1
 42
1.0
 92
        8
 66
     8
 43
1.0
 76
     1
 77
     6
 78
     2
 67
     7
 79
     5
170
     0
171
     0
290
     0
174
     0
 93
        1
 44
0.0
173
     0
291
     1
 45
0.0
1001
ACAD
1000
AcDbSavedByObjectVersion
1070
     0
  0
VISUALSTYLE
  5
B959
102
{ACAD_XDICTIONARY
360
BCDA
102
}
102
{ACAD_REACTORS
330
B950
102
}
330
B950
100
AcDbVisualStyle
  2
Conceptual
 70
     9
 71
     3
 72
     2
 73
     0
 90
        0
 40
-0.6
 41
-30.0
 62
     5
 63
     7
 74
     2
 91
        2
 64
     7
 65
   257
 75
     1
175
     1
 42
40.0
 92
        8
 66
     7
 43
1.0
 76
     1
 77
     6
 78
     2
 67
     7
 79
     3
170
     0
171
     0
290
     0
174
     0
 93
        1
 44
0.0
173
     0
291
     0
 45
0.0
1001
ACAD
1000
AcDbSavedByObjectVersion
1070
     0
  0
VISUALSTYLE
  5
B95B
102
{ACAD_XDICTIONARY
360
BCDE
102
}
102
{ACAD_REACTORS
330
B950
102
}
330
B950
100
AcDbVisualStyle
  2
Dim
 70
    11
 71
     2
 72
     2
 73
     0
 90
        0
 40
-0.6
 41
-30.0
 62
     5
 63
     7
 74
     1
 91
        4
 64
     7
 65
   257
 75
     1
175
     1
 42
1.0
 92
        8
 66
     7
 43
1.0
 76
     1
 77
     6
 78
     2
 67
     7
 79
     5
170
     0
171
     0
290
     0
174
     0
 93
        1
 44
-50.0
173
     0
291
     1
 45
0.0
1001
ACAD
1000
AcDbSavedByObjectVersion
1070
     0
  0
VISUALSTYLE
  5
BAC4
102
{ACAD_XDICTIONARY
360
BCEE
102
}
102
{ACAD_REACTORS
330
B950
102
}
330
B950
100
AcDbVisualStyle
  2
EdgeColorOff
 70
    22
 71
     2
 72
     2
 73
     0
 90
        0
 40
-0.6
 41
-30.0
 62
     5
 63
     7
 74
     1
 91
        4
 64
     7
 65
   257
 75
     1
175
     1
 42
1.0
 92
        8
 66
     7
 43
1.0
 76
     1
 77
     6
 78
     2
 67
     7
 79
     5
170
     0
171
     0
290
     0
174
     0
 93
        1
 44
0.0
173
     0
291
     1
 45
0.0
1001
ACAD
1000
AcDbSavedByObjectVersion
1070
     0
  0
VISUALSTYLE
  5
B95F
102
{ACAD_XDICTIONARY
360
BCE6
102
}
102
{ACAD_REACTORS
330
B950
102
}
330
B950
100
AcDbVisualStyle
  2
Facepattern
 70
    15
 71
     2
 72
     2
 73
     0
 90
        0
 40
-0.6
 41
-30.0
 62
     5
 63
     7
 74
     1
 91
        4
 64
     7
 65
   257
 75
     1
175
     1
 42
1.0
 92
        8
 66
     7
 43
1.0
 76
     1
 77
     6
 78
     2
 67
     7
 79
     5
170
     0
171
     0
290
     0
174
     0
 93
        1
 44
0.0
173
     0
291
     1
 45
0.0
1001
ACAD
1000
AcDbSavedByObjectVersion
1070
     0
  0
VISUALSTYLE
  5
B951
102
{ACAD_XDICTIONARY
360
BCCA
102
}
102
{ACAD_REACTORS
330
B950
102
}
330
B950
100
AcDbVisualStyle
  2
Flat
 70
     0
 71
     2
 72
     1
 73
     1
 90
        2
 40
-0.6
 41
30.0
 62
     5
 63
     7
 74
     0
 91
        4
 64
     7
 65
   257
 75
     1
175
     1
 42
1.0
 92
        8
 66
     7
 43
1.0
 76
     1
 77
     6
 78
     2
 67
     7
 79
     5
170
     0
171
     0
290
     0
174
     0
 93
       13
 44
0.0
173
     0
291
     1
 45
0.0
1001
ACAD
1000
AcDbSavedByObjectVersion
1070
     0
  0
VISUALSTYLE
  5
B952
102
{ACAD_XDICTIONARY
360
BCCC
102
}
102
{ACAD_REACTORS
330
B950
102
}
330
B950
100
AcDbVisualStyle
  2
FlatWithEdges
 70
     1
 71
     2
 72
     1
 73
     1
 90
        2
 40
-0.6
 41
30.0
 62
     5
 63
     7
 74
     1
 91
        4
 64
     7
 65
   257
 75
     1
175
     1
 42
1.0
 92
        0
 66
   257
 43
1.0
 76
     1
 77
     6
 78
     2
 67
     7
 79
     5
170
     0
171
     0
290
     0
174
     0
 93
       13
 44
0.0
173
     0
291
     1
 45
0.0
1001
ACAD
1000
AcDbSavedByObjectVersion
1070
     0
  0
VISUALSTYLE
  5
B953
102
{ACAD_XDICTIONARY
360
BCCE
102
}
102
{ACAD_REACTORS
330
B950
102
}
330
B950
100
AcDbVisualStyle
  2
Gouraud
 70
     2
 71
     2
 72
     2
 73
     1
 90
        2
 40
-0.6
 41
30.0
 62
     5
 63
     7
 74
     0
 91
        4
 64
     7
 65
   257
 75
     1
175
     1
 42
1.0
 92
        0
 66
     7
 43
1.0
 76
     1
 77
     6
 78
     2
 67
     7
 79
     5
170
     0
171
     0
290
     0
174
     0
 93
       13
 44
0.0
173
     0
291
     1
 45
0.0
1001
ACAD
1000
AcDbSavedByObjectVersion
1070
     0
  0
VISUALSTYLE
  5
B954
102
{ACAD_XDICTIONARY
360
BCD0
102
}
102
{ACAD_REACTORS
330
B950
102
}
330
B950
100
AcDbVisualStyle
  2
GouraudWithEdges
 70
     3
 71
     2
 72
     2
 73
     1
 90
        2
 40
-0.6
 41
30.0
 62
     5
 63
     7
 74
     1
 91
        4
 64
     7
 65
   257
 75
     1
175
     1
 42
1.0
 92
        0
 66
   257
 43
1.0
 76
     1
 77
     6
 78
     2
 67
     7
 79
     5
170
     0
171
     0
290
     0
174
     0
 93
       13
 44
0.0
173
     0
291
     1
 45
0.0
1001
ACAD
1000
AcDbSavedByObjectVersion
1070
     0
  0
VISUALSTYLE
  5
BAC2
102
{ACAD_XDICTIONARY
360
BCEA
102
}
102
{ACAD_REACTORS
330
B950
102
}
330
B950
100
AcDbVisualStyle
  2
JitterOff
 70
    20
 71
     2
 72
     2
 73
     0
 90
        0
 40
-0.6
 41
-30.0
 62
     5
 63
     7
 74
     1
 91
        4
 64
     7
 65
   257
 75
     1
175
     1
 42
1.0
 92
       10
 66
     7
 43
1.0
 76
     1
 77
     6
 78
     2
 67
     7
 79
     5
170
     0
171
     0
290
     0
174
     0
 93
        1
 44
0.0
173
     0
291
     1
 45
0.0
1001
ACAD
1000
AcDbSavedByObjectVersion
1070
     0
  0
VISUALSTYLE
  5
B95E
102
{ACAD_XDICTIONARY
360
BCE4
102
}
102
{ACAD_REACTORS
330
B950
102
}
330
B950
100
AcDbVisualStyle
  2
Linepattern
 70
    14
 71
     2
 72
     2
 73
     0
 90
        0
 40
-0.6
 41
-30.0
 62
     5
 63
     7
 74
     1
 91
        4
 64
     7
 65
   257
 75
     7
175
     7
 42
1.0
 92
        8
 66
     7
 43
1.0
 76
     1
 77
     6
 78
     2
 67
     7
 79
     5
170
     0
171
     0
290
     0
174
     0
 93
        1
 44
0.0
173
     0
291
     1
 45
0.0
1001
ACAD
1000
AcDbSavedByObjectVersion
1070
     0
  0
VISUALSTYLE
  5
BAC3
102
{ACAD_XDICTIONARY
360
BCEC
102
}
102
{ACAD_REACTORS
330
B950
102
}
330
B950
100
AcDbVisualStyle
  2
OverhangOff
 70
    21
 71
     2
 72
     2
 73
     0
 90
        0
 40
-0.6
 41
-30.0
 62
     5
 63
     7
 74
     1
 91
        4
 64
     7
 65
   257
 75
     1
175
     1
 42
1.0
 92
        9
 66
     7
 43
1.0
 76
     1
 77
     6
 78
     2
 67
     7
 79
     5
170
     0
171
     0
290
     0
174
     0
 93
        1
 44
0.0
173
     0
291
     1
 45
0.0
1001
ACAD
1000
AcDbSavedByObjectVersion
1070
     0
  0
VISUALSTYLE
  5
B95A
102
{ACAD_XDICTIONARY
360
BCDC
102
}
102
{ACAD_REACTORS
330
B950
102
}
330
B950
100
AcDbVisualStyle
  2
Realistic
 70
     8
 71
     2
 72
     2
 73
     0
 90
        0
 40
-0.6
 41
-30.0
 62
     5
 63
     7
 74
     1
 91
        0
 64
     7
 65
   257
 75
     1
175
     1
 42
1.0
 92
        8
 66
     8
 43
1.0
 76
     1
 77
     6
 78
     2
 67
     7
 79
     5
170
     0
171
     0
290
     0
174
     0
 93
       13
 44
0.0
173
     0
291
     0
 45
0.0
1001
ACAD
1000
AcDbSavedByObjectVersion
1070
     0
  0
VISUALSTYLE
  5
B95D
102
{ACAD_XDICTIONARY
360
BCE2
102
}
102
{ACAD_REACTORS
330
B950
102
}
330
B950
100
AcDbVisualStyle
  2
Thicken
 70
    13
 71
     2
 72
     2
 73
     0
 90
        0
 40
-0.6
 41
-30.0
 62
     5
 63
     7
 74
     1
 91
        4
 64
     7
 65
   257
 75
     1
175
     1
 42
1.0
 92
       12
 66
     7
 43
1.0
 76
     1
 77
     6
 78
     2
 67
     7
 79
     5
170
     0
171
     0
290
     0
174
     0
 93
        1
 44
0.0
173
     0
291
     1
 45
0.0
1001
ACAD
1000
AcDbSavedByObjectVersion
1070
     0
  0
ACAD_PROXY_OBJECT
  5
D2
330
0
100
AcDbProxyObject
 90
      499
 91
      538
 95
   589845
 70
     0
 93
      736
310
9084D2E312E3232336407014B7269BC41100000000000000E03F1EC52B91F85EA10FE1EC52B91F85EA10FD034153471EC52B91F85EA10FC000000FC83D797414650540C000000000000E03F3F2A7C749358940FC000000FC83D7974100
 94
        0
1001
ACAD
1000
AcRTDxfName
1000
ASSYSVARS
  0
DICTIONARYVAR
  5
BCAB
102
{ACAD_REACTORS
330
B625
102
}
330
B625
100
DictionaryVariables
280
     0
  1
1:1
  0
DICTIONARYVAR
  5
BCA9
102
{ACAD_REACTORS
330
B625
102
}
330
B625
100
DictionaryVariables
280
     0
  1
STANDARD
  0
DICTIONARYVAR
  5
B626
102
{ACAD_REACTORS
330
B625
102
}
330
B625
100
DictionaryVariables
280
     0
  1
STANDARD
  0
DICTIONARYVAR
  5
BCB8
102
{ACAD_REACTORS
330
B625
102
}
330
B625
100
DictionaryVariables
280
     0
  1
1
  0
DICTIONARYVAR
  5
BCB6
102
{ACAD_REACTORS
330
B625
102
}
330
B625
100
DictionaryVariables
280
     0
  1
0
  0
DICTIONARYVAR
  5
BCAD
102
{ACAD_REACTORS
330
B625
102
}
330
B625
100
DictionaryVariables
280
     0
  1
1
  0
DICTIONARYVAR
  5
BCAE
102
{ACAD_REACTORS
330
B625
102
}
330
B625
100
DictionaryVariables
280
     0
  1
15
  0
DICTIONARYVAR
  5
BCAC
102
{ACAD_REACTORS
330
B625
102
}
330
B625
100
DictionaryVariables
280
     0
  1
0
  0
DICTIONARYVAR
  5
BCAA
102
{ACAD_REACTORS
330
B625
102
}
330
B625
100
DictionaryVariables
280
     0
  1
0
  0
DICTIONARYVAR
  5
BCB5
102
{ACAD_REACTORS
330
B625
102
}
330
B625
100
DictionaryVariables
280
     0
  1
127
  0
DICTIONARYVAR
  5
BCB7
102
{ACAD_REACTORS
330
B625
102
}
330
B625
100
DictionaryVariables
280
     0
  1
0
  0
ACAD_PROXY_OBJECT
  5
85
330
0
100
AcDbProxyObject
 90
      499
 91
      507
 95
   589845
 70
     0
 93
      354
310
000000000000405AA6A9AA40504646174650142118B8C4B8C8C8CD9C0504646174650142118B8C4B8C8C8CD9FF
330
7F
330
86
330
87
330
89
330
0
330
0
 94
        0
1001
ACAD
1000
AcRTDxfName
1000
ADAPPL
  0
ACAD_PROXY_OBJECT
  5
86
330
0
100
AcDbProxyObject
 90
      499
 91
      508
 95
   589845
 70
     0
 93
      120
310
00009024410100000092080002A6A600
330
7F
330
96
330
95
330
0
 94
        0
1001
ACAD
1000
AcRTDxfName
1000
DEPMGR
  0
ACAD_PROXY_OBJECT
  5
87
330
0
100
AcDbProxyObject
 90
      499
 91
      509
 95
   589845
 70
     0
 93
       46
310
00000000920B
330
7F
330
0
330
88
 94
        0
1001
ACAD
1000
AcRTDxfName
1000
PARAMMGR
  0
ACAD_PROXY_OBJECT
  5
88
330
0
100
AcDbProxyObject
 90
      499
 91
      510
 95
   589845
 70
     0
 93
       22
310
0000AB
330
7F
 94
        0
1001
ACAD
1000
AcRTDxfName
1000
PARAMSCOPE
  0
ACAD_PROXY_OBJECT
  5
8A
330
0
100
AcDbProxyObject
 90
      499
 91
      512
 95
   589845
 70
     0
 93
      124
310
00000142905350D3D39114D414D6905F
330
7F
 94
        0
1001
ACAD
1000
AcRTDxfName
1000
SYSTEM_VAR_INT
  0
ACAD_PROXY_OBJECT
  5
8B
330
0
100
AcDbProxyObject
 90
      499
 91
      512
 95
   589845
 70
     0
 93
      124
310
000001429053549553115353D111501F
330
7F
 94
        0
1001
ACAD
1000
AcRTDxfName
1000
SYSTEM_VAR_INT
  0
ACAD_PROXY_OBJECT
  5
8C
330
0
100
AcDbProxyObject
 90
      499
 91
      512
 95
   589845
 70
     0
 93
      108
310
00000142105354D2D353D111501F
330
7F
 94
        0
1001
ACAD
1000
AcRTDxfName
1000
SYSTEM_VAR_INT
  0
ACAD_PROXY_OBJECT
  5
8D
330
0
100
AcDbProxyObject
 90
      499
 91
      512
 95
   589845
 70
     0
 93
      140
310
000001435053511253511254D41353D1116F
330
7F
 94
        0
1001
ACAD
1000
AcRTDxfName
1000
SYSTEM_VAR_INT
  0
ACAD_PROXY_OBJECT
  5
8E
330
0
100
AcDbProxyObject
 90
      499
 91
      513
 95
   589845
 70
     0
 93
      180
310
00000142905354D2D05391D513D300000000000001040F
330
7F
 94
        0
1001
ACAD
1000
AcRTDxfName
1000
SYSTEM_VAR_REAL
  0
ACAD_PROXY_OBJECT
  5
8F
330
0
100
AcDbProxyObject
 90
      499
 91
      514
 95
   589845
 70
     0
 93
      164
310
00000142505354D2D4D516531140505434F4E542AF
330
7F
 94
        0
1001
ACAD
1000
AcRTDxfName
1000
SYSTEM_VAR_STR
  0
ACAD_PROXY_OBJECT
  5
90
330
0
100
AcDbProxyObject
 90
      499
 91
      512
 95
   589845
 70
     0
 93
      108
310
00000142105350D351111253501F
330
7F
 94
        0
1001
ACAD
1000
AcRTDxfName
1000
SYSTEM_VAR_INT
  0
ACAD_PROXY_OBJECT
  5
91
330
0
100
AcDbProxyObject
 90
      499
 91
      514
 95
   589845
 70
     0
 93
      116
310
00000142505354105491925311406F
330
7F
 94
        0
1001
ACAD
1000
AcRTDxfName
1000
SYSTEM_VAR_STR
  0
ACAD_PROXY_OBJECT
  5
92
330
0
100
AcDbProxyObject
 90
      499
 91
      512
 95
   589845
 70
     0
 93
      100
310
00000142105350D3D35414D5AF
330
7F
 94
        0
1001
ACAD
1000
AcRTDxfName
1000
SYSTEM_VAR_INT
  0
ACAD_PROXY_OBJECT
  5
95
330
0
100
AcDbProxyObject
 90
      499
 91
      517
 95
   589845
 70
     0
 93
      164
310
000092090148200A00000440000FFFFFFFF000000F
330
7F
330
96
330
86
330
0
 94
        0
1001
ACAD
1000
AcRTDxfName
1000
ADBASE
  0
ACAD_PROXY_OBJECT
  5
96
330
0
100
AcDbProxyObject
 90
      499
 91
      518
 95
   589845
 70
     0
 93
       82
310
000040520802482A80003F
330
7F
330
95
330
86
330
0
 94
        0
1001
ACAD
1000
AcRTDxfName
1000
BODYID
  0
ACAD_PROXY_OBJECT
  5
97
330
0
100
AcDbProxyObject
 90
      499
 91
      510
 95
   589845
 70
     0
 93
       22
310
0000AB
330
7F
 94
        0
1001
ACAD
1000
AcRTDxfName
1000
PARAMSCOPE
  0
ACAD_PROXY_OBJECT
  5
98
330
0
100
AcDbProxyObject
 90
      499
 91
      519
 95
   589845
 70
     0
 93
       38
310
000000920B
330
7F
330
0
 94
        0
1001
ACAD
1000
AcRTDxfName
1000
WORKPLANEDISPLAYMGR
  0
ACAD_PROXY_OBJECT
  5
99
330
0
100
AcDbProxyObject
 90
      499
 91
      520
 95
   589845
 70
     0
 93
     3204
310
0000419208050A44555243485F424F4852014254D050D2D7D093D2148050C44555243485F5A594C494E440142D4D050D2D7D696531253910050B44555243485F4B4547454C014294D050D2D7D2D151D15310648201451EC94958C8094950535112504811155490D20B9F4051D7B252563202525414D4449412058202525414
310
D4445502054494546457D014F5EC94958C8094950535112504811155490D20B9F57141ED6965312539108094958C80949505350D112504816080949505350D09111540815125151915F405467B252563202525414D4449412058202525414D4445502054494546457D5C507B5A594C494E4420252563202525414D43444941
310
2058202525414D43424445502054494546457D014E5EC94958C8094950535112504811155490D20B9F57141ED2D151D15308094958C80949505350D112504816080949505350D4D05391C949591F405427B252563202525414D4449412058202525414D4445502054494546457D5C507B4B4547454C20252563202525414D4
310
34449412058202525414D4353414E472525647DF
330
7F
 94
        0
1001
ACAD
1000
AcRTDxfName
1000
ADHNTMPLT
  0
ACAD_PROXY_OBJECT
  5
9C
330
0
100
AcDbProxyObject
 90
      499
 91
      523
 95
   589845
 70
     0
 93
      332
310
0000014119185D1940508442E312E32323362014119185D1940508442E312E323233624050100000000F
330
7F
330
9D
330
9F
330
A0
330
0
 94
        0
1001
ACAD
1000
AcRTDxfName
1000
AM_DRAWING_MGR
  0
ACAD_PROXY_OBJECT
  5
9D
330
0
100
AcDbProxyObject
 90
      499
 91
      524
 95
   589845
 70
     0
 93
       56
310
00009014410100C7
330
7F
330
9E
 94
        0
1001
ACAD
1000
AcRTDxfName
1000
AM_DWG_DOCUMENT
  0
ACAD_PROXY_OBJECT
  5
9E
330
0
100
AcDbProxyObject
 90
      499
 91
      525
 95
   589845
 70
     0
 93
       40
310
0000A4410100
330
7F
 94
        0
1001
ACAD
1000
AcRTDxfName
1000
AM_DWG_SHEET
  0
ACAD_PROXY_OBJECT
  5
9F
330
0
100
AcDbProxyObject
 90
      499
 91
      526
 95
   589845
 70
     0
 93
       68
310
0000A44101920A482F
330
7F
 94
        0
1001
ACAD
1000
AcRTDxfName
1000
AM_VIEWDIMPARMAP
  0
ACAD_PROXY_OBJECT
  5
A1
330
0
100
AcDbProxyObject
 90
      499
 91
      512
 95
   589845
 70
     0
 93
      108
310
000001421053521310D05310D01F
330
7F
 94
        0
1001
ACAD
1000
AcRTDxfName
1000
SYSTEM_VAR_INT
  0
ACAD_PROXY_OBJECT
  5
A2
330
0
100
AcDbProxyObject
 90
      499
 91
      512
 95
   589845
 70
     0
 93
      124
310
000001429053541493D295165411501F
330
7F
 94
        0
1001
ACAD
1000
AcRTDxfName
1000
SYSTEM_VAR_INT
  0
ACAD_PROXY_OBJECT
  5
A3
330
0
100
AcDbProxyObject
 90
      499
 91
      512
 95
   589845
 70
     0
 93
      124
310
00000142905354915554D1511253501F
330
7F
 94
        0
1001
ACAD
1000
AcRTDxfName
1000
SYSTEM_VAR_INT
  0
ACAD_PROXY_OBJECT
  5
A4
330
0
100
AcDbProxyObject
 90
      499
 91
      512
 95
   589845
 70
     0
 93
      132
310
00000143105354D150D51253D39112536F
330
7F
 94
        0
1001
ACAD
1000
AcRTDxfName
1000
SYSTEM_VAR_INT
  0
ACAD_PROXY_OBJECT
  5
A5
330
0
100
AcDbProxyObject
 90
      499
 91
      512
 95
   589845
 70
     0
 93
      124
310
00000142905355941093D4911154901F
330
7F
 94
        0
1001
ACAD
1000
AcRTDxfName
1000
SYSTEM_VAR_INT
  0
ACAD_PROXY_OBJECT
  5
A6
330
0
100
AcDbProxyObject
 90
      499
 91
      512
 95
   589845
 70
     0
 93
      116
310
0000014290535115D1D0D3D313D4AF
330
7F
 94
        0
1001
ACAD
1000
AcRTDxfName
1000
SYSTEM_VAR_INT
  0
ACAD_PROXY_OBJECT
  5
A7
330
0
100
AcDbProxyObject
 90
      499
 91
      514
 95
   589845
 70
     0
 93
      196
310
0000014290535212511315165411405085645524445434B54F
330
7F
 94
        0
1001
ACAD
1000
AcRTDxfName
1000
SYSTEM_VAR_STR
  0
ACAD_PROXY_OBJECT
  5
A9
330
0
100
AcDbProxyObject
 90
      499
 91
      514
 95
   589845
 70
     0
 93
      196
310
00000142905354D150D315165411405085048414E544F4D32F
330
7F
 94
        0
1001
ACAD
1000
AcRTDxfName
1000
SYSTEM_VAR_STR
  0
ACAD_PROXY_OBJECT
  5
AA
330
0
100
AcDbProxyObject
 90
      499
 91
      512
 95
   589845
 70
     0
 93
      108
310
00000142105354D51114D0D5102F
330
7F
 94
        0
1001
ACAD
1000
AcRTDxfName
1000
SYSTEM_VAR_INT
  0
ACAD_PROXY_OBJECT
  5
AB
330
0
100
AcDbProxyObject
 90
      499
 91
      512
 95
   589845
 70
     0
 93
      108
310
00000142105354D511151054102F
330
7F
 94
        0
1001
ACAD
1000
AcRTDxfName
1000
SYSTEM_VAR_INT
  0
ACAD_PROXY_OBJECT
  5
AC
330
0
100
AcDbProxyObject
 90
      499
 91
      512
 95
   589845
 70
     0
 93
      108
310
00000142105354D511111513102F
330
7F
 94
        0
1001
ACAD
1000
AcRTDxfName
1000
SYSTEM_VAR_INT
  0
ACAD_PROXY_OBJECT
  5
AD
330
0
100
AcDbProxyObject
 90
      499
 91
      513
 95
   589845
 70
     0
 93
      148
310
00000141905350D310D34295C8FC2F528BC3FF
330
7F
 94
        0
1001
ACAD
1000
AcRTDxfName
1000
SYSTEM_VAR_REAL
  0
ACAD_PROXY_OBJECT
  5
AE
330
0
100
AcDbProxyObject
 90
      499
 91
      513
 95
   589845
 70
     0
 93
      156
310
00000141D05350D311D05402B8716D9CEF7C33FF
330
7F
 94
        0
1001
ACAD
1000
AcRTDxfName
1000
SYSTEM_VAR_REAL
  0
ACAD_PROXY_OBJECT
  5
AF
330
0
100
AcDbProxyObject
 90
      499
 91
      513
 95
   589845
 70
     0
 93
      164
310
00000142105350D313D4D2150295C8FC2F528BC3FF
330
7F
 94
        0
1001
ACAD
1000
AcRTDxfName
1000
SYSTEM_VAR_REAL
  0
ACAD_PROXY_OBJECT
  5
B0
330
0
100
AcDbProxyObject
 90
      499
 91
      512
 95
   589845
 70
     0
 93
      100
310
00000141D05350D3141054901F
330
7F
 94
        0
1001
ACAD
1000
AcRTDxfName
1000
SYSTEM_VAR_INT
  0
ACAD_PROXY_OBJECT
  5
B1
330
0
100
AcDbProxyObject
 90
      499
 91
      512
 95
   589845
 70
     0
 93
      100
310
0000014210535590539254D22F
330
7F
 94
        0
1001
ACAD
1000
AcRTDxfName
1000
SYSTEM_VAR_INT
  0
ACAD_PROXY_OBJECT
  5
B2
330
0
100
AcDbProxyObject
 90
      499
 91
      513
 95
   589845
 70
     0
 93
      188
310
00000142D0535312539155121250D2C295C8FC2F5289C3FF
330
7F
 94
        0
1001
ACAD
1000
AcRTDxfName
1000
SYSTEM_VAR_REAL
  0
ACAD_PROXY_OBJECT
  5
B3
330
0
100
AcDbProxyObject
 90
      499
 91
      514
 95
   589845
 70
     0
 93
      156
310
00000142105350D315165411405054D49545445F
330
7F
 94
        0
1001
ACAD
1000
AcRTDxfName
1000
SYSTEM_VAR_STR
  0
ACAD_PROXY_OBJECT
  5
BC
330
0
100
AcDbProxyObject
 90
      499
 91
      512
 95
   589845
 70
     0
 93
      132
310
00000142D05050555513D4D3D31591501F
330
7F
 94
        0
1001
ACAD
1000
AcRTDxfName
1000
SYSTEM_VAR_INT
  0
ACAD_PROXY_OBJECT
  5
BD
330
0
100
AcDbProxyObject
 90
      499
 91
      512
 95
   589845
 70
     0
 93
      156
310
00000143905050555513D054D4D153509311501F
330
7F
 94
        0
1001
ACAD
1000
AcRTDxfName
1000
SYSTEM_VAR_INT
  0
ACAD_PROXY_OBJECT
  5
BE
330
0
100
AcDbProxyObject
 90
      499
 91
      512
 95
   589845
 70
     0
 93
      148
310
00000143505055925155D49154D513D491501F
330
7F
 94
        0
1001
ACAD
1000
AcRTDxfName
1000
SYSTEM_VAR_INT
  0
ACAD_PROXY_OBJECT
  5
BF
330
0
100
AcDbProxyObject
 90
      499
 91
      512
 95
   589845
 70
     0
 93
      124
310
00000142D050525394D15495105094EF
330
7F
 94
        0
1001
ACAD
1000
AcRTDxfName
1000
SYSTEM_VAR_INT
  0
ACAD_PROXY_OBJECT
  5
C6
330
0
100
AcDbProxyObject
 90
      499
 91
      531
 95
   589845
 70
     0
 93
       32
310
0000000000
330
7F
340
C3
330
C7
330
C3
 94
        0
1001
ACAD
1000
AcRTDxfName
1000
ACAMGRCOMPDEF
  0
ACAD_PROXY_OBJECT
  5
C7
330
0
100
AcDbProxyObject
 90
      499
 91
      532
 95
   589845
 70
     0
 93
      143
310
0000014213905351539313D4D0400522080D
330
7F
330
C6
 94
        0
1001
ACAD
1000
AcRTDxfName
1000
ACAMCOMPDEF
  0
ACAD_PROXY_OBJECT
  5
C8
330
0
100
AcDbProxyObject
 90
      499
 91
      533
 95
   589845
 70
     0
 93
       72
310
000000A44101A44101FF
330
7F
330
C7
 94
        0
1001
ACAD
1000
AcRTDxfName
1000
ACAMCOMPDEFMGR
  0
ACAD_PROXY_OBJECT
  5
C9
330
0
100
AcDbProxyObject
 90
      499
 91
      534
 95
   589845
 70
     0
 93
       80
310
00009014410100000000FF
330
7F
330
CA
330
CA
330
CA
330
CA
 94
        0
1001
ACAD
1000
AcRTDxfName
1000
AMCONTEXTMGR
  0
ACAD_PROXY_OBJECT
  5
CA
330
0
100
AcDbProxyObject
 90
      499
 91
      535
 95
   589845
 70
     0
 93
      173
310
00000000406AAAAAAAAAAAAAAAAA806A44101A441017
330
7F
330
C9
330
C7
 94
        0
1001
ACAD
1000
AcRTDxfName
1000
ACAMCONTEXTMODELER
  0
ACAD_PROXY_OBJECT
  5
CE
330
0
100
AcDbProxyObject
 90
      499
 91
      536
 95
   589845
 70
     0
 93
       26
310
0000803F
330
7F
330
0
 94
        0
1001
ACAD
1000
AcRTDxfName
1000
ACAMDRAWINGMAN
  0
PH_ENTDIMREACTOR
  5
7480
102
{ACAD_REACTORS
330
3C
102
}
330
3C
  0
PH_ENTDIMREACTOR
  5
7481
102
{ACAD_REACTORS
330
3C
102
}
330
3C
  0
PH_DIMENTREACTOR
  5
7482
102
{ACAD_REACTORS
330
3C
102
}
330
3C
  0
PH_ENTDIMREACTOR
  5
869A
102
{ACAD_REACTORS
330
3C
102
}
330
3C
  0
PH_ENTDIMREACTOR
  5
869B
102
{ACAD_REACTORS
330
3C
102
}
330
3C
  0
PH_DIMENTREACTOR
  5
869C
102
{ACAD_REACTORS
330
3C
102
}
330
3C
  0
PH_ENTDIMREACTOR
  5
5507
102
{ACAD_REACTORS
330
3C
102
}
330
3C
  0
PH_DIMENTREACTOR
  5
5508
102
{ACAD_REACTORS
330
3C
102
}
330
3C
  0
DICTIONARY
  5
1C59
102
{ACAD_REACTORS
330
3B
102
}
330
3B
100
AcDbDictionary
281
     1
  3
PH_GRPMEMBERS
350
1C5A
  0
DICTIONARY
  5
BBF7
102
{ACAD_REACTORS
330
3B
102
}
330
3B
100
AcDbDictionary
281
     1
  3
PH_GRPMEMBERS
350
BBF8
  0
PH_GROUP
  5
B5EE
102
{ACAD_REACTORS
330
3B
102
}
330
3B
  0
DICTIONARY
  5
BCC0
330
AF6B
100
AcDbDictionary
280
     1
281
     1
  3
ACAD_XREC_ROUNDTRIP
360
BCC1
  0
DICTIONARY
  5
BC7B
330
AF6A
100
AcDbDictionary
280
     1
281
     1
  3
ACAD_XREC_ROUNDTRIP
360
BCBF
  3
ADSK_XREC_LAYOUTTHUMBNAIL
360
BC7C
  0
DICTIONARY
  5
BCC6
330
B94E
100
AcDbDictionary
280
     1
281
     1
  3
ACAD_XREC_ROUNDTRIP
360
BCC7
  0
DICTIONARY
  5
BCC4
330
B94D
100
AcDbDictionary
280
     1
281
     1
  3
ACAD_XREC_ROUNDTRIP
360
BCC5
  0
DICTIONARY
  5
BCC8
330
B94F
100
AcDbDictionary
280
     1
281
     1
  3
ACAD_XREC_ROUNDTRIP
360
BCC9
  0
DICTIONARY
  5
BCC2
330
B941
100
AcDbDictionary
280
     1
281
     1
  3
ACAD_XREC_ROUNDTRIP
360
BCC3
  0
DICTIONARY
  5
BC7D
330
AF67
100
AcDbDictionary
280
     1
281
     1
  3
ACAD_ROUNDTRIP_2008_TABLESTYLE_CELLSTYLEMAP
360
BCB9
  3
ACAD_XREC_ROUNDTRIP
360
BCBE
  0
DICTIONARY
  5
BCD4
330
B956
100
AcDbDictionary
280
     1
281
     1
  3
ACAD_XREC_ROUNDTRIP
360
BCD5
  0
DICTIONARY
  5
BCD8
330
B958
100
AcDbDictionary
280
     1
281
     1
  3
ACAD_XREC_ROUNDTRIP
360
BCD9
  0
DICTIONARY
  5
BCD6
330
B957
100
AcDbDictionary
280
     1
281
     1
  3
ACAD_XREC_ROUNDTRIP
360
BCD7
  0
DICTIONARY
  5
BCD2
330
B955
100
AcDbDictionary
280
     1
281
     1
  3
ACAD_XREC_ROUNDTRIP
360
BCD3
  0
DICTIONARY
  5
BCE0
330
B95C
100
AcDbDictionary
280
     1
281
     1
  3
ACAD_XREC_ROUNDTRIP
360
BCE1
  0
DICTIONARY
  5
BCE8
330
B960
100
AcDbDictionary
280
     1
281
     1
  3
ACAD_XREC_ROUNDTRIP
360
BCE9
  0
DICTIONARY
  5
BCDA
330
B959
100
AcDbDictionary
280
     1
281
     1
  3
ACAD_XREC_ROUNDTRIP
360
BCDB
  0
DICTIONARY
  5
BCDE
330
B95B
100
AcDbDictionary
280
     1
281
     1
  3
ACAD_XREC_ROUNDTRIP
360
BCDF
  0
DICTIONARY
  5
BCEE
330
BAC4
100
AcDbDictionary
280
     1
281
     1
  3
ACAD_XREC_ROUNDTRIP
360
BCEF
  0
DICTIONARY
  5
BCE6
330
B95F
100
AcDbDictionary
280
     1
281
     1
  3
ACAD_XREC_ROUNDTRIP
360
BCE7
  0
DICTIONARY
  5
BCCA
330
B951
100
AcDbDictionary
280
     1
281
     1
  3
ACAD_XREC_ROUNDTRIP
360
BCCB
  0
DICTIONARY
  5
BCCC
330
B952
100
AcDbDictionary
280
     1
281
     1
  3
ACAD_XREC_ROUNDTRIP
360
BCCD
  0
DICTIONARY
  5
BCCE
330
B953
100
AcDbDictionary
280
     1
281
     1
  3
ACAD_XREC_ROUNDTRIP
360
BCCF
  0
DICTIONARY
  5
BCD0
330
B954
100
AcDbDictionary
280
     1
281
     1
  3
ACAD_XREC_ROUNDTRIP
360
BCD1
  0
DICTIONARY
  5
BCEA
330
BAC2
100
AcDbDictionary
280
     1
281
     1
  3
ACAD_XREC_ROUNDTRIP
360
BCEB
  0
DICTIONARY
  5
BCE4
330
B95E
100
AcDbDictionary
280
     1
281
     1
  3
ACAD_XREC_ROUNDTRIP
360
BCE5
  0
DICTIONARY
  5
BCEC
330
BAC3
100
AcDbDictionary
280
     1
281
     1
  3
ACAD_XREC_ROUNDTRIP
360
BCED
  0
DICTIONARY
  5
BCDC
330
B95A
100
AcDbDictionary
280
     1
281
     1
  3
ACAD_XREC_ROUNDTRIP
360
BCDD
  0
DICTIONARY
  5
BCE2
330
B95D
100
AcDbDictionary
280
     1
281
     1
  3
ACAD_XREC_ROUNDTRIP
360
BCE3
  0
PH_GROUP
  5
1C5A
102
{ACAD_REACTORS
330
1C59
102
}
330
1C59
  0
PH_GROUP
  5
BBF8
102
{ACAD_REACTORS
330
BBF7
102
}
330
BBF7
  0
XRECORD
  5
BCC1
102
{ACAD_REACTORS
330
BCC0
102
}
330
BCC0
100
AcDbXrecord
280
     1
102
SHADEPLOT
 70
     0
102
SHADEPLOTRESLEVEL
 70
     2
102
SHADEPLOTCUSTOMDPI
 70
   300
  0
XRECORD
  5
BCBF
102
{ACAD_REACTORS
330
BC7B
102
}
330
BC7B
100
AcDbXrecord
280
     1
102
SHADEPLOT
 70
     1
102
SHADEPLOTRESLEVEL
 70
     2
102
SHADEPLOTCUSTOMDPI
 70
   300
  0
XRECORD
  5
BC7C
102
{ACAD_REACTORS
330
BC7B
102
}
330
BC7B
100
AcDbXrecord
280
     1
310
28000000000100007500000001000800000000000075000000000000000000000001000000000000F0FCFE0000000000FFFFFF000000000000000000000000000000000000000000000000000000000000000000330000006600000099000000CC000000FF00000000330000333300006633000099330000CC330000FF3300
310
0000660000336600006666000099660000CC660000FF66000000990000339900006699000099990000CC990000FF99000000CC000033CC000066CC000099CC0000CCCC0000FFCC000000FF000033FF000066FF000099FF0000CCFF0000FFFF000000003300330033006600330099003300CC003300FF003300003333003333
310
33006633330099333300CC333300FF33330000663300336633006666330099663300CC663300FF66330000993300339933006699330099993300CC993300FF99330000CC330033CC330066CC330099CC3300CCCC3300FFCC330000FF330033FF330066FF330099FF3300CCFF3300FFFF330000006600330066006600660099
310
006600CC006600FF00660000336600333366006633660099336600CC336600FF33660000666600336666006666660099666600CC666600FF66660000996600339966006699660099996600CC996600FF99660000CC660033CC660066CC660099CC6600CCCC6600FFCC660000FF660033FF660066FF660099FF6600CCFF6600
310
FFFF660000009900330099006600990099009900CC009900FF00990000339900333399006633990099339900CC339900FF33990000669900336699006666990099669900CC669900FF66990000999900339999006699990099999900CC999900FF99990000CC990033CC990066CC990099CC9900CCCC9900FFCC990000FF99
310
0033FF990066FF990099FF9900CCFF9900FFFF99000000CC003300CC006600CC009900CC00CC00CC00FF00CC000033CC003333CC006633CC009933CC00CC33CC00FF33CC000066CC003366CC006666CC009966CC00CC66CC00FF66CC000099CC003399CC006699CC009999CC00CC99CC00FF99CC0000CCCC0033CCCC0066CC
310
CC0099CCCC00CCCCCC00FFCCCC0000FFCC0033FFCC0066FFCC0099FFCC00CCFFCC00FFFFCC000000FF003300FF006600FF009900FF00CC00FF00FF00FF000033FF003333FF006633FF009933FF00CC33FF00FF33FF000066FF003366FF006666FF009966FF00CC66FF00FF66FF000099FF003399FF006699FF009999FF00CC
310
99FF00FF99FF0000CCFF0033CCFF0066CCFF0099CCFF00CCCCFF00FFCCFF0000FFFF0033FFFF0066FFFF0099FFFF00CCFFFF00FFFFFF00000000000D0D0D001A1A1A00282828003535350043434300505050005D5D5D006B6B6B00787878008686860093939300A1A1A100AEAEAE00BBBBBB00C9C9C900D6D6D600E4E4E400
310
F1F1F100FFFFFF0000000000000000000000000000000000000000000000000000000000000000000000000000000000E1E1E1E1E1E1E1E1E1E1E1E1E1E1E1E1E1E1E1E1E1E1E1E1E1E1E1E1E1E1E1E1E1E1E1E1E1E1E1E1E1E1E1E1E1BEBEBEBEBEBEBEBEBEBEBEBEBEBEBEBEBEBEBEBEBEBEBEBEBEBEBEBEBEBEBEBEBEBE
310
BEBEBEBEBEBEBEBEBEBEBEBEBEBEBEBEBEBEBEBEBEBEBEBEBEBEBEBEBEBEBEBEBEBEBEBEBEBEBEBEBEBEBEBEBEBEBEBEBEBEBEBEBEBEBEBEBEBEBEBEBEBEBEBEBEBEBEBEBEBEBEBEBEBEBEBEBEBEBEBEBEBEBEBEBEBEBEBEBEBEBEBEBEBEBEBEBEBEBEBEBEBEBEBEBEBEBEBEBEBEBEBEBEBEBEBEBEBEBEBEBEBEBEBEBEBEBE
310
BEBEBEBEBEE1E1E1E1E1E1E1E1E1E1E1E1E1E1E1E1E1E1E1E1E1E1E1E1E1E1E1E1E1E1E1E1E1E1E1E1E1E1E1E1E1E1E1E1E1E1E1E1E1E1E1E1E1E1E1E1E1E1E1E1E1E1E1E1E1E1E1E1E1E1E1E1E1E1E1E1E1E1E1E1E1E1E1E1E1E1E1E1E1E1BEE1E1E1E1E1E1E1E1E1E1E1E1E1E1E1E1E1E1E1E1E1E1E1E1E1E1E1E1E1E1E1
310
E1E1E1E1E1E1E1E1E1E1E1E1E1E1E1E1E1BEE1E1E1E1E1E1E1E1E1E1E1E1E1E1E1E1E1E1E1E1E1E1E1E1E1E1E1E1E1E1E1E1E1E1E1E1E1E1E1E1BEE1E1E1E1E1E1E1E1E1E1E1E1E1E1E1E1E1E1E1E1E1E1E1E1E1E1E1E1E1E1E1E1E1E1E1E1E1E1E1E1E1E1E1E1E1E1E1E1E1E1E1E1E1E1E1E1E1E1E1E1E1E1E1E1E1E1E1E1
310
E1E1E1E1E1E1BEE1E1E1E1E1E1E1E1E1E1E1E1E1E1E1E1E1E1E1E1E1E1E1E1E1E1E1E1E1E1E1E1E1E1E1E1E1E1E1E1E1E1E1E1E1E1E1E1E1E1E1E1E1E1E1E1E1E1E1E1E1E1E1E1E1E1E1E1E1E1E1E1E1E1E1E1E1E1E1E1E1E1E1E1E1E1E1E1E1E1BEE1E1E1E1E1E1E128282828282828282828282828282828282828282828
310
28282828282828282828282828282828282828BE28282828282828282828282828282828282828282828282828282828282828282828282828282828BE2828282828282828282828282828282828282828282828282828282828282828280F282828282828282828282828280F2828282828282828BE282828282828282828
310
28282828282828E1BEE1E1E1E1E1E1E1E1E1E1E1E1E1E1E1E1E1E1E1E1E1E1E1E1E1E1E1E1E1E1E1E1E1E1E1E1E1E1E1E1E1E1E1E1E1E1E1E1E1E1E1E1E1E1E1E1E1E1E1E1E1E1E1E1E1E1E1E1E1E1E1E1E1E1E1E1E1E1E1E1E1E1E1E1E1E1E1E1E1E1BEE1E1E1E1E1E1E128E1E1E1E1E1E1E1E1E1E1E1E1E1E1E1E1E1E1E1
310
E1E1E1E1E1E1E1E1E1E1E1E1E1E1E1E1E1E1E1E1E1E1E1E1E1E1E1E1E1E1E1E1E1E1E1E1E1E1E1E1E1E1E1E1E1E1E1E1E1E1E1E1E1E1E1E1E1E1E1E1E1E1E1E1E1E1E1E1E1E1E1E1E1E1E1E1E1E1E1E1E1E1E1E1E1E1E1E1E1E1E1E1E1E1E1E10F0F0F0F0F0F0F0F0F0F0F0F0FE10FE1E1E1E1E1E1E1E1BEE1E1E1E1E1E1E1
310
E1E1E1E1E1E1E1E128E1BEE1E1E1E1E1E1E1E1E1E1E1E1E1E1E1E1E1E1E1E1E1E1E1E1E1E1E1E1E1E1E1E1E1E1E1E1E1E1E1E1E1E1E1E1E1E1E1E1E1E1E1E1E1E1E1E1E1E1E1E1E1E1E1E1E1E1E1E1E1E1E1E1E1E1E1E1E1E1E1E1E1E1E1E1E1E1E1E1E1E1BEE1E1E1E1E1E1E128E1E1E1E1E1E1E1E1E1E1E1E1E1E1E1E1E1
310
E1E1E1E1E1E1E1E1E1E1E1E1E1E1E1E1E1E1E1E1E1E1E1E1E1E1E1E1E1E1E1E1E1E1E1E1E1E1E1E1E1E1E1E1E1E1E1E1E1E1E1E1E1E1E1E1E1E1E1E1E1E1E1E1E1E1E1E1E1E1E1E1E1E1E1E1E1E1E1E1E1E1E1E1E1E1E1E1E1E1E1E1E1E1E1E1E1E10F0F0F0F0F0F0F0F0F0F0F0F0F0F0FE1E1E1E1E1E1E1E1BEE1E1E1E1E1
310
E1E1E1E1E1E1E1E1E1E128E1BEE1E1E1E1E1E1E1E1E1E1E1E1E1E1E1E1E1E1E1E1E1E1E1E1E1E1E1E1E1E1E1E1E1E1E1E1E1E1E1E1E1E1E1E1E1E1E1E1E1E1E1E1E1E1E1E1E1E1E1E1E1E1E1E1E1E1E1E1E1E1E1E1E1E1E1E1E1E1E1E1E1E1E1E1E1E1E1E1E1E1BEE1E1E1E1E1E1E128E1E1E1E1E1E1E1E1E1E1E1E1E1E1E1
310
E1E1E1E1E1E1E1E1E1E1E1E1E1E1E1E1E1E1E1E1E1E1E1E1E1E1E1E1E1E1E1E1E1E1E1E1E1E1E1E1E1E1E1E1E1E1E1E1E1E1E1E1E1E1E1E1E1E1E1E1E1E1E1E1E1E1E1E1E1E1E1E1E1E1E1E1E1E1E1E1E1E1E1E1E1E1E1E1E1E1E1E1E1E1E1E1E1E1E1E10F0F0F0F0F0F0F0F0F0F0F0F0F0F0FE1E1E1E1E1E1E1E1BEE1E1E1
310
E1E1E1E1E1E1E1E1E1E1E1E128E1BEE1E1E1E1E1E1E1E1E1E1E1E1E1E1E1E1E1E1E1E1E1E1E1E1E1E1E1E1E1E1E1E1E1E1E1E1E1E1E1E1E1E1E1E1E1E1E1E1E1E1E1E1E1E1E1E1E1E1E1E1E1E1E1E1E1E1E1E1E1E1E1E1E1E1E1E1E1E1E1E1E1E1E1E1E1E1E1E1E1E1BEE1E1E1E1E1E1E128E1E1E1E1E1E1E1E1E1E1E1E1E1
310
E1E1E1E1E1E1E1E1E1E1E1E1E1E1E1E1E1E1E1E1E1E1E1E1E1E1E1E1E1E1E1E1E1E1E1E1E1E1E1E1E1E1E1E1E1E1E1E1E1E1E1E1E1E1E1E1E1E1E1E1E1E1E1E1E1E1E1E1E1E1E1E1E1E1E1E1E1E1E1E1E1E1E1E1E1E1E1E1E1E1E1E1E1E1E1E1E1E1E1E1E1E10FBEBEBEBEBEBEBEBEBEBEBEBEBEBEBEBEBEBEBEBEBEBEBEBE
310
BEBEBEBEBEBEBEBEBEBEBEBEBEBEBEE1BEE1E1E1E1E1E1E1E1E1E1E1E1E1E1E1E1E1E1E1E1E1E1E1E1E1E1E1E1E1E1E1E1E1E1E1E1E1E1E1E1E1E1E1E1E1E1E1E1E1E1E1E1E1E1E1E1E1E1E1E1E1E1E1E1E1E1E1E1E1E1E1E1E1E1E1E1E1E1E1E1E1E1E1E1E1E1E1E1E1E1BEE1E1E1E1E1E1E128E1E1E1E1E1E1E1E1E1E1E1
310
E1E1E1E1E1E1E1E1E1E1E1E1E1E1E1E1E1E1E1E1E1E1E1E1E1E1E1E1E1E1E1E1E1E1E1E1E1E1E1E1E1E1E1E1E1E1E1E1E1E1E1E1E1E1E1E1E1E1E1E1E1E1E1E1E1E1E1E1E1E1E1E1E1E1E1E1E1E1E1E1E1E1E1E1E1E1E1E1E1E1E1E1E1E1E1E1E1E1E1E1E1E1E1E10F0F0F0F0F0F0FE1E1E1E1E1E1E10FE1E1E1E1E1E1E1E1
310
BEE1E1E1E1E1E1E1E1E1E1E1E1E1E1E128E1BEE1E1E1E1E1E1E1E1E1E1E1E1E1E1E1E1E1E1E1E1E1E1E1E1E1E1E1E1E1E1E1E1E1E1E1E1E1E1E1E1E1E1E1E1E1E1E1E1E1E1E1E1E1E1E1E1E1E1E1E1E1E1E1E1E1E1E1E1E1E1E1E1E1E1E1E1E1E1E1E1E1E1E1E1E1E1E1E1E1E1BEE1E1E1E1E1E1E128E1E1E1E1E1E1E1E1E1
310
E1E1E1E1E1E1E1E1E1E1E1E1E1E1E1E1E1E1E1E1E1E1E1E1E1E1E1E1E1E1E1E1E1E1E1E1E1E1E1E1E1E1E1E1E1E1E1E1E1E1E1E1E1E1E1E1E1E1E1E1E1E1E1E1E1E1E1E1E1E1E1E1E1E1E1E1E1E1E1E1E1E1E1E1E1E1E1E1E1E1E1E1E1E1E1E1E1E1E1E1E1E1E1E1E1E10F0F0F0F0F0F0FE1E1E1E1E1E1E10FE1E1E1E1E1E1
310
E1E1BEE1E1E1E1E1E1E1E1E1E1E1E1E1E1E128E1BEE1E1E1E1E1E1E1E1E1E1E1E1E1E1E1E1E1E1E1E1E1E1E1E1E1E1E1E1E1E1E1E1E1E1E1E1E1E1E1E1E1E1E1E1E1E1E1E1E1E1E1E1E1E1E1E1E1E1E1E1E1E1E1E1E1E1E1E1E1E1E1E1E1E1E1E1E1E1E1E1E1E1E1E1E1E1E1E1E1E1BEE1E1E1E1E1E1E128E1E1E1E1E1E1E1
310
E1E1E1E1E1E1E1E1E1E1E1E1E1E1E1E1E1E1E1E1E1E1E1E1E1E1E1E1E1E1E1E1E1E1E1E1E1E1E1E1E1E1E1E1E1E1E1E1E1E1E1E1E1E1E1E1E1E1E1E1E1E1E1E1E1E1E1E1E1E1E1E1E1E1E1E1E1E1E1E1E1E1E1E1E1E1E1E1E1E1E1E1E1E1E1E1E1E1E1E1E1E1E1E1E1E1E1E10F0F0F0F0F0F0F0F0F0F0F0F0F0F0F0F0F0F0F
310
0F0F0F0FBE0F0F0F0F0F0F0F0F0F0F0F0F0F0F0F0FE1BEE1E1E1E1E1E1E1E1E1E1E1E1E1E1E1E1E1E1E1E1E1E1E1E1E1E1E1E1E1E1E1E1E1E1E1E1E1E1E1E1E1E1E1E1E1E1E1E1E1E1E1E1E1E1E1E1E1E1E1E1E1E1E1E1E1E1E1E1E1E1E1E1E1E1E1E1E1E1E1E1E1E1E1E1E1E1E1E1E1E1BEE1E1E1E1E1E1E128E1E1E1E1E1
310
E1E1E1E1E1E1E1E1E1E1E1E1E1E1E1E1E1E1E1E1E1E1E1E1E1E1E1E1E1E1E1E1E1E1E1E1E1E1E1E1E1E1E1E1E1E1E1E1E1E1E1E1E1E1E1E1E1E1E1E1E1E1E1E1E1E1E1E1E1E1E1E1E1E1E1E1E1E1E1E1E1E1E1E1E1E1E1E1E1E1E1E1E1E1E1E1E1E1E1E1E1E1E1E1E1E1E1E1E1E10FE1E1E1E1E1E1E1E1E1E1E1E1E10F0F0F
310
0F0F0F0F0F0FBE0F0F0F0F0F0F0F0F0F0F0F0F0F0F0F0FE1BEE1E1E1E1E1E1E1E1E1E1E1E1E1E1E1E1E1E1E1E1E1E1E1E1E1E1E1E1E1E1E1E1E1E1E1E1E1E1E1E1E1E1E1E1E1E1E1E1E1E1E1E1E1E1E1E1E1E1E1E1E1E1E1E1E1E1E1E1E1E1E1E1E1E1E1E1E1E1E1E1E1E1E1E1E1E1E1E1E1E1BEE1E1E1E1E1E1E128E1E1E1
310
E1E1E1E1E1E1E1E1E1E1E1E1E1E1E1E1E1E1E1E1E1E1E1E1E1E1E1E1E1E1E1E1E1E1E1E1E1E1E1E1E1E1E1E1E1E1E1E1E1E1E1E1E1E1E1E1E1E1E1E1E1E1E1E1E1E1E1E1E1E1E1E1E1E1E1E1E1E1E1E1E1E1E1E1E1E1E1E1E1E1E1E1E1E1E1E1E1E1E1E1E1E1E1E1E1E1E1E1E1E1E1E10F0F0F0F0F0F0F0F0F0F0F0F0F0F0F
310
0F0F0F0F0F0F0F0FBE0F0F0F0F0F0F0F0F0F0F0F0F0F0F0F0FE1BEE1E1E1E1E1E1E1E1E1E1E1E1E1E1E1E1E1E1E1E1E1E1E1E1E1E1E1E1E1E1E1E1E1E1E1E1E1E1E1E1E1E1E1E1E1E1E1E1E1E1E1E1E1E1E1E1E1E1E1E1E1E1E1E1E1E1E1E1E1E1E1E1E1E1E1E1E1E1E1E1E1E1E1E1E1E1E1E1E1E1BEE1E1E1E1E1E1E128E1
310
E1E1E1E1E1E1E1E1E1E1E1E1E1E1E1E1E1E1E1E1E1E1E1E1E1E1E1E1E1E1E1E1E1E1E1E1E1E1E1E1E1E1E1E1E1E1E1E1E1E1E1E1E1E1E1E1E1E1E1E1E1E1E1E1E1E1E1E1E1E1E1E1E1E1E1E1E1E1E1E1E1E1E1E1E1E1E1E1E1E1E1E1E1E1E1E1E1E1E1E1E1E1E1E1E1E1E1E1E1E1E1E1E1E10F0F0F0F0F0F0F0F0F0FE10FE1
310
E1E1E1E1E1E1E1E1E10F0F0F0F0F0F0F0F0F0FE10FE10FE10FE128E1BEE1E1E1E1E1E1E1E1E1E1E1E1E1E1E1E1E1E1E1E1E1E1E1E1E1E1E1E1E1E1E1E1E1E1E1E1E1E1E1E1E1E1E1E1E1E1E1E1E1E1E1E1E1E1E1E1E1E1E1E1E1E1E1E1E1E1E1E1E1E1E1E1E1E1E1E1E1E1E1E1E1E1E1E1E1E1E1E1E1E1BEE1E1E1E1E1E1E1
310
28E1E1E1E1E1E1E1E1E1E1E1E1E1E1E1E1E1E1E1E1E1E1E1E1E1E1E1E1E1E1E1E1E1E1E1E1E1E1E1E1E1E1E1E1E1E1E1E1E1E1E1E1E1E1E1E1E1E1E1E1E1E1E1E1E1E1E1E1E1E1E1E1E1E1E1E1E1E1E1E1E1E1E1E1E1E1E1E1E1E1E1E1E1E1E1E1E1E1E1E1E1E1E1E1E1E1E1E1E1E1E1E1E1E1E10F0F0F0F0FE1E1E1E1E1E1
310
0F0F0F0F0F0F0FE1E1E1E1E1E1E1E1E1E1E1E1E1E1E1E1E1E1E1E1E128E1BEE1E1E1E1E1E1E1E1E1E1E1E1E1E1E1E1E1E1E1E1E1E1E1E1E1E1E1E1E1E1E1E1E1E1E1E1E1E1E1E1E1E1E1E1E1E1E1E1E1E1E1E1E1E1E1E1E1E1E1E1E1E1E1E1E1E1E1E1E1E1E1E1E1E1E1E1E1E1E1E1E1E1E1E1E1E1E1E1E1E1BEE1E1E1E1E1
310
E1E128E1E1E1E1E1E1E1E1E1E1E1E1E1E1E1E1E1E1E1E1E1E1E1E1E1E1E1E1E1E1E1E1E1E1E1E1E1E1E1E1E1E1E1E1E1E1E1E1E1E1E1E1E1E1E1E1E1E1E1E1E1E1E1E1E1E1E1E1E1E1E1E1E1E1E1E1E1E1E1E1E1E1E1E1E1E1E1E1E1E1E1E1E1E1E1E1E1E1E1E1E1E1E1E1E1E1E1E1E1E1E1E1E1E1E10F0F0F0F0FE1E1E1E1
310
E1E10F0F0F0F0F0F0FE1E1E1E1E1E1E1E1E1E1E1E1E1E1E1E1E1E1E1E1E128E1BEE1E1E1E1E1E1E1E1E1E1E1E1E1E1E1E1E1E1E1E1E1E1E1E1E1E1E1E1E1E1E1E1E1E1E1E1E1E1E1E1E1E1E1E1E1E1E1E1E1E1E1E1E1E1E1E1E1E1E1E1E1E1E1E1E1E1E1E1E1E1E1E1E1E1E1E1E1E1E1E1E1E1E1E1E1E1E1E1E1E1BEE1E1E1
310
E1E1E1E128E1E1E1E1E1E1E1E1E1E1E1E1E1E1E1E1E1E1E1E1E1E1E1E1E1E1E1E1E1E1E1E1E1E1E1E1E1E1E1E1E1E1E1E1E1E1E1E1E1E1E1E1E1E1E1E1E1E1E1E1E1E1E1E1E1E1E1E1E1E1E1E1E1E1E1E1E1E1E1E1E1E1E1E1E1E1E1E1E1E1E1E1E1E1E1E1E1E1E1E1E1E1E1E1E1E1E1E1E1E1E1E1E1E1E1BEBEBEBEBEBEBE
310
BEBE0F0F0F0F0F0F0F0F0F0F0F0F0F0F0F0F0F0F0F0F0F0F0F0F0F0F0F0F0F0F0FE1BEE1E1E1E1E1E1E1E1E1E1E1E1E1E1E1E1E1E1E1E1E1E1E1E1E1E1E1E1E1E1E1E1E1E1E1E1E1E1E1E1E1E1E1E1E1E1E1E1E1E1E1E1E1E1E1E1E1E1E1E1E1E1E1E1E1E1E1E1E1E1E1E1E1E1E1E1E1E1E1E1E1E1E1E1E1E1E1E1E1E1BEE1
310
E1E1E1E1E1E128E1E1E1E1E1E1E1E1E1E1E1E1E1E1E1E1E1E1E1E1E1E1E1E1E1E1E1E1E1E1E1E1E1E1E1E1E1E1E1E1E1E1E1E1E1E1E1E1E1E1E1E1E1E1E1E1E1E1E1E1E1E1E1E1E1E1E1E1E1E1E1E1E1E1E1E1E1E1E1E1E1E1E1E1E1E1E1E1E1E1E1E1E1E1E1E1E1E1E1E1E1E1E1E1E1E1E1E1E1E1E1E1E1E1E1BEBEBEBEBE
310
BEBEBEBEBEE1E1E1E10FE1E1E1E1E1E1E1E1E1E1E1BEBEBEBEBEBEBEBEBEBEBEBEBE28E1BEE1E1E1E1E1E1E1E1E1E1E1E1E1E1E1E1E1E1E1E1E1E1E1E1E1E1E1E1E1E1E1E1E1E1E1E1E1E1E1E1E1E1E1E1E1E1E1E1E1E1E1E1E1E1E1E1E1E1E1E1E1E1E1E1E1E1E1E1E1E1E1E1E1E1E1E1E1E1E1E1E1E1E1E1E1E1E1E1E1E1
310
BEE1E1E1E1E1E1E128E1E1E1E1E1E1E1E1E1E1E1E1E1E1E1E1E1E1E1E1E1E1E1E1E1E1E1E1E1E1E1E1E1E1E1E1E1E1E1E1E1E1E1E1E1E1E1E1E1E1E1E1E1E1E1E1E1E1E1E1E1E1E1E1E1E1E1E1E1E1E1E1E1E1E1E1E1E1E1E1E1E1E1E1E1E1E1E1E1E1E1E1E1E1E1E1E1E1E1E1E1E1E1E1E1E1E1E1E1E1E1E1E1E1E1BEBEBE
310
BEBEBEBEBEBEBEBEBEBEBEBEE1E1E1E1E1E1E1E1E1E1E1E1E1E1E1E1E2E2E2E2E2E2E2E228E1BEE1E1E1E1E1E1E1E1E1E1E1E1E1E1E1E1E1E1E1E1E1E1E1E1E1E1E1E1E1E1E1E1E1E1E1E1E1E1E1E1E1E1E1E1E1E1E1E1E1E1E1E1E1E1E1E1E1E1E1E1E1E1E1E1E1E1E1E1E1E1E1E1E1E1E1E1E1E1E1E1E1E1E1E1E1E1E1E1
310
E1E1BEE1E1E1E1E1E1E128E1E1E1E1E1E1E1E1E1E1E1E1E1E1E1E1E1E1E1E1E1E1E1E1E1E1E1E1E1E1E1E1E1E1E1E1E1E1E1E1E1E1E1E1E1E1E1E1E1E1E1E1E1E1E1E1E1E1E1E1E1E1E1E1E1E1E1E1E1E1E1E1E1E1E1E1E1E1E1E1E1E1E1E1E1E1E1E1E1E1E1E1E1E1E1E1E1E1E1E1E1E1E1E1E1E1E1E1E1E1E1E1E1E1E1BE
310
BEE1E1E1BEBEE1E1E1E1E1E1E10FE1E1E1E1E1E1E1E1E1E1E1E1E1E1E1E1E2E2E2E2E2E2E2E228E1BEE1E1E1E1E1E1E1E1E1E1E1E1E1E1E1E1E1E1E1E1E1E1E1E1E1E1E1E1E1E1E1E1E1E1E1E1E1E1E1E1E1E1E1E1E1E1E1E1E1E1E1E1E1E1E1E1E1E1E1E1E1E1E1E1E1E1E1E1E1E1E1E1E1E1E1E1E1E1E1E1E1E1E1E1E1E1
310
E1E1E1E1BEE1E1E1E1E1E1E128E1E1E1E1E1E1E1E1E1E1E1E1E1E1E1E1E1E1E1E1E1E1E1E1E1E1E1E1E1E1E1E1E1E1E1E1E1E1E1E1E1E1E1E1E1E1E1E1E1E1E1E1E1E1E1E1E1E1E1E1E1E1E1E1E1E1E1E1E1E1E1E1E1E1E1E1E1E1E1E1E1E1E1E1E1E1E1E1E1E1E1E1E1E1E1E1E1E1E1E1E1E1E1E1E1E1E1E1E1E1E1E1E1E1
310
E1BEBEE1E1E1BEBEE1E1E1E1E1E1E10FE1E1E1E1E1E1E1E1E1E1E1E1E1E1E1E1E1E1E1E1E1E1E1E128E1BEE1E1E1E1E1E1E1E1E1E1E1E1E1E1E1E1E1E1E1E1E1E1E1E1E1E1E1E1E1E1E1E1E1E1E1E1E1E1E1E1E1E1E1E1E1E1E1E1E1E1E1E1E1E1E1E1E1E1E1E1E1E1E1E1E1E1E1E1E1E1E1E1E1E1E1E1E1E1E1E1E1E1E1E1
310
E1E1E1E1E1E1BEE1E1E1E1E1E1E128E1E1E1E1E1E1E1E1E1E1E1E1E1E1E1E1E1E1E1E1E1E1E1E1E1E1E1E1E1E1E1E1E1E1E1E1E1E1E1E1E1E1E1E1E1E1E1E1E1E1E1E1E1E1E1E1E1E1E1E1E1E1E1E1E1E1E1E1E1E1E1E1E1E1E1E1E1E1E1E1E1E1E1E1E1E1E1E1E1E1E1E1E1E1E1E1E1E1E1E1E1E1E1E1E1E1E1E1E1E1E1E1
310
E1E1E1BEBEE1E1E1BEBEE1E1E1E1E1E1E10FE1E1E1E1E1E1E1E1E1E1E1E1E1E1E1E1E1BEBEBEBEBEBEBE28E1BEE1E1E1E1E1E1E1E1E1E1E1E1E1E1E1E1E1E1E1E1E1E1E1E1E1E1E1E1E1E1E1E1E1E1E1E1E1E1E1E1E1E1E1E1E1E1E1E1E1E1E1E1E1E1E1E1E1E1E1E1E1E1E1E1E1E1E1E1E1E1E1E1E1E1E1E1E1E1E1E1E1E1
310
E1E1E1E1E1E1E1E1BEE1E1E1E1E1E1E128E1E1E1E1E1E1E1E1E1E1E1E1E1E1E1E1E1E1E1E1E1E1E1E1E1E1E1E1E1E1E1E1E1E1E1E1E1E2E2E2E2E2E2E2E2E2E2E2E2E2E2E2E2E2E2E2BEBEBEBEBEBEBEBEBEE2BEE1E1E1E1E1E1E1E1E1E1E1E1E1E1E1E1E1E1E1E1E1E1E1E1E1E1E1E1E1E1E1E1E1E1E1E1E1E1E1E1E1E1E1
310
E1E1E1E1E1BEBEE1E1E1BEBEE1E1E1E1E1E1E10FE1E1E1E1E1E1E1E1E1E1E1E1E1E1E1E1E1BEBEBEBEBEBEBE28E1BEE1E1E1E1E1E1E1E1E1E1E1E1E1E1E1E1E1E1E1E1E1E1E1E1E1E1E1E1E1E1E1E1E1E1E1E1E1E1E1E1E1E1E1E1E1E1E1E1E1E1E1E1E1E1E1E1E1E1E1E1E1E1E1E1E1E1E1E1E1E1E1E1E1E1E1E1E1E1E1E1
310
E1E1E1E1E1E1E1E1E1E1BEE1E1E1E1E1BEBE28E1E1E1E1E1E1E1E1E1E1E1E1E1E1E1E1E1E1E1E1E1E1E1E1E1E1E1E1E1E1E1E1E1E1E1E1E20F0FE2E20F0F0F0F0F0F0F0F0F0F0F0F0F0FE2E2E1E10FE1BEE1E1E1BEE1E1E1E1E1E1E1E1E1E1E1E1E1E1E1E1E1E1E1E1E1E1E1E1E1E1E1E1E1E1E1E1E1E1E1E1E1E1E1E1E1E1
310
E1E1E1E1E1E1E1BEBEE1E1E1BEBEE1E1E1E1E1E1E10FE1E1E1E1E1E1E1E1E1E1E1E1E1E1E1E1E1BEBEBEBEBEE2BE28E1BEE1E1E1E1E1E1E1E1E1E1E1E1E1E1E1E1E1E1E1E1E1E1E1E1E1E1E1E1E1E1E1E1E1E1E1E1E1E1E1E1E1E1E1E1E1E1E1E1E1E1E1E1E1E1E1E1E1E1E1E1E1E1E1E1E1E1E1E1E1E1E1E1E1E1E1E1E1E1
310
E1E1E1E1E1E1E1E1E1E1E1E1BEE1E1E1E1E1BEBE28E1E1E1E1E1E1E1E1E1E1E1E1E1E1E1E1E1E1E1E1E1E1E1E1E1E1E1E1E1E1E1E1E1E1E1E1E20FE1BEE20FE2E2E2E2E2E2E2E2E20FE2E20FE2E2E1E10F0F0FE1E1E1BEE1E1E1E1E1E1E1E1E1E1E1E1E1E1E1E1E1E1E1E1E1E1E1E1E1E1E1E1E1E1E1E1E1E1E1E1E1E1E1E1
310
E1E1E1E1E1E1E1E1E1BEBEE1E1E1BEBEE1E1E1E1E1E1E10FE1E1E1E1E1E1E1E1E1E1E1E1E1E1E1E1E1E1BEBEE1BEE1BE28E1BEE1E1E1E1E1E1E1E1E1E1E1E1E1E1E1E1E1E1E1E1E1E1E1E1E1E1E1E1E1E1E1E1E1E1E1E1E1E1E1E1E1E1E1E1E1E1E1E1E1E1E1E1E1E1E1E1E1E1E1E1E1E1E1E1E1E1E1E1E1E1E1E1E1E1E1E1
310
E1E1E1E1E1E1E1E1E1E1E1E1E1E1BEE1E1E1E1E1BEBE28E1E1E1E1E1E1E1E1E1E1E1E1E1E1E1E1E1E1E1E1E1E1E1E1E1E1E1E1E1E1E1E1E1E1E1E10F0FBEBEE10FE1E1E1E1BEE1E1E1E10FE1BE0F0FE2E1E10F0F0FE1E1E1BEE1E1E1E1E1E1E1E1E1E1E1E1E1E1E1E1E1E1E1E1E1E1E1E1E1E1E1E1E1E1E1E1E1E1E1E1E1E1
310
E1E1E1E1E1E1E1E1E1E1E1BEBEE1E1E1BEBEE1E1E1E1E1E1E10FE1E1E1E1E1E1E1E1E1E1E1E1E1E1E1E1E1E1E1E1E1E1E1E128E1BEE1E1E1E1E1E1E1E1E1E1E1E1E1E1E1E1E1E1E1E1E1E1E1E1E1E1E1E1E1E1E1E1E1E1E1E1E1E1E1E1E1E1E1E1E1E1E1E1E1E1E1E1E1E1E1E1E1E1E1E1E1E1E1E1E1E1E1E1E1E1E1E1E1E1
310
E1E1E1E1E1E1E1E1E1E1E1E1E1E1E1E1BEE1E1E1E1E1BEBE28E1E1E1E1E1E1E1E1E1E1E1E1E1E1E1E1E1E1E1E1E1E1E1E1E1E1E1E1E1E1E1E1E1E1E1E10F0FE2E2E20FE2E2E2E2E2E2E2E2E20FE2E20F0FE2BEBEBEBEBEBEE1E1BEE1E1E1E1E1E1E1E1E1E1E1E1E1E1E1E1E1E1E1E1E1E1E1E1E1E1E1E1E1E1E1E1E1E1E1E1
310
E1E1E1E1E1E1E1E1E1E1E1E1E1BEBEE1E1E1BEBEE1E1E1E1E1E1E10FE1E1E1E1E1E1E1E1E1E1E1E1E1E1E1E1E1E1E1E1E1E1E1E128E1BEE1E1E1E1E1E1E1E1E1E1E1E1E1E1E1E1E1E1E1E1E1E1E1E1E1E1E1E1E1E1E1E1E1E1E1E1E1E1E1E1E1E1E1E1E1E1E1E1E1E1E1E1E1E1E1E1E1E1E1E1E1E1E1E1E1E1E1E1E1E1E1E1
310
E1E1E1E1E1E1E1E1E1E1E1E1E1E1E1E1E1E1BEE1E1E1E1E1E1BE28E1E1E1E1E1E1E1E1E1E1E1E1E1E1E1E1E1E1E1E1E1E1E1E1E1E1E1E1E1E1E1E1E1E1E1E1E2E2E2E2E2E2E2E2E2E2E2E2E2E2E2E2E2E2E2E2E2E1E1E1E1E1E1E1E1BEE1E1E1E1E1E1E1E1E1E1E1E1E1E1E1E1E1E1E1E1E1E1E1E1E1E1E1E1E1E1E1E1E1E1
310
E1E1E1E1E1E1E1E1E1E1E1E1E1E1E1BEBEE1E1E1BEBEE1E1E1E1E1E1E10FE1E1E1E1E1E1E1E1E1E1E1E1E1E1E1E1E1E1E1E1E1E1E1E128E1BEE1E1E1E1E1E1E1E1E1E1E1E1E1E1E1E1E1E1E1E1E1E1E1E1E1E1E1E1E1E1E1E1E1E1E1E1E1E1E1E1E1E1E1E1E1E1E1E1E1E1E1E1E1E1E1E1E1E1E1E1E1E1E1E1E1E1E1E1E1E1
310
E1E1E1E1E1E1E1E1E1E1E1E1E1E1E1E1E1E1E1E1BEE1E1E1E1E1E1BE28E1E1E1E1E1E1E1E1E1E1E1E1E1E1E1E1E1E1E1E1E1E1E1E1E1E1E1E1E1E1E1E1E1E1E1E1E20FBEE10FE1E1E1E1E1BEE1E1E1E10FE1BEE10FE2E1E1E1E1E1E10FE10FE1E1E1E1E1E1E1E1E1E1E1E1E1E1E1E1E1E1E1E1E1E1E1E1E1E1E1E1E1E1E1E1
310
E1E1E1E1E1E1E1E1E1E1E1E1E1E1E1E1E1BEBEE1E1E1BEBEE1E1E1E1E1E1E10FE1E1E1E1E1E1E1E1E1E1E1E1E1E1E1E1E1E1E1E1E1E1E1E128E1BEE1E1E1E1E1E1E1E1E1E1E1E1E1E1E1E1E1E1E1E1E1E1E1E1E1E1E1E1E1E1E1E1E1E1E1E1E1E1E1E1E1E1E1E1E1E1E1E1E1E1E1E1E1E1E1E1E1E1E1E1E1E1E1E1E1E1E1E1
310
E1E1E1E1E1E1E1E1E1E1E1E1E1E1E1E1E1E1E1E1E1E1BEE1E1E1E1E1E1BE28E1E1E1E1E1E1E1E1E1E1E1E1E1E1E1E1E1E1E1E1E1E1E1E1E1E1E1E1E1E1E1E1E1E1E1E1E20FBEE10FE1E1E1E1E1BEE1E1E1E10FE1BEE10FE2E1E1E1E1E1E10F0F0FE1E1E1E1E1E1E1E1E1E1E1E1E1E1E1E1E1E1E1E1E1E1E1E1E1E1E1E1E1E1
310
E1E1E1E1E1E1E1E1E1E1E1E1E1E1E1E1E1E1E10F0F0F0F0FBE0F0F0F0F0F0F0F0F0F0F0F0F0F0F0F0F0F0F0F0F0F0F0F0F0F0F0F0F0F0F0F0F0F0FE1BEE1E1E1E1E1E1E1E1E1E1E1E1E1E1E1E1E1E1E1E1E1E1E1E1E1E1E1E1E1E1E1E1E1E1E1E1E1E1E1E1E1E1E1E1E1E1E1E1E1E1E1E1E1E1E1E1E1E1E1E1E1E1E1E1E1E1
310
E1E1E1E1E1E1E1E1E1E1E1E1E1E1E1E1E1E1E1E1E1E1E1E1BEE1E1E1E1E1E1BE28E1E1E1E1E1E1E1E1E1E1E1E1E1E1E1E1E1E1E1E1E1E1E1E1E1E1E1E1E1E1E1E1E1E1E1E1E20FBEE10FE1E1E1E1E1BEE1E1E1E10FE1BEE10FE2E1E1E1E1E1E10FE10FE1E1E1E1E1E1E1E1E1E1E1E1E1E1E1E1E1E1E1E1E1E1E1E1E1E1E1E1
310
E1E1E1E1E1E1E1E1E1E1E1E1E1E1E1E1E1E1E1E1E10FE1E1E1E1E1E1E1E1E1E1E1E1E1E1E1E1E1E1E1E1E1E1E1E1E1E1E1E1E1E1E1E1E1E1E1E1E1E128E1BEE1E1E1E1E1E1E1E1E1E1E1E1E1E1E1E1E1E1E1E1E1E1E1E1E1E1E1E1E1E1E1E1E1E1E1E1E1E1E1E1E1E1E1E1E1E1E1E1E1E1E1E1E1E1E1E1E1E1E1E1E1E1E1E1
310
E1E1E1E1E1E1E1E1E1E1E1E1E1E1E1E1E1E1E1E1E1E1E1E1E1E1BEE1E1E1E1E1E1BE28E1E1E1E1E1E1E1E1E1E1E1E1E1E1E1E1E1E1E1E1E1E1E1E1E1E1E1E1E1E1E1E1E1E1E1E1E20FBEE10FE1E1E1E1E1BEE1E1E1E10FE1BEE10FE2E1E1E1E1E1E10F0FBEE1E1E1E1E1E1E1E1E1E1E1E1E1E1E1E1E1E1E1E1E1E1E1E1E1E1
310
E1E1E1E1E1E1E1E1E1E1E1E1E1E1E1E1E1E1E1E1E1E1E10FE2E2E1E1E1E1E1E1E1E1E1E1E1E1E1E1E1E1E1E1E1E1E1E1E1E1E1E1E1E1E1E1E1E1E1E1E1E128E1BEE1E1E1E1E1E1E1E1E1E1E1E1E1E1E1E1E1E1E1E1E1E1E1E1E1E1E1E1E1E1E1E1E1E1E1E1E1E1E1E1E1E1E1E1E1E1E1E1E1E1E1E1E1E1E1E1E1E1E1E1E1E1
310
E1E1E1E1E1E1E1E1E1E1E1E1E1E1E1E1E1E1E1E1E1E1E1E1E1E1E1E1BEE1E1E1E1E1BEBE28E1E1E1E1E1E1E1E1E1E1E1E1E1E1E1E1E1E1E1E1E1E1E1E1E1E1E1E1E1E1E1E1E1E1E1E1E20FBEE10FE1E1E1E1E1BEE1E1E1E10FE1BEE1E2E1E1E1E1E1E1E1E1E1BEE1E1E1E1E1E1E1E1E1E1E1E1E1E1E1E1E1E1E1E1E1E1E1E1
310
E1E1E1E1E1E1E1E1E1E1E1E1E1E1E1E1E1E1E1E1E1E1E1E1E10FE1E1E1E1E1E1E1E1E1E1E1E1E1E1E1E1E1E1E1E1E1E1E1E1E1E1E1E1E1E1E1E1E1E1E1E1E1E128E1BEE1E1E1E1E1E1E1E1E1E1E1E1E1E1E1E1E1E1E1E1E1E1E1E1E1E1E1E1E1E1E1E1E1E1E1E1E1E1E1E1E1E1E1E1E1E1E1E1E1E1E1E1E1E1E1E1E1E1E1E1
310
E1E1E1E1E1E1E1E1E1E1E1E1E1E1E1E1E1E1E1E1E1E1E1E1E1E1E1E1E1E1BEE1E1E1E1E1E1BE28E1E1E1E1E1E1E1E1E1E1E1E1E1E1E1E1E1E1E1E1E1E1E1E1E1E1E1E1E1E1E1E1E1E1E1E1E20FBEE10FE1E1E1E1E1BEE1E1E1E10FE1BEE1E2E1E1E1E1E1E1E1E1E1BEE1E1E1E1E1E1E1E1E1E1E1E1E1E1E1E1E1E1E1E1E1E1
310
E1E1E1E1E1E1E1E1E1E1E1E1E1E1E1E1E1E1E1E1E1E1E1E1E1E1E10FE1E1E1E1E1E1E1E1E1E1E1E1E1E1E1E1E1E1E1E1E1E1E1E1E1E1E1E1E1E1E1E1E1E1E1E1E2E228E1BEE1E1E1E1E1E1E1E1E1E1E1E1E1E1E1E1E1E1E1E1E1E1E1E1E1E1E1E1E1E1E1E1E1E1E1E1E1E1E1E1E1E1E1E1E1E1E1E1E1E1E1E1E1E1E1E1E1E1
310
E1E1E1E1E1E1E1E1E1E1E1E1E1E1E1E1E1E1E1E1E1E1E1E1E1E1E1E1E1E1E1E1BEE1E1E1E1E1E1BE28E1E1E1E1E1E1E1E1E1E1E1E1E1E1E1E1E1E1E1E1E1E1E1E1E1E1E1E1E1E1E1E1E1E1E1E1E20FBEE10FE10F0F0F0F0F0F0F0FE10FE1BEE1E2E1E1E1E1E1E1E1E1E1BEE1E1E1E1E1E1E1E1E1E1E1E1E1E1E1E1E1E1E1E1
310
E1E1E1E1E1E1E1E1E1E1E1E1E1E1E1E1E1E1E1E1E1E1E1E1E1E1E1E1E10FE1E2E2E2E2E2E2E2E2E2E2E2E2E2E2E2E2E2E2E2E2E1E2E2E2E2E2E2E1E2E2E2E2E2E2E2E2E228E1BEE1E1E1E1E1E1E1E1E1E1E1E1E1E1E1E1E1E1E1E1E1E1E1E1E1E1E1E1E1E1E1E1E1E1E1E1E1E1E1E1E1E1E1E1E1E1E1E1E1E1E1E1E1E1E1E1
310
E1E1E1E1E1E1E1E1E1E1E1E1E1E1E1E1E1E1E1E1E1E1E1E1E1E1E1E1E1E1E1E1E1E1BEE1E1E1E1E1BEBE28E1E1E1E1E1E1E1E1E1E1E1E1E1E1E1E1E1E1E1E1E1E1E1E1E1E1E1E1E1E1E1E1E1E1E1E1E20FBEE10FE10FE1E10FBE0FE10FE10FE1BEE1E2E1E1E1E1E1E1E1E1E1BEE1E1E1E1E1E1E1E1E1E1E1E1E1E1E1E1E1E1
310
E1E1E1E1E1E1E1E1E1E1E1E1E1E1E1E1E1E1E1E1E1E1E1E1E1E1E1E1E1E1E10FE1E2E2E2E2E2E2E2E2E2E2E2E2E2E2E2E2E2E2E2E2E2E2E2E2E2E2E2E1E2E2E2E2E2E2E2E2E228E1BEE1E1E1E1E1E1E1E1E1E1E1E1E1E1E1E1E1E1E1E1E1E1E1E1E1E1E1E1E1E1E1E1E1E1E1E1E1E1E1E1E1E1E1E1E1E1E1E1E1E1E1E1E1E1
310
E1E1E1E1E1E1E1E1E1E1E1E1E1E1E1E1E1E1E1E1E1E1E1E1E1E1E1E1E1E1E1E1E1E1E1E1BEE1E1E1E1E1BEBE28E1E1E1E1E1E1E1E1E1E1E1E1E1E1E1E1E1E1E1E1E1E1E1E1E1E1E1E1E1E1E1E1E1E1E1E1E20F0F0F0F0F0F0F0F0F0F0F0F0F0F0F0F0F0FE2E1E1E1E1E1E1E1E1E1BEE1E1E1E1E1E1E1E1E1E1E1E1E1E1E1E1
310
E1E1E1E1E1E1E1E1E1E1E1E1E1E1E1E1E1E1E1E1E1E1E1E1E1E1E1E1E1E1E1E1E10FE2E2E2E2E1E2E2E2E2E2E2E2E2E1E1E1E1E1E1E1E1E1E1E1E1E1E1E1E1E1E1E1E1E1E1E1E1E128E1BEE1E1E1E1E1E1E1E1E1E1E1E1E1E1E1E1E1E1E1E1E1E1E1E1E1E1E1E1E1E1E1E1E1E1E1E1E1E1E1E1E1E1E1E1E1E1E1E1E1E1E1E1
310
E1E1E1E1E1E1E1E1E1E1E1E1E1E1E1E1E1E1E1E1E1E1E1E1E1E1E1E1E1E1E1E1E1E1E1E1E1E1BEE1E1E1E1E1BEBE28E1E1E1E1E1E1E1E1E1E1E1E1E1E1E1E1E1E1E1E1E1E1E1E1E1E1E1E1E1E1E1E1E1E1E1E1E2E2E2E2E2E2E2E2E2E2E2E2E2E2E2E2E2E2E2E2BEBEBEBEBEBEBEBEBEBEBEE1E1E1E1E1E1E1E1E1E1E1E1E1
310
E1E1E1E1E1E1E1E1E1E1E1E1E1E1E1E1E1E1E1E1E1E1E1E1E1E1E1E1E1E1E1E1E1E1E10FE2E2E2E2E2E2E2E2E2E2E2E2E2E1E1E1E1E1E1E1E1E1E1E1E1E1E1E1E1E1E1E1E1E1E1E1E1E128E1BEE1E1E1E1E1E1E1E1E1E1E1E1E1E1E1E1E1E1E1E1E1E1E1E1E1E1E1E1E1E1E1E1E1E1E1E1E1E1E1E1E1E1E1E1E1E1E1E1E1E1
310
E1E1E1E1E1E1E1E1E1E1E1E1E1E1E1E1E1E1E1E1E1E1E1E1E1E1E1E1E1E1E1E1E1E1E1E1E1E1E1E1BEE1E1E1E1E1BEBE28E1E1E1E1E1E1E1E1E1E1E1E1E1E1E1E1E1E1E1E1E1E1E1E1E1E1E1E1E1E1E1E1E1E1E1E1E1E1BEE1E1E1E1E1E1E1BEE1E1E1E1E1E1BEE1E1E1E1E1E1E1E1E1E1E1E1E1E1E1E1E1E1E1E1E1E1E1E1
310
E1E1E1E1E1E1E1E1E1E1E1E1E1E1E1E1E1E1E1E1E1E1E1E1E1E1E1E1E1E1E1E1E1E1E1E1E10FE2E1E2E2E2E2E2E2E2E2E1E2E2E2E2E2E2E2E2E1E1E1E1E1E1E1E1E1E1E1E1E1E1E1E1E1E1E128E1BEE1E1E1E1E1E1E1E1E1E1E1E1E1E1E1E1E1E1E1E1E1E1E1E1E1E1E1E1E1E1E1E1E1E1E1E1E1E1E1E1E1E1E1E1E1E1E1E1
310
E1E1E1E1E1E1E1E1E1E1E1E1E1E1E1E1E1E1E1E1E1E1E1E1E1E1E1E1E1E1E1E1E1E1E1E1E1E1E1E1E1E1BEE1E1E1E1E1BEBE28E1E1E1E1E1E1E1E1E1E1E1E1E1E1E1E1E1E1E1E1E1E1E1E1E1E1E1E10F0F0F0F0F0FE10F0FE1E1E1E1E1E1E1E1E1E1E1E1E1E1E1E1E1E1E1E1E1E1E1E1E1E1E1E1E1E1E1E1E1E1E1E1E1E1E1
310
E1E1E1E1E1E1E1E1E1E1E1E1E1E1E1E1E1E1E1E1E1E1E1E1E1E1E1E1E1E1E1E1E1E1E1E1E1E1E10FE1E2E2E2E2E2E2E2E2E1E2E1E2E2E2E2E2E2E2E2E1E1E1E1E1E1E1E1E1E1E1E1E1E1E1E1E1E128E1BEE1E1E1E1E1E1E1E1E1E1E1E1E1E1E1E1E1E1E1E1E1E1E1E1E1E1E1E1E1E1E1E1E1E1E1E1E1E1E1E1E1E1E1E1E1E1
310
E1E1E1E1E1E1E1E1E1E1E1E1E1E1E1E1E1E1E1E1E1E1E1E1E1E1E1E1E1E1E1E1E1E1E1E1E1E1E1E1E1E1E1E1BEE1E1E1E1E1BEBE28E1E1E1E1E1E1E1E1E1E1E1E1E1E1E1E1E1E1E1E1E1E1E1E1E1E1E1E10F0F0F0F0F0FE1E10FE1E1E1E1E1E1E1E1E1E1E1E1E1E1E1E1E1E1E1E1E1E1E1E1E1E1E1E1E1E1E1E1E1E1E1E1E1
310
E1E1E1E1E1E1E1E1E1E1E1E1E1E1E1E1E1E1E1E1E1E1E1E1E1E1E1E1E1E1E1E1E1E1E1E1E1E1E1E1E10FE1E2E1E2E2E2E1E1E2E1E2E1E2E1E1E2E2E2E1E1E1E1E1E1E1E1E1E1E1E1E1E1E1E1E1E1E1E128E1BEE1E1E1E1E1E1E1E1E1E1E1E1E1E1E1E1E1E1E1E1E1E1E1E1E1E1E1E1E1E1E1E1E1E1E1E1E1E1E1E1E1E1E1E1
310
E1E1E1E1E1E1E1E1E1E1E1E1E1E1E1E1E1E1E1E1E1E1E1E1E1E1E1E1E1E1E1E1E1E1E1E1E1E1E1E1E1E1E1E1E1E1BEE1E1E1E1E1BEBE28E1E1E1E1E1E1E1E1E1E1E1E1E1E1E1E1E1E1E1E1E1E1E1E1E1E1E1E1E10F0F0F0FE1E1E10FE1E1E1E1E1E1E1E1E1E1E1E1E1E1E1E1E1E1E1E1E1E1E1E1E1E1E1E1E1E1E1E1E1E1E1
310
E1E1E1E1E1E1E1E1E1E1E1E1E1E1E1E1E1E1E1E1E1E1E1E1E1E1E1E1E1E1E1E1E1E1E1E1E1E1E1E1E1E1E10F0F0F0F0F0F0F0F0F0F0F0F0F0F0F0F0F0F0F0F0F0F0F0F0F0F0F0F0F0F0F0F0F0F0F0F0F0F0F0FE1BEE1E1E1E1E1E1E1E1E1E1E1E1E1E1E1E1E1E1E1E1E1E1E1E1E1E1E1E1E1E1E1E1E1E1E1E1E1E1E1E1E1E1
310
E1E1E1E1E1E1E1E1E1E1E1E1E1E1E1E1E1E1E1E1E1E1E1E1E1E1E1E1E1E1E1E1E1E1E1E1E1E1E1E1E1E1E1E1E1E1E1E1BEE1E1E1E1E1BEBE28E1E1E1E1E1E1E1E1E1E1E1E1E1E1E1E1E1E1E1E1E1E1E1E1E1E1E1E10F0F0F0F0F0F0F0FE10F0FE1E1E1E1E1E1E1E1E1E1E1E1E1E1E1E1E1E1E1E1E1E1E1E1E1E1E1E1E1E1E1
310
E1E1E1E1E1E1E1E1E1E1E1E1E1E1E1E1E1E1E1E1E1E1E1E1E1E1E1E1E1E1E1E1E1E1E1E1E1E1E1E1E1E1E1E1E10FBEBEE1E1E1E1E1E1E1E1E1E1E1E1E1E1E1E1E1E1E1E1E1E1E1E1E1E1E1E1E1E1E1E1E1E1E1E128E1BEE1E1E1E1E1E1E1E1E1E1E1E1E1E1E1E1E1E1E1E1E1E1E1E1E1E1E1E1E1E1E1E1E1E1E1E1E1E1E1E1
310
E1E1E1E1E1E1E1E1E1E1E1E1E1E1E1E1E1E1E1E1E1E1E1E1E1E1E1E1E1E1E1E1E1E1E1E1E1E1E1E1E1E1E1E1E1E1E1E1E1E1BEE1E1E1E1E1BEBE28E1E1E1E1E1E1E1E1E1E1E1E1E1E1E1E1E1E1E1E1E1E1E1E1E1E1E1E10F0F0F0F0F0F0F0F0F0F0F0FE1E1E1E1E1E1E1E1E1E1E1E1E1E1E1E1E1E1E1E1E1E1E1E1E1E1E1E1
310
E1E1E1E1E1E1E1E1E1E1E1E1E1E1E1E1E1E1E1E1E1E1E1E1E1E1E1E1E1E1E1E1E1E1E1E1E1E1E1E1E1E1E1E1E1E1E10FBEBEBEBEBEBEBEBEBEBEBEBEBEBEBEBEBEBEBEBEBEBEBEBEBEBEBEBEBEBEBEBEBEBEBEBEBEE128E1BEE1E1E1E1E1E1E1E1E1E1E1E1E1E1E1E1E1E1E1E1E1E1E1E1E1E1E1E1E1E1E1E1E1E1E1E1E1E1
310
E1E1E1E1E1E1E1E1E1E1E1E1E1E1E1E1E1E1E1E1E1E1E1E1E1E1E1E1E1E1E1E1E1E1E1E1E1E1E1E1E1E1E1E1E1E1E1E1E1E1E1E1BEE1E1E1E1E1BEBE28E1E1E1E1E1E1E1E1E1E1E1E1E1E1E1E1E1E1E1E1E1E1E1E1E1E1E1E10F0F0FE10F0F0FE1E10FE10FE1E1E1E1E1E1E1E1E1E1E1E1E1E1E1E1E1E1E1E1E1E1E1E1E1E1
310
E1E1E1E1E1E1E1E1E1E1E1E1E1E1E1E1E1E1E1E1E1E1E1E1E1E1E1E1E1E1E1E1E1E1E1E1E1E1E1E1E1E1E1E1E1E1E1E1E10FE1E1E1E1E1E1E1E1E1E1E1E1E1E1E1E1E1E1E1E1E1E1E1E1E1E1E1E1E1E1E1E1E1E1E1E1E1E128E1BEE1E1E1E1E1E1E1E1E1E1E1E1E1E1E1E1E1E1E1E1E1E1E1E1E1E1E1E1E1E1E1E1E1E1E1E1
310
E1E1E1E1E1E1E1E1E1E1E1E1E1E1E1E1E1E1E1E1E1E1E1E1E1E1E1E1E1E1E1E1E1E1E1E1E1E1E1E1E1E1E1E1E1E1E1E1E1E1E1E1E1E1BEE1E1E1E1E1BEBE28E1E1E1E1E1E1E1E1E1E1E1E1E1E1E1E1E1E1E1E1E1E1E1E1E1E1E1E1E1E1E1E1E1E1E1E1E1E1E1E1E1E1E1E1E1E1E1E1E1E1E1E1E1E1E1E1E1E1E1E1E1E1E1E1
310
E1E1E1E1E1E1E1E1E1E1E1E1E1E1E1E1E1E1E1E1E1E1E1E1E1E1E1E1E1E1E1E1E1E1E1E1E1E1E1E1E1E1E1E1E1E1E1E1E1E1E10FE1E1E1E1E1E1E1E1E1E2E2E2E1E2E2E2E2E2E2E2E2E2E2E2E2E1E1E1E1E1E1E1E1E1E1E1E1E128E1BEE1E1E1E1E1E1E1E1E1E1E1E1E1E1E1E1E1E1E1E1E1E1E1E1E1E1E1E1E1E1E1E1E1E1
310
E1E1E1E1E1E1E1E1E1E1E1E1E1E1E1E1E1E1E1E1E1E1E1E1E1E1E1E1E1E1E1E1E1E1E1E1E1E1E1E1E1E1E1E1E1E1E1E1E1E1E1E1E1E1E1E1BEE1E1E1E1E1E1BE28E1E1E1E1E1E1E1E1E1E1E1E1E1E1E1E1E1E1E1E1E1E1E1E1E1E1E1E1E1E1E1E1E1E1E1E1E1E1E1E1E1E1E1E1E1E1E1E1E1E1E1E1E1E1E1E1E1E1E1E1E1E1
310
E1E1E1E1E1E1E1E1E1E1E1E1E1E1E1E1E1E1E1E1E1E1E1E1E1E1E1E1E1E1E1E1E1E1E1E1E1E1E1E1E1E1E1E1E1E1E1E1E1E1E1E1E10FE1E1E1E1E1E1E1E1E1E2E2E2E1E2E2E2E2E2E2E2E2E2E1E2E2E1E1E1E1E1E1E1E1E1E1E1E1E128E1BEE1E1E1E1E1E1E1E1E1E1E1E1E1E1E1E1E1E1E1E1E1E1E1E1E1E1E1E1E1E1E1E1
310
E1E1E1E1E1E1E1E1E1E1E1E1E1E1E1E1E1E1E1E1E1E1E1E1E1E1E1E1E1E1E1E1E1E1E1E1E1E1E1E1E1E1E1E1E1E1E1E1E1E1E1E1E1E1E1E1E1E1BEE1E1E1E1E1BEBE28E1E1E1E1E1E1E1E1E1E1E1E1E1E1E1E1E1E1E1E1E1E1E1E1E1E1E1E1E1E1E1E1E1E1E1E1E1E1E1E1E1E1E1E1E1E1E1E1E1E1E1E1E1E1E1E1E1E1E1E1
310
E1E1E1E1E1E1E1E1E1E1E1E1E1E1E1E1E1E1E1E1E1E1E1E1E1E1E1E1E1E1E1E1E1E1E1E1E1E1E1E1E1E1E1E1E1E1E1E1E1E1E1E1E1E1E10FE10F0F0F0F0F0F0F0F0F0F0F0F0F0FE10F0F0F0F0F0F0F0F0F0F0FE1E1E1E1E1E1E1E1E1E1E128E1BEE1E1E1E1E1E1E1E1E1E1E1E1E1E1E1E1E1E1E1E1E1E1E1E1E1E1E1E1E1E1
310
E1E1E1E1E1E1E1E1E1E1E1E1E1E1E1E1E1E1E1E1E1E1E1E1E1E1E1E1E1E1E1E1E1E1E1E1E1E1E1E1E1E1E1E1E1E1E1E1E1E1E1E1E1E1E1E1E1E1E1E1BEE1E1E1E1E1BEBE28E1E1E1E1E1E1E1E1E1E1E1E1E1E1E1E1E1E1E1E1E1E1E1E1E1E1E1E1E1E1E1E1E1E1E1E1E1E1E1E1E1E1E1E1E1E1E1E1E1E1E1E1E1E1E1E1E1E1
310
E1E1E1E1E1E1E1E1E1E1E1E1E1E1E1E1E1E1E1E1E1E1E1E1E1E1E1E1E1E1E1E1E1E1E1E1E1E1E1E1E1E1E1E1E1E1E1E1E1E1E1E1E1E1E1E1E10FE10F0F0F0F0F0F0F0F0F0F0F0F0FE10F0F0F0F0F0F0F0F0F0F0F0FE1E1E1E1E1E1E1E1E1E1E128E1BEE1E1E1E1E1E1E1E1E1E1E1E1E1E1E1E1E1E1E1E1E1E1E1E1E1E1E1E1
310
E1E1E1E1E1E1E1E1E1E1E1E1E1E1E1E1E1E1E1E1E1E1E1E1E1E1E1E1E1E1E1E1E1E1E1E1E1E1E1E1E1E1E1E1E1E1E1E1E1E1E1E1E1E1E1E1E1E1E1E1E1E1BEE1E1E1E1E1E1BE28E1E1E1E1E1E1E1E1E1E1E1E1E1E1E1E1E1E1E1E1E1E1E1E1E1E1E1E1E1E1E1E1E1E1E1E1E1E1E1E1E1E1E1E1E1E1E1E1E1E1E1E1E1E1E1E1
310
E1E1E1E1E1E1E1E1E1E1E1E1E1E1E1E1E1E1E1E1E1E1E1E1E1E1E1E1E1E1E1E1E1E1E1E1E1E1E1E1E1E1E1E1E1E1E1E1E1E1E1E1E1E1E1E1E1E1E10F0F0F0F0F0F0F0F0F0F0F0F0F0F0F0F0F0F0F0F0F0F0F0F0F0F0F0F0F0F0F0F0F0F0F0F0F0FBE0FE1BEE1E1E1E1E1E1E1E1E1E1E1E1E1E1E1E1E1E1E1E1E1E1E1E1E1E1
310
E1E1E1E1E1E1E1E1E1E1E1E1E1E1E1E1E1E1E1E1E1E1E1E1E1E1E1E1E1E1E1E1E1E1E1E1E1E1E1E1E1E1E1E1E1E1E1E1E1E1E1E1E1E1E1E1E1E1E1E1E1E1E1E1BEE1E1E1E1E1BEBE28E1E1E1E1E1E1E1E1E1E1E1E1E1E1E1E1E1E1E1E1E1E1E1E1E1E1E1E1E1E1E1E1E1E1E1E1E1E1BEE1E1E1E1E1E1E1BEE1E1E1E1E1E1BE
310
E1E1E1E1E1E1E1E1E1E1E1E1E1E1E1E1E1E1E1E1E1E1E1E1E1E1E1E1E1E1E1E1E1E1E1E1E1BEE1E1E1E1E1E1E1BEE1E1E1E1E1E1BEE1E1E1E1E1E1E1E10FE1BEBEBEBEBEE1E1E1E2E1E2E1E1E1E1E1E1E1E1E1E1E1E1E1E1E1E1E1E1E1E10F0FE10F0FBE0FE1BEE1E1E1E1E1E1E1E1E1E1E1E1E1E1E1E1E1E1E1E1E1E1E1E1
310
E1E1E1E1E1E1E1E1E1E1E1E1E1E1E1E1E1E1E1E1E1E1E1E1E1E1E1E1E1E1E1E1E1E1E1E1E1E1E1E1E1E1E1E1E1E1E1E1E1E1E1E1E1E1E1E1E1E1E1E1E1E1E1E1E1E1BEE1E1E1E1E1BEBE28E1E1E1E1E1E1E1E1E1E1E1E2E2E20FE2E2E2E2E2E2E2E2E2E2E2E2E1E1E1E1E1E1E1E1E1E1E2E2E2E2E2E2E2E2E2E2E2E2E2E2E2
310
E2E2E2E2E1E1E1E1E1E1E1E1E1E1E1E2E2E2E2E2E2E2E2E2E2E2E20FE2E2E2E1E1E1E1E1E1E1E2E2E2E2E2E2E2E2E2E2E2E2E2E2E2E2E2BEBEBEBEBEBEBEE20FE1BEBEBEBEE1E1E1E1E2E2E2E1E1E1E1E1E1E1E1E1E1E1E1E1E1E1E1E1E1E1BE0FBEBE0F0FBE0FE1BEE1E1E1E1E1E1E1E1E1E1E1E1E1E1E1E1E1E1E1E1E1E1
310
E1E1E1E1E1E1E1E1E1E1E1E1E1E1E1E1E1E1E1E1E1E1E1E1E1E1E1E1E1E1E1E1E1E1E1E1E1E1E1E1E1E1E1E1E1E1E1E1E1E1E1E1E1E1E1E1E1E1E1E1E1E1E1E1E1E1E1E1BEE1E1E1E1E1BEBE28E1E1E1E1E1E1E1E1E1E1E1E2E20F0F0F0F0F0F0F0F0F0F0F0FE2E2E1E1E1E1E1E1E1E1E1E2E2E2E2E20F0F0F0F0F0F0F0F0F
310
0FE2E2E2E2E2E1E1E1E1E1E1E1E1E1E1E1E20F0F0F0F0F0F0F0F0F0F0F0F0FE2E2E1E1E1E1E1E1E2E2BEBE0F0F0F0F0F0F0F0F0F0F0F0FE2E2E2E2E1E1E1E1E1BE0FE1BEBEBEBEBEBEBEE1E2E1E2E1E1E1E1E1E1E1E1E1E1E1E1E1E1E1E1E1E1E1E1E1E10F0F0FBE0FE1BEE1E1E1E1E1E1E1E1E1E1E1E1E1E1E1E1E1E1E1E1
310
E1E1E1E1E1E1E1E1E1E1E1E1E1E1E1E1E1E1E1E1E1E1E1E1E1E1E1E1E1E1E1E1E1E1E1E1E1E1E1E1E1E1E1E1E1E1E1E1E1E1E1E1E1E1E1E1E1E1E1E1E1E1E1E1E1E1E1E1E1E1BEE1E1E1E1E1BEBE28E1E1E1E1E1E1E1E1E1E1BEE2E2BE0FE2BEBEBEBEBEBEBEBEBEE2E2BEE1E1E1E1E1E1E1BEE2E2BEBEBE0FE1E1E1E1BEE1
310
E1E1E10FE2E2E2E2E2E1E1E1E1E1E1E1E1E1BEE2BEBEBEBEBEBEBEBEBEBE0FBEBEE2E2E1E1E1E1E1BEE2BEE2BE0FBEE1E1E1E1BEE1E1E1E10FE2E2E2E2BEE1E1E1E1BE0FE1E1E1E1E1E1E1E1E10F0F0F0F0F0F0F0F0F0F0F0F0F0F0F0F0F0F0F0F0F0FE1E1E1E1E1E1E128E1BEE1E1E1E1E1E1E1E1E1E1E1E1E1E1E1E1E1E1
310
E1E1E1E1E1E1E1E1E1E1E1E1E1E1E1E1E1E1E1E1E1E1E1E1E1E1E1E1E1E1E1E1E1E1E1E1E1E1E1E1E1E1E1E1E1E1E1E1E1E1E1E1E1E1E1E1E1E1E1E1E1E1E1E1E1E1E1E1E1E1E1E1BEE1E1E1E1E1E1BE28E1E1E1E1E1E1E1E1E1E1E1E2E2E10FE2E1E1E1E1E1E1E1E1E1E2E2E1E1E1E1E1E1E1E1E1E2E2BEE10F0FE1E1E1E1
310
BEE1E1E1E10FE2E2E2E2E2E1E1E1E1E1E1E1E1E1E1E20FE1E1E1E1E1E1E1E1E20FE1E1E2E2E1E1E1E1E1E1E2E2BEBE0FE1E1E1E1E1BEE1E1E1E10F0FE2E2E2E2E1E1E1E1BE0FE1BEBEBEBEBEBEE1E10F0F0F0F0F0F0F0F0F0F0F0F0F0F0F0F0F0F0F0F0F0FE1E1E1E1E1E1E128E1BEE1E1E1E1E1E1E1E1E1E1E1E1E1E1E1E1
310
E1E1E1E1E1E1E1E1E1E1E1E1E1E1E1E1E1E1E1E1E1E1E1E1E1E1E1E1E1E1E1E1E1E1E1E1E1E1E1E1E1E1E1E1E1E1E1E1E1E1E1E1E1E1E1E1E1E1E1E1E1E1E1E1E1E1E1E1E1E1E1E1E1E1BEE1E1E1E1E1E1BE28E1E1E1E1E1E1E1E1E1E1E1E2E2E10F0F0F0F0F0F0F0F0F0F0FE2E2E1E1E1E1E1E1E1E1E1E2E2BE0F0FE1E1E1
310
E1E1BEE1E1E1E10F0FE2E2E1E2E1E1E1E1E1E1E1E1E1E1E20F0F0F0F0F0F0F0F0F0F0FE1E1E2E2E1E1E1E1E1E1E20F0F0FE1E1E1E1E1E1BEE1E1E1E1E10F0F0FE2E2E1E1E1E1BE0FE1BEBEBEBEBEBEE1E10F0F0F0F0F0F0F0F0F0F0F0F0F0F0F0F0F0FE1E1E1E1E1E1E1E1E1E1E128E1BEE1E1E1E1E1E1E1E1E1E1E1E1E1E1
310
E1E1E1E1E1E1E1E1E1E1E1E1E1E1E1E1E1E1E1E1E1E1E1E1E1E1E1E1E1E1E1E1E1E1E1E1E1E1E1E1E1E1E1E1E1E1E1E1E1E1E1E1E1E1E1E1E1E1E1E1E1E1E1E1E1E1E1E1E1E1E1E1E1E1E1E1BEE1E1E1E1E1E1BE28E1E1E1E1E1E1E1E1E1E1E1E2E20F0F0FE1E1E1E1E1E1E1E1E1E2E2E1E1E1E1E1E1E1E1E1E20F0F0FE1E1
310
E1E1E1E1BEE1E1E1E1E1E10F0FE1E2E1E1E1E1E1E1E1E1E1E1E20FE1E1E1E1E1E1E1E1E20F0F0FE2E2E1E1E1E1E1E1E20FBEE1E1E1E1E1E1E1BEE1E1E1E1E1E1E10F0FE2E1E1E1E1BE0FE1E1E1E1E1E1E1E1E10F0F0F0F0F0F0F0F0F0F0F0F0F0F0F0F0F0FE1E1E1E10F0FE1E1E1E1E128E1BEE1E1E1E1E1E1E1E1E1E1E1E1
310
E1E1E1E1E1E1E1E1E1E1E1E1E1E1E1E1E1E1E1E1E1E1E1E1E1E1E1E1E1E1E1E1E1E1E1E1E1E1E1E1E1E1E1E1E1E1E1E1E1E1E1E1E1E1E1E1E1E1E1E1E1E1E1E1E1E1E1E1E1E1E1E1E1E1E1E1E1E1BEE1E1E1E1E1E1BE28E1E1E1E1E1E1E1E1E1E1E1E2E2E10FE2E1E1E1E1E1E1E10F0FE2E2E1E1E1E1E1E1E1E1E1E20FE1E1
310
E1E1E1E1E1E1BEE1E1E1E1E1E1E10FE1E2E1E1E1E1E1E1E1E1E1E1E20F0F0FE1E1E1E1E1E1E20FE1E1E2E2E1E1E1E1E1E1E20FE2E1E1E1E1E1E10FBE0FE1E1E1E1E1E1E10FE2E1E1E1E1BE0FE1E1E1E1E1E1E1E1E10F0F0F0F0F0F0F0F0F0F0F0F0F0F0F0F0F0F0F0F0F0F0F0FE1E1E1E1E128E1BEE1E1E1E1E1E1E1E1E1E1
310
E1E1E1E1E1E1E1E1E1E1E1E1E1E1E1E1E1E1E1E1E1E1E1E1E1E1E1E1E1E1E1E1E1E1E1E1E1E1E1E1E1E1E1E1E1E1E1E1E1E1E1E1E1E1E1E1E1E1E1E1E1E1E1E1E1E1E1E1E1E1E1E1E1E1E1E1E1E1E1E1BEE1E1E1E1E1E1BE28E1E1E1E1E1E1E1E1E1E1E1E2E2E10FE2E1E1E1E1E1E1BE0F0FE2BEE1E1E1E1E1E1E1E1E1E20F
310
E1E1E1E1E1E1E1E1BEE1E1E1E1E1E1E10FE1E2E1E1E1E1E1E1E1E1E1E1E2BEBE0FBEE1E1E1E1E1E20FE1E1E2E2E1E1E1E1E1E1E20FE2E1E1E1BEBEBEBEBEBEBEBEBEE1E1E1E10FE2E1E1E1E1BE0FE1BEBEBEBEBEBEE1E10F0F0F0F0F0F0F0F0F0F0F0F0F0F0F0F0F0F0F0FE1E1E1E1E1E1E1E1E128E1BEE1E1E1E1E1E1E1E1
310
E1E1E1E1E1E1E1E1E1E1E1E1E1E1E1E1E1E1E1E1E1E1E1E1E1E1E1E1E1E1E1E1E1E1E1E1E1E1E1E1E1E1E1E1E1E1E1E1E1E1E1E1E1E1E1E1E1E1E1E1E1E1E1E1E1E1E1E1E1E1E1E1E1E1E1E1E1E1E1E1E1E1BEE1E1E1E1E1E1BE28E1E1E1E1E1E1E1E1E1E1E1E2E2E10FE2E1E1E1E1E1E1E10F0FE2E2E1E1E1E1E1E1E1E1E1
310
E20FE1E1E1E1E1E1E1E1BEE1E1E1E1E1E1E10FE1E2E1E1E1E1E1E1E1E1E1E1E20F0F0FE1E1E1E1E1E1E20FE1E1E2E2E1E1E1E1E1E1E20FE2E1E1E1E1E1E10FBE0FE1E1E1E1E1E1E10FE2E1E1E1E1BE0F0F0F0F0F0F0F0F0F0F0F0F0F0F0F0F0F0F0F0F0F0F0F0F0F0F0F0F0F0F0F0F0F0F0F0F0F0F0F0FE1BEE1E1E1E1E1E1
310
E1E1E1E1E1E1E1E1E1E1E1E1E1E1E1E1E1E1E1E1E1E1E1E1E1E1E1E1E1E1E1E1E1E1E1E1E1E1E1E1E1E1E1E1E1E1E1E1E1E1E1E1E1E1E1E1E1E1E1E1E1E1E1E1E1E1E1E1E1E1E1E1E1E1E1E1E1E1E1E1E1E1E1E1BEE1E1E1E1E1BEBE28E1E1E1E1E1E1E1E1E1E1E1E2E2E10FE2E1E1E1E1E1E1E1E1E1E2E2E1E1E1E1E1E1E1
310
E1E1E20FE1E1E1E1E1E1E1E1BEE1E1E1E1E1E1E10FE1E2E1E1E1E1E1E1E1E1E1E1E20FE1E1E1E1E1E1E1E1E20FE1E1E2E2E1E1E1E1E1E1E20FE2E1E1E1E1E1E1E1BEE1E1E1E1E1E1E1E10FE2E1E10F0F0F0FE1E1E1E1E1E1E1E1E1E1E1E1E1E1E1E1E1E1E1E1E1E1E1E1E1E1E1E1E1E1E1E1E1E1E1E1E1E128E1BEE1E1E1E1
310
E1E1E1E1E1E1E1E1E1E1E1E1E1E1E1E1E1E1E1E1E1E1E1E1E1E1E1E1E1E1E1E1E1E1E1E1E1E1E1E1E1E1E1E1E1E1E1E1E1E1E1E1E1E1E1E1E1E1E1E1E1E1E1E1E1E1E1E1E1E1E1E1E1E1E1E1E1E1E1E1E1E1E1E1E1E1BEE1E1E1E1E1BEBE28E1E1E1E1E1E1E1E1E1E1BEE2E2BE0FE2BEBEBEBEBEBEBEBEBEE2BEBEE1E1E1E1
310
E1E1E1BEBE0FBEBEBEBEBEBEBEBEBEBEBEBEBEBEBEBE0FBEBEE1E1E1E1E1E1E1E1E1BEE2BEBEBEBEBEBEBEBEBEBE0FBEBEE2E2E1E1E1E1E1BEE20FBEBEBEBEBEBEBEBEE2BEBEBEBEBEBEBEBE0FE2E1E10F0F0F0FE10FE1E1E1E1E1E1E1E1E1E1E1E1E1E1E1E1E1E1E1E1E1E1E1E1E1E1E1E1E1E1E1E1E1E1E1E128E1BEE1E1
310
E1E1E1E1E1E1E1E1E1E1E1E1E1E1E1E1E1E1E1E1E1E1E1E1E1E1E1E1E1E1E1E1E1E1E1E1E1E1E1E1E1E1E1E1E1E1E1E1E1E1E1E1E1E1E1E1E1E1E1E1E1E1E1E1E1E1E1E1E1E1E1E1E1E1E1E1E1E1E1E1E1E1E1E1E1E1E1E1BEE1E1E1E1E1E1BE28E1E1E1E1E1E1E1E1E1E1E1E2E2E10FE2E1E1E1E1E1E1E1E1E1E2E2E1E1E1
310
E1E1E1E1E1E1E20FE1E1E1E1E1E1E1E1BEE1E1E1E1E1E1E10FE1E2E1E1E1E1E1E1E1E1E1E1E20FE1E1E1E1E1E1E1E1E20FE1E1E2E2E1E1E1E1E1E1E20FE2E2E1E1E1E1E1E1BEE1E1E1E1E1E1E1E10FE2E1E10F0F0F0FE1BEBEBEBEBEBEE1E10FE1E1E1E1E1E1E1E1E1E1E1E1E1E1E1E1E1E1E1E1E1E1E1E1E1E1E1E128E1BE
310
E1E1E1E1E1E1E1E1E1E1E1E1E1E1E1E1E1E1E1E1E1E1E1E1E1E1E1E1E1E1E1E1E1E1E1E1E1E1E1E1E1E1E1E1E1E1E1E1E1E1E1E1E1E1E1E1E1E1E1E1E1E1E1E1E1E1E1E1E1E1E1E1E1E1E1E1E1E1E1E1E1E1E1E1E1E1E1E1E1E1BEE1E1E1E1E1BEBE28E1E1E1E1E1E1E1E1E1E1E1E2E2E10FE2E1E1E1E1E1E1E10F0FE2E2E1
310
E1E1E1E1E1E1E1E1E20FE1E1E1E1E1E1E1E1BEE1E1E1E1E1E1E10FE1E2E1E1E1E1E1E1E1E1E1E1E20F0F0FE1E1E1E1E1E1E20FE1E1E2E2E1E1E1E1E1E1E20FE2E1E1E1E1E1E10FBE0FE1E1E1E1E1E1E10FE2E1E1E1E1BE0FE1BEBEBEBEBEBEBEE1E1E1E1E1E1E1E1E1E1E1E1E1E1E1E1E1E1E1E1E1E1E1E1E1E1E1E1E1E128
310
E1BEE1E1E1E1E1E1E1E1E1E1E1E1E1E1E1E1E1E1E1E1E1E1E1E1E1E1E1E1E1E1E1E1E1E1E1E1E1E1E1E1E1E1E1E1E1E1E1E1E1E1E1E1E1E1E1E1E1E1E1E1E1E1E1E1E1E1E1E1E1E1E1E1E1E1E1E1E1E1E1E1E1E1E1E1E1E1E1E1E1E1BEE1E1E1E1E1E1BE28E1E1E1E1E1E1E1E1E1E1E1E2E2E10FE2E1E1E1E1E1E1BE0F0FE2
310
BEE1E1E1E1E1E1E1E1E1E20FE1E1E1E1E1E1E1E1BEE1E1E1E1E1E1E10FE1E2E1E1E1E1E1E1E1E1E1E1E2BEBE0FBEE1E1E1E1E1E20FE1E1E2E2E1E1E1E1E1E1E20FE2E1E1E1BEBEBEBEBEBEBEBEBEE1E1E1E10FE2E1E1E1E1BE0FE10FE1E1E1E1E1E1E1E1E1E1E1E1E1E1E1E1E1E1E1E1E1E1E1E1E1E1E1E1E1E1E1E1E1E1E1
310
E128E1BEE1E1E1E1E1E1E1E1E1E1E1E1E1E1E1E1E1E1E1E1E1E1E1E1E1E1E1E1E1E1E1E1E1E1E1E1E1E1E1E1E1E1E1E1E1E1E1E1E1E1E1E1E1E1E1E1E1E1E1E1E1E1E1E1E1E1E1E1E1E1E1E1E1E1E1E1E1E1E1E1E1E1E1E1E1E1E1E1E1E1BEE1E1E1E1E1BEBE28E1E1E1E1E1E1E1E1E1E1E1E2E2E10FE2E1E1E1E1E1E1E10F
310
0FE2E2E1E1E1E1E1E1E1E1E1E20FE1E1E1E1E1E1E1E1BEE1E1E1E1E1E1E10FE1E2E1E1E1E1E1E1E1E1E1E1E20F0F0FE1E1E1E1E1E1E20FE1E1E2E2E1E1E1E1E1E1E20FE2E1E1E1E1E1E10FBE0FE1E1E1E1E1E1E10FE2E1E1E1E1BE0FE1BEBEBEBEBEBEBEE1E1E1E1E1E1E1E1E1E1E1E1E1E1E1E1E1E1E1E1E1E1E1E1E1E1E1
310
E1E1E128E1BEE1E1E1E1E1E1E1E1E1E1E1E1E1E1E1E1E1E1E1E1E1E1E1E1E1E1E1E1E1E1E1E1E1E1E1E1E1E1E1E1E1E1E1E1E1E1E1E1E1E1E1E1E1E1E1E1E1E1E1E1E1E1E1E1E1E1E1E1E1E1E1E1E1E1E1E1E1E1E1E1E1E1E1E1E1E1E1E1E1E1BEE1E1E1E1E1E1BE28E1E1E1E1E1E1E1E1E1E1E1E2E20F0F0FE1E1E1E1E1E1
310
E1E1E1E2E2E1E1E1E1E1E1E1E1E1E20F0F0FE1E1E1E1E1E1BEE1E1E1E1E10F0F0FE1E2E1E1E1E1E1E1E1E1E1E1E20FE1E1E1E1E1E1E1E1E20F0F0FE2E2E1E1E1E1E1E1E20FBEE1E1E1E1E1E1E1BEE1E1E1E1E1E1BE0F0FE2E1E1E1E1BE0FE1BEBEBEBEBEBEBEBE0FE1E1E1E1E1E1E1E1E1E1E1E1E1E1E1E1E1E1E1E1E1E1E1
310
E1E1E1E1E128E1BEE1E1E1E1E1E1E1E1E1E1E1E1E1E1E1E1E1E1E1E1E1E1E1E1E1E1E1E1E1E1E1E1E1E1E1E1E1E1E1E1E1E1E1E1E1E1E1E1E1E1E1E1E1E1E1E1E1E1E1E1E1E1E1E1E1E1E1E1E1E1E1E1E1E1E1E1E1E1E1E1E1E1E1E1E1E1E1E1E1E1BEE1E1E1E1E1E1BE28E1E1E1E1E1E1E1E1E1E1E1E2E2E10F0F0F0F0F0F
310
0F0F0F0F0FE2E2E1E1E1E1E1E1E1E1E1E2E2BE0F0FE1E1E1E1E1BEE1E1E1E10F0FBEE2E1E2E1E1E1E1E1E1E1E1E1E1E20F0F0F0F0F0F0F0F0F0F0FE1E1E2E2E1E1E1E1E1E1E20F0F0FE1E1E1E1E1E1BEE1E1E1E1E10F0F0FE2E2E1E1E1E1BE0F0F0F0F0F0F0F0F0F0F0F0F0F0F0F0F0F0F0F0F0F0F0F0F0F0F0F0F0F0F0F0F
310
0F0F0F0F0F0F0F0FE1BEE1E1E1E1E1E1E1E1E1E1E1E1E1E1E1E1E1E1E1E1E1E1E1E1E1E1E1E1E1E1E1E1E1E1E1E1E1E1E1E1E1E1E1E1E1E1E1E1E1E1E1E1E1E1E1E1E1E1E1E1E1E1E1E1E1E1E1E1E1E1E1E1E1E1E1E1E1E1E1E1E1E1E1E1E1E1E1E1E1E1BEE1E1E1E1E1E1BE28E1E1E1E1E1E1E1E1E1E1E1E2E2E10FE2E1E1
310
E1E1E1E1E1E1E1E2E2E1E1E1E1E1E1E1E1E1E2E2BEE20F0FE1E1E1E1BEE1E1E1E10FE1BEE2E1E2E1E1E1E1E1E1E1E1E1E1E20FE1E1E1E1E1E1E1E1E20FE1E1E2E2E1E1E1E1E1E1E2E2E2E20FE1E1E1E1E2BEE1E1E1E10F0FE2E2E2E2E1E1E1E1BE0FE1BEBEBEBEBEBEE1E1E1E1E1E1E1E1E1E1E1E1E1E1E1E1E1E1E1E1E1E1
310
E1E1E1E1E1E1E1E1E128E1BEE1E1E1E1E1E1E1E1E1E1E1E1E1E1E1E1E1E1E1E1E1E1E1E1E1E1E1E1E1E1E1E1E1E1E1E1E1E1E1E1E1E1E1E1E1E1E1E1E1E1E1E1E1E1E1E1E1E1E1E1E1E1E1E1E1E1E1E1E1E1E1E1E1E1E1E1E1E1E1E1E1E1E1E1E1E1E1E1E1E1BEE1E1E1E1E1E1BE28E1E1E1E1E1E1E1E1E1E1BEE2E2BE0FBE
310
BEBEBEBEBEBEBEBEBEE2E2BEE1E1E1E1E1E1E1BEE2E2BEE2E20FE1E1E1E1BEE1E1E10F0FBEBEE2E2E2E1E1E1E1E1E1E1E1E1BEE2BEBEBEBEBEBEBEBEBEBE0FBEBEE2E2E1E1E1E1E1BEE2E2E2E20FBEE2E2E2E2BEE2E2BEBE0FE2E2E2E2E2E1E1E1E1BE0FE1BEBEBEBEBEBEE1E1E1E2E2E1E1E1E1E1E1E1E1E1E1E1E1E1E1E1
310
E1E1E1E1E1E1E1E1E1E1E128E1BEE1E1E1E1E1E1E1E1E1E1E1E1E1E1E1E1E1E1E1E1E1E1E1E1E1E1E1E1E1E1E1E1E1E1E1E1E1E1E1E1E1E1E1E1E1E1E1E1E1E1E1E1E1E1E1E1E1E1E1E1E1E1E1E1E1E1E1E1E1E1E1E1E1E1E1E1E1E1E1E1E1E1E1E1E1E1E1E1E1E1BEE1E1E1E1E1BEBE28E1E1E1E1E1E1E1E1E1E1E1E2E20F
310
0F0F0F0F0F0F0F0F0F0F0FE2E2E1E1E1E1E1E1E1E1E1E2E2BEE2E20F0F0F0F0F0F0F0F0F0FE2E2E2E2E2E1E1E1E1E1E1E1E1E1E1E1E20F0F0F0F0F0F0F0F0F0F0F0F0FE2E2E1E1E1E1E1E1BEE2E2E20F0F0F0F0F0F0F0F0F0F0F0FE2E2E2E2BEE1E1E1E1BE0FE1BEBEBEBEBEBEBEBEE1E1E1E1E1E1E1E1E1E1E1E1E1E1E1E1
310
E1E1E1E1E1E1E1E1E1E1E1E1E128E1BEE1E1E1E1E1E1E1E1E1E1E1E1E1E1E1E1E1E1E1E1E1E1E1E1E1E1E1E1E1E1E1E1E1E1E1E1E1E1E1E1E1E1E1E1E1E1E1E1E1E1E1E1E1E1E1E1E1E1E1E1E1E1E1E1E1E1E1E1E1E1E1E1E1E1E1E1E1E1E1E1E1E1E1E1E1E1E1E1E1E1BEE1E1E1E1E1BEBE28E1E1E1E1E1E1E1E1E1E1E1E1
310
E2E20FE2E2E2E2E2E2E2E2E2E2E2E2E1E1E1E1E1E1E1E1E1E1E2E2E2E2E2E2E2E2E2E2E2E2E2E2E2E2E2E2E2E1E1E1E1E1E1E1E1E1E1E1E2E2E2E2E2E2E2E2E2E2E20F0FE2E2E1E1E1E1E1E1E1BEE2E2E2E2E2E2E2E2E2E2E2E2E2E2E2E2E2BEBEBEBEBEBEBEBE0F0F0F0F0F0F0F0F0F0F0F0F0F0F0F0F0F0F0F0F0F0F0F0F
310
0F0F0F0F0F0F0F0F0F0F0F0F0F0F0F0FE1BEE1E1E1E1E1E1E1E1E1E1E1E1E1E1E1E1E1E1E1E1E1E1E1E1E1E1E1E1E1E1E1E1E1E1E1E1E1E1E1E1E1E1E1E1E1E1E1E1E1E1E1E1E1E1E1E1E1E1E1E1E1E1E1E1E1E1E1E1E1E1E1E1E1E1E1E1E1E1E1E1E1E1E1E1E1E1E1E1E1E1BEE1E1E1E1E1BEBE28E1E1E1E1E1E1E1E1E1E1
310
E1E1E1E1E1E1E1E1E1E1E1E1E1E1E1E1E1E1E1E1E1E1E1E1E1E1E1E1BEE1E1E1E1E1E1E1BEE1E1E1E1E1E1BEE1E1E1E1E1E1E1E1E1E1E1E1E1E1E1E1E1E1E1E1E1E1E1E1E1E1E1E1E1E1E1E1E1E1E1BEE1BEE1E1E1E1E1E1E1BEE1E1E1E1E1E1BEE1E1BEE1E1E1E1E1E1E1E1E1E1E1E1E1E1E1E1E1E1E1E1E1E1E1E1E1E1E1
310
E1E1E1E1E1E1E1E1E1E1E1E1E1E1E1E1E128E1BEE1E1E1E1E1E1E1E1E1E1E1E1E1E1E1E1E1E1E1E1E1E1E1E1E1E1E1E1E1E1E1E1E1E1E1E1E1E1E1E1E1E1E1E1E1E1E1E1E1E1E1E1E1E1E1E1E1E1E1E1E1E1E1E1E1E1E1E1E1E1E1E1E1E1E1E1E1E1E1E1E1E1E1E1E1E1E1E1E1E1BEE1E1E1E1E1E1BE28E1E1E1E1E10F0F0F
310
0F0F0FE10F0FE1E1E1E1E1E1E1E1E1E1E1E1E1E1E1E1E1E10FE10F0F0F0FE10FE10F0F0F0F0F0FE1E1E1E1E1E1E1E1E1E1E1E1E1E1E1E1E1E10F0F0F0F0F0FE10FE1E1E1E1E1E1E1E1E1E1E1E1E1E1E1E1BEE1E1E1E1E1E1E1E1E1E1E1E1E1E1E1E1E1E1E1BEE1E1E1E1E1E1E1E1E1E1E1E1E1E1E1E1E1E1E1E1E1E1E1E1E1
310
E1E1E1E1E1E1E1E1E1E1E1E1E1E1E1E1E1E1E128E1BEE1E1E1E1E1E1E1E1E1E1E1E1E1E1E1E1E1E1E1E1E1E1E1E1E1E1E1E1E1E1E1E1E1E1E1E1E1E1E1E1E1E1E1E1E1E1E1E1E1E1E1E1E1E1E1E1E1E1E1E1E1E1E1E1E1E1E1E1E1E1E1E1E1E1E1E1E1E1E1E1E1E1E1E1E1E1E1E1E1E1BEE1E1E1E1E1E1BE28E1E1E1E1E1E1
310
0F0F0F0F0F0FE10FE1E1E1E1E1E1E1E1E1E1E1E1E1E1E1E1E1E10F0F0F0F0F0FE10F0F0FE10F0F0F0F0FE1E1E1E1E1E1E1E1E1E1E1E1E1E1E1E1E10F0F0F0F0F0FE1E10FE1E1E1E1E1E1E1E1E1E1E1E1E1E1E1BEE1E1E1E1E1E1E1E1E1E1E1E1E1E1E1E1E1E1E1BEE1E1E10F0F0F0F0F0FE10F0F0F0F0F0F0F0F0F0F0FE1E1
310
E1E1E1E1E1E1E1E1E1E1E1E1E1E1E1E1E1E1E1E1E128E1BEE1E1E1E1E1E1E1E1E1E1E1E1E1E1E1E1E1E1E1E1E1E1E1E1E1E1E1E1E1E1E1E1E1E1E1E1E1E1E1E1E1E1E1E1E1E1E1E1E1E1E1E1E1E1E1E1E1E1E1E1E1E1E1E1E1E1E1E1E1E1E1E1E1E1E1E1E1E1E1E1E1E1E1E1E1E1E1E1E1E1BEE1E1E1E1E1BEBE28E1E1E1E1
310
E1E10F0F0F0FE1E1E10F0FE1E1E1E1E1E1E1E1E1E1E1E1E1E1E1E1E10F0F0F0F0F0FE10F0FE10F0F0F0F0F0FE1E1E1E1E1E1E1E1E1E1E1E1E1E1E1E1E10F0F0F0F0F0FE10F0FE1E1E1E1E1E1E1E1E1E1E1E1E1E1E1BEE1E1E1E1E1E1E1E1E1E1E1E1E1E1E1E1E1E1E1BEE1E1E10F0F0F0F0F0FE10F0F0F0F0F0F0F0F0F0F0F
310
0FE1E1E1E1E1E1E1E1E1E1E1E1E1E1E1E1E1E1E1E1E1E128E1BEE1E1E1E1E1E1E1E1E1E1E1E1E1E1E1E1E1E1E1E1E1E1E1E1E1E1E1E1E1E1E1E1E1E1E1E1E1E1E1E1E1E1E1E1E1E1E1E1E1E1E1E1E1E1E1E1E1E1E1E1E1E1E1E1E1E1E1E1E1E1E1E1E1E1E1E1E1E1E1E1E1E1E1E1E1E1E1E1E1E1BEE1E1E1E1E1BEBE28E1E1
310
E1E1E1E1E1E1E1E1E1E1E1E1E1E1E1E1E1E1E1E1E1E1E1E1E1E1E1E1E1E1E1E1E1E1E1E1E1E1E1E1E1E1E1E1E1E1E1E1E1E1E1E1E1E1E1E1E1E1E1E1E1E1E1E1E1E1E1E1E1E1E1E1E1E1E1E1E1E1E1E1E1E1E1E1E1E1E1BEBEE1E1E1E1E1E1E1E1E1E1E1E1E1E1E1E1BEE1BEE1E1E10F0F0FE10FE1E10F0FE10F0F0FE1E1E1
310
E1E10FE1E1E1E1E1E1E1E1E1E1E1E1E1E1E1E1E1E1E1E1E1E128E1BEE1E1E1E1E1E1E1E1E1E1E1E1E1E1E1E1E1E1E1E1E1E1E1E1E1E1E1E1E1E1E1E1E1E1E1E1E1E1E1E1E1E1E1E1E1E1E1E1E1E1E1E1E1E1E1E1E1E1E1E1E1E1E1E1E1E1E1E1E1E1E1E1E1E1E1E1E1E1E1E1E1E1E1E1E1E1E1E1E1E1BEE1E1E1E1E1BEBE28
310
E1E1E1E1E10F0F0F0F0F0F0F0FE10F0FE1E1E1E1E1E1E1E1E1E1E1E1E1E1E1E10F0F0F0F0FE10FE10F0FE10F0F0F0F0F0F0F0F0F0F0F0FE1E1E1E1E1E1E1E1E1E10F0F0F0F0F0F0FE1E10FE1E1E1E1E1E1E1E1E1E1E1E1E1E1BEBEBEBEBEBEBEBE0F0F0F0FBEBEBEBEBEBEBEBEE2E1E1E1E1E1E1E1E1E1E1E1E1E1E10FE1E1
310
E1E1E1E1E1E10FE1E1E1E1E1E1E1E1E1E1E1E1E1E1E1E1E1E1E1E128E1BEE1E1E1E1E1E1E1E1E1E1E1E1E1E1E1E1E1E1E1E1E1E1E1E1E1E1E1E1E1E1E1E1E1E1E1E1E1E1E1E1E1E1E1E1E1E1E1E1E1E1E1E1E1E1E1E1E1E1E1E1E1E1E1E1E1E1E1E1E1E1E1E1E1E1E1E1E1E1E1E1E1E1E1E1E1E1E1E1E1E1BEE1E1E1E1E1BE
310
BE28E1E1E1E1E10F0F0F0F0F0F0F0FE10F0F0FE1E1E1E1E1E1E1E1E1E1E1E1E1E1E10F0F0F0F0F0F0FE10F0FE10F0F0F0F0F0F0F0F0F0F0FE10FE1E1E1E1E1E1E1E1E10F0F0F0F0F0F0FE10F0F0FE1E1E1E1E1E1E1E1E1E1E1E1E1E1E1E1E1E1E1E1E10F0F0F0FE1E1E1E1E1E1E1E1E1E1E1E10F0F0F0F0F0F0FE10F0FE10F
310
0F0F0F0F0F0F0F0F0F0FE1E1E1E1E1E1E1E1E1E1E1E1E1E1E1E1E1E1E128E1BEE1E1E1E1E1E1E1E1E1E1E1E1E1E1E1E1E1E1E1E1E1E1E1E1E1E1E1E1E1E1E1E1E1E1E1E1E1E1E1E1E1E1E1E1E1E1E1E1E1E1E1E1E1E1E1E1E1E1E1E1E1E1E1E1E1E1E1E1E1E1E1E1E1E1E1E1E1E1E1E1E1E1E1E1E1E1E1E1E1E1BEE1E1E1E1
310
E1BEBE28E1E1E1E1E1E1E1E1E1E1E1E1E1E1E1E1E1E1E1E1E1E1E1E1E1E1E1E1E1E1E1E10F0FE10F0FE1E1E1E10FE10F0FE1E1E1E10FE1E10F0FE10FE1E1E1E1E1E1E1E1E1E1E1E1E1E1E1E1E1E1E1E1E1E1E1E1E1E1E1E1E1E1E1E1E1E1E1E1E1E1E1E1E10F0F0F0FE1E1E1E1E1E1E1E1E1E1E1E10F0F0F0F0F0F0FE10F0F
310
E10F0F0F0F0F0F0F0F0F0FE10FE1E1E1E1E1E1E1E1E1E1E1E1E1E1E1E1E1E128E1BEE1E1E1E1E1E1E1E1E1E1E1E1E1E1E1E1E1E1E1E1E1E1E1E1E1E1E1E1E1E1E1E1E1E1E1E1E1E1E1E1E1E1E1E1E1E1E1E1E1E1E1E1E1E1E1E1E1E1E1E1E1E1E1E1E1E1E1E1E1E1E1E1E1E1E1E1E1E1E1E1E1E1E1E1E1E1E1E1E1E1BEE1E1
310
E1E1E1BEBE28E1E1E1E1E1E1E1E1E1E1E1E1E1E1E1E1E1E1E1E1E1E1E1E1E1E1E1E1E1E1E1E1E1E1E1E1E1E1E1E1E1E1E1E1E1E1E1E1E1E1E1E1E1E1E1E1E1E1E1E1E1E1E1E1E1E1E1E1E1E1E1E1E1E1E1E1E1E1E1E1E1E1E1E1E1E1E1E1E1E1E1E1E1E1E1E1E1E1E1E1E1E1E1E1E1E1E1E1E1E1E1E1E1E1E1E1E1E1E1E1E1
310
E1E1E1E1E1E1E1E1E1E1E1E1E1E1E1E1E1E1E1E1E1E1E1E1E1E1E1E1E1E1E1E1E128E1BEE1E1E1E1E1E1E1E1E1E1E1E1E1E1E1E1E1E1E1E1E1E1E1E1E1E1E1E1E1E1E1E1E1E1E1E1E1E1E1E1E1E1E1E1E1E1E1E1E1E1E1E1E1E1E1E1E1E1E1E1E1E1E1E1E1E1E1E1E1E1E1E1E1E1E1E1E1E1E1E1E1E1E1E1E1E1E1E1E1E1BE
310
E1E1E1E1E1BEBE28E1E1E1E1E1E1E1E1E1E1E1E1E1E1E1E1E1E1E1E1E1E1E1E1E1E1E1E1E1E1E1E1E1E1E1E1E1E1E1E1E1E1E1E1E1E1E1E1E1E1E1E1E1E1E1E1E1E1E1E1E1E1E1E1E1E1E1E1E1E1E1E1E1E1E1E1E1E1E1E1E1E1E1E1E1E1E1E1E1E1E1E1E1E1E1E1E1E1E1E1E1E1E1E1E1E1E1E1E1E1E1E1E1E1E1E1E1E1E1
310
E1E1E1E1E1E1E1E1E1E1E1E1E1E1E1E1E1E1E1E1E1E1E1E1E1E1E1E1E1E1E1E1E1E1E128E1BEE1E1E1E1E1E1E1E1E1E1E1E1E1E1E1E1E1E1E1E1E1E1E1E1E1E1E1E1E1E1E1E1E1E1E1E1E1E1E1E1E1E1E1E1E1E1E1E1E1E1E1E1E1E1E1E1E1E1E1E1E1E1E1E1E1E1E1E1E1E1E1E1E1E1E1E1E1E1E1E1E1E1E1E1E1E1E1E1E1
310
E1BEE1E1E1E1E1BEBE28E1E1E1E1E1E1E1E1E1E1E1E1E1E1E1E1E1E1E1E1E1E1E1E1E1E1E1E1E1E1E1E1E1E1E1E1E1E1E1E1E1E1E1E1E1E1E1E1E1E1E1E1E1E1E1E1E1E1E1E1E1E1E1E1E1E1E1E1E1E1E1E1E1E1E1E1E1E1E1E1E1E1E1E1E1E1E1E1E1E1E1E1E1E1E1E1E1E1E1E1E1E1E1E1E1E1E1E1E1E1E1E1E1E1E1E1E1
310
E1E1E1E1E1E1E1E1E1E1E1E1E1E1E1E1E1E1E1E1E1E1E1E1E1E1E1E1E1E1E1E1E1E1E1E1E128E1BEE1E1E1E1E1E1E1E1E1E1E1E1E1E1E1E1E1E1E1E1E1E1E1E1E1E1E1E1E1E1E1E1E1E1E1E1E1E1E1E1E1E1E1E1E1E1E1E1E1E1E1E1E1E1E1E1E1E1E1E1E1E1E1E1E1E1E1E1E1E1E1E1E1E1E1E1E1E1E1E1E1E1E1E1E1E1E1
310
E1E1E1BEE1E1E1E1E1BEBE28E1E1E1E1E1E1E1E1E1E1E1E1E1E1E1E1E1E1E1E1E1E1E1E1E1E1E1E1E1E1E1E1E1E1E1E1E1E1E1E1E1E1E1E1E1E1E1E1E1E1E1E1E1E1E1E1E1E1E1E1E1E1E1E1E1E1E1E1E1E1E1E1E1E1E1E1E1E1E1E1E1E1E1E1E1E1E1E1E1E1E1E1E1E1E1E1E1E1E1E1E1E1E1E1E1E1E1E1E1E1E1E1E1E1E1
310
E1E1E1E1E1E1E1E1E1E1E1E1E1E1E1E1E1E1E1E1E1E1E1E1E1E1E1E1E1E1E1E1E1E1E1E1E1E1E128E1BEE1E1E1E1E1E1E1E1E1E1E1E1E1E1E1E1E1E1E1E1E1E1E1E1E1E1E1E1E1E1E1E1E1E1E1E1E1E1E1E1E1E1E1E1E1E1E1E1E1E1E1E1E1E1E1E1E1E1E1E1E1E1E1E1E1E1E1E1E1E1E1E1E1E1E1E1E1E1E1E1E1E1E1E1E1
310
E1E1E1E1E1BEE1E1E1E1E1BEBE28E1E1E1E1E1E1E1E1E1E1E1E1E1E1E1E1E1E1E1E1E1E1E1E1E1E1E1E1E1E1E1E1E1E1E1E1E1E1BEE1E1E1E1E1E1E1BEE1E1E1E1E1E1BEE1E1E1E1E1E1E1E1E1E1E1E1E1E1E1E1E1E1E1E1E1E1E1E1E1E1E1E1E1E1E1E1E1E1E1E1E1E1E1E1E1E1E1E1E1E1E1E1E1E1E1E1E1E1E1E1E1E1E1
310
E1E1E1E1E1E1E1E1E1E1E1E1E1E1E1E1E1E1E1E1E1E1E1E1E1E1E1E1E1E1E1E1E1E1E1E1E1E1E1E1E128E1BEE1E1E1E1E1E1E1E1E1E1E1E1E1E1E1E1E1E1E1E1E1E1E1E1E1E1E1E1E1E1E1E1E1E1E1E1E1E1E1E1E1E1E1E1E1E1E1E1E1E1E1E1E1E1E1E1E1E1E1E1E1E1E1E1E1E1E1E1E1E1E1E1E1E1E1E1E1E1E1E1E1E1E1
310
E1E1E1E1E1E1E1BEE1E1E1E1E1BEBE28E1E1E1E1E1E1E1E1E1E1E1E1E1E1E1E1E1E1E1E1E1E1E1E1E1E1E1E1E1E1E1E1E1E1E1E1E2E2E2E2E2E2E2E2E2E2E2E2E2E2E2E2E2E2E2E2E1E1E1E1E1E1E1E1E1E1E1E1E1E1E1E1E1E1E1E1E1E1E1E1E1E1E1E1E1E1E1E1E1E1E1E1E1E1E1E1E1E1E1E1E1E1E1E1E1E1E1E1E1E1E1
310
E1E1E1E1E1E1E1E1E1E1E1E1E1E1E1E1E1E1E1E1E1E1E1E1E1E1E1E1E1E1E1E1E1E1E1E1E1E1E1E1E1E1E128E1BEE1E1E1E1E1E1E1E1E1E1E1E1E1E1E1E1E1E1E1E1E1E1E1E1E1E1E1E1E1E1E1E1E1E1E1E1E1E1E1E1E1E1E1E1E1E1E1E1E1E1E1E1E1E1E1E1E1E1E1E1E1E1E1E1E1E1E1E1E1E1E1E1E1E1E1E1E1E1E1E1E1
310
E1E1E1E1E1E1E1E1E1BEE1E1E1E1E1E1E128E1E1E1E1E1E1E1E1E1E1E1E1E1E1E1E1E1E1E1E1E1E1E1E1E1E1E1E1E1E1E1E1E1E1E1E1E20FBE0F0F0F0F0F0F0F0F0F0F0F0F0F0FBE0F0FE1E1E1E1E1E1E1E1E1E1E1E1E1E1E1E1E1E1E1E1E1E1E1E1E1E1E1E1E1E1E1E1E1E1E1E1E1E1E1E1E1E1E1E1E1E1E1E1E1E1E1E1E1
310
E1E1E1E1E1E1E1E1E1E1E1E1E1E1E1E1E1E1E1E1E1E1E1E1E1E1E1E1E1E1E1E1E1E1E1E1E1E1E1E1E1E1E1E1E128E1BEE1E1E1E1E1E1E1E1E1E1E1E1E1E1E1E1E1E1E1E1E1E1E1E1E1E1E1E1E1E1E1E1E1E1E1E1E1E1E1E1E1E1E1E1E1E1E1E1E1E1E1E1E1E1E1E1E1E1E1E1E1E1E1E1E1E1E1E1E1E1E1E1E1E1E1E1E1E1E1
310
E1E1E1E1E1E1E1E1E1E1E1BEE1E1E1E1E1E1E128E1E1E1E1E1E1E1E1E1E1E1E1E1E1E1E1E1E1E1E1E1E1E1E1E1E1E1E1E1E1E1E1E1E1E1E1E20FBEE10FE10FE1E10FBE0FE10FE10FE1BEE10FE1E1E1E1E1E1E1E1E1E1E1E1E1E1E1E1E1E1E1E1E1E1E1E1E1E1E1E1E1E1E1E1E1E1E1E1E1E1E1E1E1E1E1E1E1E1E1E1E1E1E1
310
E1E1E1E1E1E1E1E1E1E1E1E1E1E1E1E1E1E1E1E1E1E1E1E1E1E1E1E1E1E1E1E1E1E1E1E1E1E1E1E1E1E1E1E1E1E1E128E1BEE1E1E1E1E1E1E1E1E1E1E1E1E1E1E1E1E1E1E1E1E1E1E1E1E1E1E1E1E1E1E1E1E1E1E1E1E1E1E1E1E1E1E1E1E1E1E1E1E1E1E1E1E1E1E1E1E1E1E1E1E1E1E1E1E1E1E1E1E1E1E1E1E1E1E1E1E1
310
E1E1E1E1E1E1E1E1E1E1E1E1E1BEE1E1E1E1E1E1E128E1E1E1E1E1E1E1E1E1E1E1E1E1E1E1E1E1E1E1E1E1E1E1E1E1E1E1E1E1E1E1E1E1E1E1E1E20FBEE10FE10F0F0F0F0F0F0F0FE10FE1BEE10FE1E1E1E1E1E1E1E1E1E1E1E1E1E1E1E1E1E1E1E1E1E1E1E1E1E1E1E1E1E1E1E1E1E1E1E1E1E1E1E1E1E1E1E1E1E1E1E1E1
310
E1E1E1E1E1E1E1E1E1E1E1E1E1E1E1E1E1E1E1E1E1E1E1E1E1E1E1E1E1E1E1E1E1E1E1E1E1E1E1E1E1E1E1E1E1E1E1E1E128E1BEE1E1E1E1E1E1E1E1E1E1E1E1E1E1E1E1E1E1E1E1E1E1E1E1E1E1E1E1E1E1E1E1E1E1E1E1E1E1E1E1E1E1E1E1E1E1E1E1E1E1E1E1E1E1E1E1E1E1E1E1E1E1E1E1E1E1E1E1E1E1E1E1E1E1E1
310
E1E1E1E1E1E1E1E1E1E1E1E1E1E1E1BEE1E1E1E1E1E1E128E1E1E1E1E1E1E1E1E1E1E1E1E1E1E1E1E1E1E1E1E1E1E1E1E1E1E1E1E1E1E1E1E1E1E1E1E20FBEE10FE1E1E1E1E1BEE1E1E1E10FE1BEE10FE1E1E1E1E1E1E1E1E1E1E1E1E1E1E1E1E1E1E1E1E1E1E1E1E1E1E1E1E1E1E1E1E1E1E1E1E1E1E1E1E1E1E1E1E1E1E1
310
E1E1E1E1E1E1E1E1E1E1E1E1E1E1E1E1E1E1E1E1E1E1E1E1E1E1E1E1E1E1E1E1E1E1E1E1E1E1E1E1E1E1E1E1E1E1E1E1E1E1E128E1BEE1E1E1E1E1E1E1E1E1E1E1E1E1E1E1E1E1E1E1E1E1E1E1E1E1E1E1E1E1E1E1E1E1E1E1E1E1E1E1E1E1E1E1E1E1E1E1E1E1E1E1E1E1E1E1E1E1E1E1E1E1E1E1E1E1E1E1E1E1E1E1E1E1
310
E1E1E1E1E1E1E1E1E1E1E1E1E1E1E1E1E1BEE1E1E1E1E1E1E128E1E1E1E1E1E1E1E1E1E1E1E1E1E1E1E1E1E1E1E1E1E1E1E1E1E1E1E1E1E1E1E1E1E1E1E1E20FBEE10FE1E1E1E1E1BEE1E1E1E10FE1BEE10FE1E1E1E1E1E1E1E1E1E1E1E1E1E1E1E1E1E1E1E1E1E1E1E1E1E1E1E1E1E1E1E1E1E1E1E1E1E1E1E1E1E1E1E1E1
310
E1E1E1E1E1E1E1E1E1E1E1E1E1E1E1E1E1E1E1E1E1E1E1E1E1E1E1E1E1E1E1E1E1E1E1E1E1E1E1E1E1E1E1E1E1E1E1E1E1E1E1E1E128E1BEE1E1E1E1E1E1E1E1E1E1E1E1E1E1E1E1E1E1E1E1E1E1E1E1E1E1E1E1E1E1E1E1E1E1E1E1E1E1E1E1E1E1E1E1E1E1E1E1E1E1E1E1E1E1E1E1E1E1E1E1E1E1E1E1E1E1E1E1E1E1E1
310
E1E1E1E1E1E1E1E1E1E1E1E1E1E1E1E1E1E1E1BEE1E1E1E1E1E1E128E1E1E1E1E1E1E1E1E1E1E1E1E1E1E1E1E1E1E1E1E1E1E1E1E1E1E1E1E1E1E1E1E1E1E1E1E20FBEE10FE1E1E1E1E1BEE1E1E1E10FE1BEE10FE2E1E1E1E1E1E1E1E1E1E1E1E1E1E1E1E1E1E1E1E1E1E1E1E1E1E1E1E1E1E1E1E1E1E1E1E1E1E1E1E1E1E1
310
E1E1E1E1E1E1E1E1E1E1E1E1E1E1E1E1E1E1E1E1E1E1E1E1E1E1E1E1E1E1E1E1E1E1E1E1E1E1E1E1E1E1E1E1E1E1E1E1E1E1E1E1E1E1E128E1BEE1E1E1E1E1E1E1E1E1E1E1E1E1E1E1E1E1E1E1E1E1E1E1E1E1E1E1E1E1E1E1E1E1E1E1E1E1E1E1E1E1E1E1E1E1E1E1E1E1E1E1E1E1E1E1E1E1E1E1E1E1E1E1E1E1E1E1E1E1
310
E1E1E1E1E1E1E1E1E1E1E1E1E1E1E1E1E1E1E1E1E1BEE1E1E1E1E1E1E128E1E1E1E1E1E1E1E1E1E1E1E1E1E1E1E1E1E1E1E1E1E1E1E1E1E1E1E1E1E1E1E1E1E1E1E1E20FBEE10FE1E1E1E1E1BEE1E1E1E10FE1BEE10FE2E1E1E1E1E1E1E1E1E1E1E1E1E1E1E1E1E1E1E1E1E1E1E1E1E1E1E1E1E1E1E1E1E1E1E1E1E1E1E1E1
310
E1E1E1E1E1E1E1E1E1E1E1E1E1E1E1E1E1E1E1E1E1E1E1E1E1E1E1E1E1E1E1E1E1E1E1E1E1E1E1E1E1E1E1E1E1E1E1E1E1E1E1E1E1E1E1E1E128E1BEE1E1E1E1E1E1E1E1E1E1E1E1E1E1E1E1E1E1E1E1E1E1E1E1E1E1E1E1E1E1E1E1E1E1E1E1E1E1E1E1E1E1E1E1E1E1E1E1E1E1E1E1E1E1E1E1E1E1E1E1E1E1E1E1E1E1E1
310
E1E1E1E1E1E1E1E1E1E1E1E1E1E1E1E1E1E1E1E1E1E1E1BEE1E1E1E1E1E1E128E1E1E1E1E1E1E1E1E1E1E1E1E1E1E1E1E1E1E1E1E1E1E1E1E1E1E1E1E1E1E1E1E1E1E1E1E20FBEE10FE1E1E1E1E1BEE1E1E1E10FE1BEE10FE2E1E1E1E1E1E1E1E1E1E1E1E1E1E1E1E1E1E1E1E1E1E1E1E1E1E1E1E1E1E1E1E1E1E1E1E1E1E1
310
E1E1E1E1E1E1E1E1E1E1E1E1E1E1E1E1E1E1E1E1E1E1E1E1E1E1E1E1E1E1E1E1E1E1E1E1E1E1E1E1E1E1E1E1E1E1E1E1E1E1E1E1E1E1E1E1E1E1E128E1BEE1E1E1E1E1E1E1E1E1E1E1E1E1E1E1E1E1E1E1E1E1E1E1E1E1E1E1E1E1E1E1E1E1E1E1E1E1E1E1E1E1E1E1E1E1E1E1E1E1E1E1E1E1E1E1E1E1E1E1E1E1E1E1E1E1
310
E1E1E1E1E1E1E1E1E1E1E1E1E1E1E1E1E1E1E1E1E1E1E1E1E1BEE1E1E1E1E1E1E128E1E1E1E1E1E1E1E1E1E1E1E1E1E1E1E1E1E1E1E1E1E1E1E1E1E1E1E1E1E1E1E1E1E1E1E1E20FBEE10FE1E1E1E1E1BEE1E1E1E10FE1BEE10FE2E1E1E1E1E1E1E1E1E1E1E1E1E1E1E1E1E1E1E1E1E1E1E1E1E1E1E1E1E1E1E1E1E1E1E1E1
310
E1E1E1E1E1E1E1E1E1E1E1E1E1E1E1E1E1E1E1E1E1E1E1E1E1E1E1E1E1E1E1E1E1E1E1E1E1E1E1E1E1E1E1E1E1E1E1E1E1E1E1E1E1E1E1E1E1E1E1E1E128E1BEE1E1E1E1E1E1E1E1E1E1E1E1E1E1E1E1E1E1E1E1E1E1E1E1E1E1E1E1E1E1E1E1E1E1E1E1E1E1E1E1E1E1E1E1E1E1E1E1E1E1E1E1E1E1E1E1E1E1E1E1E1E1E1
310
E1E1E1E1E1E1E1E1E1E1E1E1E1E1E1E1E1E1E1E1E1E1E1E1E1E1E1BEE1E1E1E1E1E1E128E1E1E1E1E1E1E1E1E1E1E1E1E1E1E1E1E1E1E1E1E1E1E1E1E1E1E1E1E1E1E1E1E1E1E1E1E20FBEE20FE2E2E2E2E2E2E2E2E2E20FE2BEE20FE2E1E1E1E1E1E1E1E1E1E1E1E1E1E1E1E1E1E1E1E1E1E1E1E1E1E1E1E1E1E1E1E1E1E1
310
E1E1E1E1E1E1E1E1E1E1E1E1E1E1E1E1E1E1E1E1E1E1E1E1E1E1E1E1E1E1E1E1E1E1E1E1E1E1E1E1E1E1E1E1E1E1E1E1E1E1E1E1E1E1E1E1E1E1E1E1E1E1E128E1BEE1E1E1E1E1E1E1E1E1E1E1E1E1E1E1E1E1E1E1E1E1E1E1E1E1E1E1E1E1E1E1E1E1E1E1E1E1E1E1E1E1E1E1E1E1E1E1E1E1E1E1E1E1E1E1E1E1E1E1E1E1
310
E1E1E1E1E1E1E1E1E1E1E1E1E1E1E1E1E1E1E1E1E1E1E1E1E1E1E1E1E1BEE1E1E1E1E1E1E128E1E1E1E1E1E1E1E1E1E1E1E1E1E1E1E1E1E1E1E1E1E1E1E1E1E1E1E1E1E1E1E1E1E1E1E1E20FBE0F0F0F0F0F0F0F0F0F0F0F0F0F0FBE0F0FE2E1E1E1E1E1E1E1E1E1E1E1E1E1E1E1E1E1E1E1E1E1E1E1E1E1E1E1E1E1E1E1E1
310
E1E1E1E1E1E1E1E1E1E1E1E1E1E1E1E1E1E1E1E1E1E1E1E1E1E1E1E1E1E1E1E1E1E1E1E1E1E1E1E1E1E1E1E1E1E1E1E1E1E1E1E1E1E1E1E1E1E1E1E1E1E1E1E1E128E1BEE1E1E1E1E1E1E1E1E1E1E1E1E1E1E1E1E1E1E1E1E1E1E1E1E1E1E1E1E1E1E1E1E1E1E1E1E1E1E1E1E1E1E1E1E1E1E1E1E1E1E1E1E1E1E1E1E1E1E1
310
E1E1E1E1E1E1E1E1E1E1E1E1E1E1E1E1E1E1E1E1E1E1E1E1E1E1E1E1E1E1E1BEE1E1E1E1E1E1E128E1E1E1E1E1E1E1E1E1E1E1E1E1E1E1E1E1E1E1E1E1E1E1E1E1E1E1E1E1E1E1E1E1E1E1E10F0FBEBEE10FE1E1E1E1BEE1E1E1E10FE1BE0F0FE2E1E1E1E1E1E1E1E1E1E1E1E1E1E1E1E1E1E1E1E1E1E1E1E1E1E1E1E1E1E1
310
E1E1E1E1E1E1E1E1E1E1E1E1E1E1E1E1E1E1E1E1E1E1E1E1E1E1E1E1E1E1E1E1E1E1E1E1E1E1E1E1E1E1E1E1E1E1E1E1E1E1E1E1E1E1E1E1E1E1E1E1E1E1E1E1E1E1E128E1BEE1E1E1E1E1E1E1E1E1E1E1E1E1E1E1E1E1E1E1E1E1E1E1E1E1E1E1E1E1E1E1E1E1E1E1E1E1E1E1E1E1E1E1E1E1E1E1E1E1E1E1E1E1E1E1E1E1
310
E1E1E1E1E1E1E1E1E1E1E1E1E1E1E1E1E1E1E1E1E1E1E1E1E1E1E1E1E1E1E1E1E1BEE1E1E1E1E1E1E128E1E1E1E1E1E1E1E1E1E1E1E1E1E1E1E1E1E1E1E1E1E1E1E1E1E1E1E1E1E1E1E1E1E1E1E1E2E2E2E2E2E2E2E2E2E2E2E2E2E2E2E2E2BE0FE1E2E1E1E1E1E1E1E1E1E1E1E1E1E1E1E1E1E1E1E1E1E1E1E1E1E1E1E1E1
310
E1E1E1E1E1E1E1E1E1E1E1E1E1E1E1E1E1E1E1E1E1E1E1E1E1E1E1E1E1E1E1E1E1E1E1E1E1E1E1E1E1E1E1E1E1E1E1E1E1E1E1E1E1E1E1E1E1E1E1E1E1E1E1E1E1E1E1E1E128E1BEE1E1E1E1E1E1E1E1E1E1E1E1E1E1E1E1E1E1E1E1E1E1E1E1E1E1E1E1E1E1E1E1E1E1E1E1E1E1E1E1E1E1E1E1E1E1E1E1E1E1E1E1E1E1E1
310
E1E1E1E1E1E1E1E1E1E1E1E1E1E1E1E1E1E1E1E1E1E1E1E1E1E1E1E1E1E1E1E1E1E1E1BEE1E1E1E1E1E1E128E1E1E1E1E1E1E1E1E1E1E1E1E1E1E1E1E1E1E1E1E1E1E1E1E1E1E1E1E1E1E1E1E1E1E1E1E2E2E2E2E2E2E2E2E2E2BEE2E2E2E2E2E2E2E2E2E2E1E1E1E1E1E1E1E1E1E1E1E1E1E1E1E1E1E1E1E1E1E1E1E1E1E1
310
E1E1E1E1E1E1E1E1E1E1E1E1E1E1E1E1E1E1E1E1E1E1E1E1E1E1E1E1E1E1E1E1E1E1E1E1E1E1E1E1E1E1E1E1E1E1E1E1E1E1E1E1E1E1E1E1E1E1E1E1E1E1E1E1E1E1E1E1E1E1E128E1BEE1E1E1E1E1E1E1E1E1E1E1E1E1E1E1E1E1E1E1E1E1E1E1E1E1E1E1E1E1E1E1E1E1E1E1E1E1E1E1E1E1E1E1E1E1E1E1E1E1E1E1E1E1
310
E1E1E1E1E1E1E1E1E1E1E1E1E1E1E1E1E1E1E1E1E1E1E1E1E1E1E1E1E1E1E1E1E1E1E1E1E1BEE1E1E1E1E1E1E128E1E1E1E1E1E1E1E1E1E1E1E1E1E1E1E1E1E1E1E1E1E1E1E1E1E1E1E1E1E1E1E1E1E1E1E1E1E1E1BEE1E1E1E1E1E1BEE1E1E1E1E1E1BEE1E1E1E1E1E1E1E1E1E1E1E1E1E1E1E1E1E1E1E1E1E1E1E1E1E1E1
310
E1E1E1E1E1E1E1E1E1E1E1E1E1E1E1E1E1E1E1E1E1E1E1E1E1E1E1E1E1E1E1E1E1E1E1E1E1E1E1E1E1E1E1E1E1E1E1E1E1E1E1E1E1E1E1E1E1E1E1E1E1E1E1E1E1E1E1E1E1E1E1E1E128E1BEE1E1E1E1E1E1E1E1E1E1E1E1E1E1E1E1E1E1E1E1E1E1E1E1E1E1E1E1E1E1E1E1E1E1E1E1E1E1E1E1E1E1E1E1E1E1E1E1E1E1E1
310
E1E1E1E1E1E1E1E1E1E1E1E1E1E1E1E1E1E1E1E1E1E1E1E1E1E1E1E1E1E1E1E1E1E1E1E1E1E1E1BEE1E1E1E1E1E1E128E1E1E1E1E1E1E1E1E1E1E1E1E1E1E1E1E1E1E1E1E1E1E1E1E1E1E1E1E1E1E1E1E1E1E1E1E1E1E1E1E1E1E1E1E1E1E1E1E1E1E1E1E1E1E1E1E1E1E1E1E1E1E1E1E1E1E1E1E1E1E1E1E1E1E1E1E1E1E1
310
E1E1E1E1E1E1E1E1E1E1E1E1E1E1E1E1E1E1E1E1E1E1E1E1E1E1E1E1E1E1E1E1E1E1E1E1E1E1E1E1E1E1E1E1E1E1E1E1E1E1E1E1E1E1E1E1E1E1E1E1E1E1E1E1E1E1E1E1E1E1E1E1E1E1E128E1BEE1E1E1E1E1E1E1E1E1E1E1E1E1E1E1E1E1E1E1E1E1E1E1E1E1E1E1E1E1E1E1E1E1E1E1E1E1E1E1E1E1E1E1E1E1E1E1E1E1
310
E1E1E1E1E1E1E1E1E1E1E1E1E1E1E1E1E1E1E1E1E1E1E1E1E1E1E1E1E1E1E1E1E1E1E1E1E1E1E1E1E1BEE1E1E1E1E1E1E128E1E1E1E1E1E1E1E1E1E1E1E1E1E1E1E1E1E1E1E1E1E1E1E1E1E1E1E1E10F0F0F0F0F0FE10F0FE1E1E1E1E1E1E1E1E1E1E1E1E1E1E1E1E1E1E1E1E1E1E1E1E1E1E1E1E1E1E1E1E1E1E1E1E1E1E1
310
E1E1E1E1E1E1E1E1E1E1E1E1E1E1E1E1E1E1E1E1E1E1E1E1E1E1E1E1E1E1E1E1E1E1E1E1E1E1E1E1E1E1E1E1E1E1E1E1E1E1E1E1E1E1E1E1E1E1E1E1E1E1E1E1E1E1E1E1E1E1E1E1E1E1E1E1E128E1BEE1E1E1E1E1E1E1E1E1E1E1E1E1E1E1E1E1E1E1E1E1E1E1E1E1E1E1E1E1E1E1E1E1E1E1E1E1E1E1E1E1E1E1E1E1E1E1
310
E1E1E1E1E1E1E1E1E1E1E1E1E1E1E1E1E1E1E1E1E1E1E1E1E1E1E1E1E1E1E1E1E1E1E1E1E1E1E1E1E1E1E1BEE1E1E1E1E1E1E128E1E1E1E1E1E1E1E1E1E1E1E1E1E1E1E1E1E1E1E1E1E1E1E1E1E1E1E1E1E10F0F0F0F0F0F0F0FE1E1E1E1E1E1E1E1E1E1E1E1E1E1E1E1E1E1E1E1E1E1E1E1E1E1E1E1E1E1E1E1E1E1E1E1E1
310
E1E1E1E1E1E1E1E1E1E1E1E1E1E1E1E1E1E1E1E1E1E1E1E1E1E1E1E1E1E1E1E1E1E1E1E1E1E1E1E1E1E1E1E1E1E1E1E1E1E1E1E1E1E1E1E1E1E1E1E1E1E1E1E1E1E1E1E1E1E1E1E1E1E1E1E1E1E1E128E1BEE1E1E1E1E1E1E1E1E1E1E1E1E1E1E1E1E1E1E1E1E1E1E1E1E1E1E1E1E1E1E1E1E1E1E1E1E1E1E1E1E1E1E1E1E1
310
E1E1E1E1E1E1E1E1E1E1E1E1E1E1E1E1E1E1E1E1E1E1E1E1E1E1E1E1E1E1E1E1E1E1E1E1E1E1E1E1E1E1E1E1E1BEE1E1E1E1E1E1E128E1E1E1E1E1E1E1E1E1E1E1E1E1E1E1E1E1E1E1E1E1E1E1E1E1E1E1E1E1E10F0F0F0FE1E1E10FE1E1E1E1E1E1E1E1E1E1E1E1E1E1E1E1E1E1E1E1E1E1E1E1E1E1E1E1E1E1E1E1E1E1E1
310
E1E1E1E1E1E1E1E1E1E1E1E1E1E1E1E1E1E1E1E1E1E1E1E1E1E1E1E1E1E1E1E1E1E1E1E1E1E1E1E1E1E1E1E1E1E1E1E1E1E1E1E1E1E1E1E1E1E1E1E1E1E1E1E1E1E1E1E1E1E1E1E1E1E1E1E1E1E1E1E1E128E1BEE1E1E1E1E1E1E1E1E1E1E1E1E1E1E1E1E1E1E1E1E1E1E1E1E1E1E1E1E1E1E1E1E1E1E1E1E1E1E1E1E1E1E1
310
E1E1E1E1E1E1E1E1E1E1E1E1E1E1E1E1E1E1E1E1E1E1E1E1E1E1E1E1E1E1E1E1E1E1E1E1E1E1E1E1E1E1E1E1E1E1E1BEE1E1E1E1E1E1E128E1E1E1E1E1E1E1E1E1E1E1E1E1E1E1E1E1E1E1E1E1E1E1E1E1E1E1E1E10F0F0F0F0F0F0F0F0F0F0FE1E1E1E1E1E1E1E1E1E1E1E1E1E1E1E1E1E1E1E1E1E1E1E1E1E1E1E1E1E1E1
310
E1E1E1E1E1E1E1E1E1E1E1E1E1E1E1E1E1E1E1E1E1E1E1E1E1E1E1E1E1E1E1E1E1E1E1E1E1E1E1E1E1E1E1E1E1E1E1E1E1E1E1E1E1E1E1E1E1E1E1E1E1E1E1E1E1E1E1E1E1E1E1E1E1E1E1E1E1E1E1E1E1E1E128E1BEE1E1E1E1E1E1E1E1E1E1E1E1E1E1E1E1E1E1E1E1E1E1E1E1E1E1E1E1E1E1E1E1E1E1E1E1E1E1E1E1E1
310
E1E1E1E1E1E1E1E1E1E1E1E1E1E1E1E1E1E1E1E1E1E1E1E1E1E1E1E1E1E1E1E1E1E1E1E1E1E1E1E1E1E1E1E1E1E1E1E1E1BEE1E1E1E1E1E1E128E1E1E1E1E1E1E1E1E1E1E1E1E1E1E1E1E1E1E1E1E1E1E1E1E1E1E1E1E10F0F0F0F0F0F0F0FE10FE10FE1E1E1E1E1E1E1E1E1E1E1E1E1E1E1E1E1E1E1E1E1E1E1E1E1E1E1E1
310
E1E1E1E1E1E1E1E1E1E1E1E1E1E1E1E1E1E1E1E1E1E1E1E1E1E1E1E1E1E1E1E1E1E1E1E1E1E1E1E1E1E1E1E1E1E1E1E1E1E1E1E1E1E1E1E1E1E1E1E1E1E1E1E1E1E1E1E1E1E1E1E1E1E1E1E1E1E1E1E1E1E1E1E1E128E1BEE1E1E1E1E1E1E1E1E1E1E1E1E1E1E1E1E1E1E1E1E1E1E1E1E1E1E1E1E1E1E1E1E1E1E1E1E1E1E1
310
E1E1E1E1E1E1E1E1E1E1E1E1E1E1E1E1E1E1E1E1E1E1E1E1E1E1E1E1E1E1E1E1E1E1E1E1E1E1E1E1E1E1E1E1E1E1E1E1E1E1E1BEE1E1E1E1E1E1E128E1E1E1E1E1E1E1E1E1E1E1E1E1E1E1E1E1E1E1E1E1E1E1E1E1E1E1E1E10F0F0F0F0F0F0FE10F0FE10FE1E1E1E1E1E1E1E1E1E1E1E1E1E1E1E1E1E1E1E1E1E1E1E1E1E1
310
E1E1E1E1E1E1E1E1E1E1E1E1E1E1E1E1E1E1E1E1E1E1E1E1E1E1E1E1E1E1E1E1E1E1E1E1E1E1E1E1E1E1E1E1E1E1E1E1E1E1E1E1E1E1E1E1E1E1E1E1E1E1E1E1E1E1E1E1E1E1E1E1E1E1E1E1E1E1E1E1E1E1E1E1E1E1E128E1BEE1E1E1E1E1E1E1E1E1E1E1E1E1E1E1E1E1E1E1E1E1E1E1E1E1E1E1E1E1E1E1E1E1E1E1E1E1
310
E1E1E1E1E1E1E1E1E1E1E1E1E1E1E1E1E1E1E1E1E1E1E1E1E1E1E1E1E1E1E1E1E1E1E1E1E1E1E1E1E1E1E1E1E1E1E1E1E1E1E1E1E1BEE1E1E1E1E1E1E128E1E1E1E1E1E1E1E1E1E1E1E1E1E1E1E1E1E1E1E1E1E1E1E1E1E1E1E1E1E1E1E1E1E1E1E1E1E1E1E1E1E1E1E1E1E1E1E1E1E1E1E1E1E1E1E1E1E1E1E1E1E1E1E1E1
310
E1E1E1E1E1E1E1E1E1E1E1E1E1E1E1E1E1E1E1E1E1E1E1E1E1E1E1E1E1E1E1E1E1E1E1E1E1E1E1E1E1E1E1E1E1E1E1E1E1E1E1E1E1E1E1E1E1E1E1E1E1E1E1E1E1E1E1E1E1E1E1E1E1E1E1E1E1E1E1E1E1E1E1E1E1E1E1E1E128E1BEE1E1E1E1E1E1E1E1E1E1E1E1E1E1E1E1E1E1E1E1E1E1E1E1E1E1E1E1E1E1E1E1E1E1E1
310
E1E1E1E1E1E1E1E1E1E1E1E1E1E1E1E1E1E1E1E1E1E1E1E1E1E1E1E1E1E1E1E1E1E1E1E1E1E1E1E1E1E1E1E1E1E1E1E1E1E1E1E1E1E1E1BEE1E1E1E1E1E1E128E1E1E1E1E1E1E1E1E1E1E1E1E1E1E1E1E1E1E1E1E1E1E1E1E1E1E1E1E1E1E1E1E1E1E1E1E1E1E1E1E1E1E1E1E1E1E1E1E1E1E1E1E1E1E1E1E1E1E1E1E1E1E1
310
E1E1E1E1E1E1E1E1E1E1E1E1E1E1E1E1E1E1E1E1E1E1E1E1E1E1E1E1E1E1E1E1E1E1E1E1E1E1E1E1E1E1E1E1E1E1E1E1E1E1E1E1E1E1E1E1E1E1E1E1E1E1E1E1E1E1E1E1E1E1E1E1E1E1E1E1E1E1E1E1E1E1E1E1E1E1E1E1E1E1E128E1BEE1E1E1E1E1E1E1E1E1E1E1E1E1E1E1E1E1E1E1E1E1E1E1E1E1E1E1E1E1E1E1E1E1
310
E1E1E1E1E1E1E1E1E1E1E1E1E1E1E1E1E1E1E1E1E1E1E1E1E1E1E1E1E1E1E1E1E1E1E1E1E1E1E1E1E1E1E1E1E1E1E1E1E1E1E1E1E1E1E1E1E1BEE1E1E1E1E1E1E128E1E1E1E1E1E1E1E1E1E1E1E1E1E1E1E1E1E1E1E1E1E1E1E1E1E1E1E1E1E1E1E1E1E1E1E1E1E1E1E1E1E1E1E1E1E1E1E1E1E1E1E1E1E1E1E1E1E1E1E1E1
310
E1E1E1E1E1E1E1E1E1E1E1E1E1E1E1E1E1E1E1E1E1E1E1E1E1E1E1E1E1E1E1E1E1E1E1E1E1E1E1E1E1E1E1E1E1E1E1E1E1E1E1E1E1E1E1E1E1E1E1E1E1E1E1E1E1E1E1E1E1E1E1E1E1E1E1E1E1E1E1E1E1E1E1E1E1E1E1E1E1E1E1E1E128E1BEE1E1E1E1E1E1E1E1E1E1E1E1E1E1E1E1E1E1E1E1E1E1E1E1E1E1E1E1E1E1E1
310
E1E1E1E1E1E1E1E1E1E1E1E1E1E1E1E1E1E1E1E1E1E1E1E1E1E1E1E1E1E1E1E1E1E1E1E1E1E1E1E1E1E1E1E1E1E1E1E1E1E1E1E1E1E1E1E1E1E1E1BEE1E1E1E1E1E1E128E1E1E1E1E1E1E1E1E1E1E1E1E1E1E1E1E1E1E1E1E1E1E1E1E1E1E1E1E1E1E1E1E1E1E1E1E1E1E1E1E1E1E1E1E1E1E1E1E1E1E1E1E1E1E1E1E1E1E1
310
E1E1E1E1E1E1E1E1E1E1E1E1E1E1E1E1E1E1E1E1E1E1E1E1E1E1E1E1E1E1E1E1E1E1E1E1E1E1E1E1E1E1E1E1E1E1E1E1E1E1E1E1E1E1E1E1E1E1E1E1E1E1E1E1E1E1E1E1E1E1E1E1E1E1E1E1E1E1E1E1E1E1E1E1E1E1E1E1E1E1E1E1E1E1E128E1BEE1E1E1E1E1E1E1E1E1E1E1E1E1E1E1E1E1E1E1E1E1E1E1E1E1E1E1E1E1
310
E1E1E1E1E1E1E1E1E1E1E1E1E1E1E1E1E1E1E1E1E1E1E1E1E1E1E1E1E1E1E1E1E1E1E1E1E1E1E1E1E1E1E1E1E1E1E1E1E1E1E1E1E1E1E1E1E1E1E1E1E1BEE1E1E1E1E1E1E128E1E1E1E1E1E1E1E1E1E1E1E1E1E1E1E1E1E1E1E1E1E1E1E1E1E1E1E1E1E1E1E1E1E1E1E1E1E1E1E1E1E1E1E1E1E1E1E1E1E1E1E1E1E1E1E1E1
310
E1E1E1E1E1E1E1E1E1E1E1E1E1E1E1E1E1E1E1E1E1E1E1E1E1E1E1E1E1E1E1E1E1E1E1E1E1E1E1E1E1E1E1E1E1E1E1E1E1E1E1E1E1E1E1E1E1E1E1E1E1E1E1E1E1E1E1E1E1E1E1E1E1E1E1E1E1E1E1E1E1E1E1E1E1E1E1E1E1E1E1E1E1E1E1E1E128E1BEE1E1E1E1E1E1E1E1E1E1E1E1E1E1E1E1E1E1E1E1E1E1E1E1E1E1E1
310
E1E1E1E1E1E1E1E1E1E1E1E1E1E1E1E1E1E1E1E1E1E1E1E1E1E1E1E1E1E1E1E1E1E1E1E1E1E1E1E1E1E1E1E1E1E1E1E1E1E1E1E1E1E1E1E1E1E1E1E1E1E1E1BEE1E1E1E1E1E1E128E1E1E1E1E1E1E1E1E1E1E1E1E1E1E1E1E1E1E1E1E1E1E1E1E1E1E1E1E1E1E1E1E1E1E1E1E1E1E1E1E1E1E1E1E1E1E1E1E1E1E1E1E1E1E1
310
E1E1E1E1E1E1E1E1E1E1E1E1E1E1E1E1E1E1E1E1E1E1E1E1E1E1E1E1E1E1E1E1E1E1E1E1E1E1E1E1E1E1E1E1E1E1E1E1E1E1E1E1E1E1E1E1E1E1E1E1E1E1E1E1E1E1E1E1E1E1E1E1E1E1E1E1E1E1E1E1E1E1E1E1E1E1E1E1E1E1E1E1E1E1E1E1E1E1E128E1BEE1E1E1E1E1E1E1E1E1E1E1E1E1E1E1E1E1E1E1E1E1E1E1E1E1
310
E1E1E1E1E1E1E1E1E1E1E1E1E1E1E1E1E1E1E1E1E1E1E1E1E1E1E1E1E1E1E1E1E1E1E1E1E1E1E1E1E1E1E1E1E1E1E1E1E1E1E1E1E1E1E1E1E1E1E1E1E1E1E1E1E1BEE1E1E1E1E1E1E128E1E1E1E1E1E1E1E1E1E1E1E1E1E1E1E1E1E1E1E1E1E1E1E1E1E1E1E1E1E1E1E1E1E1E1E1E1E1E1E1E1E1E1E1E1E1E1E1E1E1E1E1E1
310
E1E1E1E1E1E1E1E1E1E1E1E1E1E1E1E1E1E1E1E1E1E1E1E1E1E1E1E1E1E1E1E1E1E1E1E1E1E1E1E1E1E1E1E1E1E1E1E1E1E1E1E1E1E1E1E1E1E1E1E1E1E1E1E1E1E1E1E1E1E1E1E1E1E1E1E1E1E1E1E1E1E1E1E1E1E1E1E1E1E1E1E1E1E1E1E1E1E1E1E1E128E1BEE1E1E1E1E1E1E1E1E1E1E1E1E1E1E1E1E1E1E1E1E1E1E1
310
E1E1E1E1E1E1E1E1E1E1E1E1E1E1E1E1E1E1E1E1E1E1E1E1E1E1E1E1E1E1E1E1E1E1E1E1E1E1E1E1E1E1E1E1E1E1E1E1E1E1E1E1E1E1E1E1E1E1E1E1E1E1E1E1E1E1E1BEE1E1E1E1E1E1E128282828282828282828282828282828282828282828282828282828282828282828282828282828282828282828282828282828
310
2828282828282828282828282828282828282828282828282828282828282828282828282828282828282828282828282828282828282828282828282828282828282828282828282828282828282828282828282828282828282828282828282828282828282828E1BEE1E1E1E1E1E1E1E1E1E1E1E1E1E1E1E1E1E1E1E1E1
310
E1E1E1E1E1E1E1E1E1E1E1E1E1E1E1E1E1E1E1E1E1E1E1E1E1E1E1E1E1E1E1E1E1E1E1E1E1E1E1E1E1E1E1E1E1E1E1E1E1E1E1E1E1E1E1E1E1E1E1E1E1E1E1E1E1E1E1E1E1BEE1E1E1E1E1E1E1E1E1E1E1E1E1E1E1E1E1E1E1E1E1E1E1E1E1E1E1E1E1E1E1E1E1E1E1E1E1E1E1E1E1E1E1E1E1E1E1E1BEE1E1E1E1E1E1E1E1
310
E1E1E1E1E1E1E1E1E1E1E1E1E1E1E1E1E1E1E1E1E1E1E1E1E1E1E1E1E1E1E1E1BEE1E1E1E1E1E1E1E1E1E1E1E1E1E1E1E1E1E1E1E1E1E1E1E1E1E1E1E1E1E1E1E1E1E1E1E1E1E1E1E1E1E1E1E1E1E1E1E1E1E1E1E1E1E1E1E1E1E1E1E1E1E1E1E1E1E1E1E1E1E1E1E1E1E1BEE1E1E1E1E1E1E1E1E1E1E1E1E1E1E1E1E1E1E1
310
E1E1E1E1E1E1E1E1E1E1E1E1E1E1E1E1E1E1E1E1E1E1E1E1E1E1E1E1E1E1E1E1E1E1E1E1E1E1E1E1E1E1E1E1E1E1E1E1E1E1E1E1E1E1E1E1E1E1E1E1E1E1E1E1E1E1E1E1E1E1E1BEBEBEBEBEBEBEBEBEBEBEBEBEBEBEBEBEBEBEBEBEBEBEBEBEBEBEBEBEBEBEBEBEBEBEBEBEBEBEBEBEBEBEBEBEBEBEBEBEBEBEBEBEBEBEBE
310
BEBEBEBEBEBEBEBEBEBEBEBEBEBEBEBEBEBEBEBEBEBEBEBEBEBEBEBEBEBEBEBEBEBEBEBEBEBEBEBEBEBEBEBEBEBEBEBEBEBEBEBEBEBEBEBEBEBEBEBEBEBEBEBEBEBEBEBEBEBEBEBEBEBEBEBEBEBEBEBEBEBEBEBEBEBEBEBEBEBEBEBEBEBEBEBEBEBEBEBEBEBEBEBEBEBEBEBEBEBEE1E1E1E1E1E1E1E1E1E1E1E1E1E1E1E1E1
310
E1E1E1E1E1E1E1E1E1E1E1E1E1E1E1E1E1E1E1E1E1E1E1E1E1E1E1E1
  0
XRECORD
  5
BCC7
102
{ACAD_REACTORS
330
BCC6
102
}
330
BCC6
100
AcDbXrecord
280
     1
102
MATERIAL
148
0.0
149
0.0
149
0.0
 93
        0
 94
       63
282
     0
 72
     1
 77
     1
171
     1
175
     1
179
     1
273
     0
  0
XRECORD
  5
BCC5
102
{ACAD_REACTORS
330
BCC4
102
}
330
BCC4
100
AcDbXrecord
280
     1
102
MATERIAL
148
0.0
149
0.0
149
0.0
 93
        0
 94
       63
282
     0
 72
     1
 77
     1
171
     1
175
     1
179
     1
273
     0
  0
XRECORD
  5
BCC9
102
{ACAD_REACTORS
330
BCC8
102
}
330
BCC8
100
AcDbXrecord
280
     1
102
MATERIAL
148
0.0
149
0.0
149
0.0
 93
        0
 94
       63
282
     0
 72
     1
 77
     1
171
     1
175
     1
179
     1
273
     0
  0
XRECORD
  5
BCC3
102
{ACAD_REACTORS
330
BCC2
102
}
330
BCC2
100
AcDbXrecord
280
     1
102
SHADEPLOT
 70
     1
102
SHADEPLOTRESLEVEL
 70
     2
102
SHADEPLOTCUSTOMDPI
 70
   300
  0
CELLSTYLEMAP
  5
BCB9
102
{ACAD_REACTORS
330
BC7D
102
}
330
BC7D
100
AcDbCellStyleMap
 90
        3
300
CELLSTYLE
  1
TABLEFORMAT_BEGIN
 90
        5
170
     1
 91
        0
 92
    32768
 62
   257
 93
        1
300
CONTENTFORMAT
  1
CONTENTFORMAT_BEGIN
 90
        0
 91
        0
 92
        4
 93
        0
300

 40
0.0
140
1.0
 94
        5
 62
     0
340
10
144
0.25
309
CONTENTFORMAT_END
171
     0
 94
        6
 95
        1
302
GRIDFORMAT
  1
GRIDFORMAT_BEGIN
 90
        0
 91
        1
 62
     0
 92
       -2
340
0
 93
        0
 40
0.045
309
GRIDFORMAT_END
 95
        2
302
GRIDFORMAT
  1
GRIDFORMAT_BEGIN
 90
        0
 91
        1
 62
     0
 92
       -2
340
0
 93
        0
 40
0.045
309
GRIDFORMAT_END
 95
        4
302
GRIDFORMAT
  1
GRIDFORMAT_BEGIN
 90
        0
 91
        1
 62
     0
 92
       -2
340
0
 93
        0
 40
0.045
309
GRIDFORMAT_END
 95
        8
302
GRIDFORMAT
  1
GRIDFORMAT_BEGIN
 90
        0
 91
        1
 62
     0
 92
       -2
340
0
 93
        0
 40
0.045
309
GRIDFORMAT_END
 95
       16
302
GRIDFORMAT
  1
GRIDFORMAT_BEGIN
 90
        0
 91
        1
 62
     0
 92
       -2
340
0
 93
        0
 40
0.045
309
GRIDFORMAT_END
 95
       32
302
GRIDFORMAT
  1
GRIDFORMAT_BEGIN
 90
        0
 91
        1
 62
     0
 92
       -2
340
0
 93
        0
 40
0.045
309
GRIDFORMAT_END
309
TABLEFORMAT_END
  1
CELLSTYLE_BEGIN
 90
        1
 91
        1
300
_TITLE
309
CELLSTYLE_END
300
CELLSTYLE
  1
TABLEFORMAT_BEGIN
 90
        5
170
     1
 91
        0
 92
        0
 62
   257
 93
        1
300
CONTENTFORMAT
  1
CONTENTFORMAT_BEGIN
 90
        0
 91
        0
 92
        4
 93
        0
300

 40
0.0
140
1.0
 94
        5
 62
     0
340
10
144
0.18
309
CONTENTFORMAT_END
171
     0
 94
        6
 95
        1
302
GRIDFORMAT
  1
GRIDFORMAT_BEGIN
 90
        0
 91
        1
 62
     0
 92
       -2
340
0
 93
        0
 40
0.045
309
GRIDFORMAT_END
 95
        2
302
GRIDFORMAT
  1
GRIDFORMAT_BEGIN
 90
        0
 91
        1
 62
     0
 92
       -2
340
0
 93
        0
 40
0.045
309
GRIDFORMAT_END
 95
        4
302
GRIDFORMAT
  1
GRIDFORMAT_BEGIN
 90
        0
 91
        1
 62
     0
 92
       -2
340
0
 93
        0
 40
0.045
309
GRIDFORMAT_END
 95
        8
302
GRIDFORMAT
  1
GRIDFORMAT_BEGIN
 90
        0
 91
        1
 62
     0
 92
       -2
340
0
 93
        0
 40
0.045
309
GRIDFORMAT_END
 95
       16
302
GRIDFORMAT
  1
GRIDFORMAT_BEGIN
 90
        0
 91
        1
 62
     0
 92
       -2
340
0
 93
        0
 40
0.045
309
GRIDFORMAT_END
 95
       32
302
GRIDFORMAT
  1
GRIDFORMAT_BEGIN
 90
        0
 91
        1
 62
     0
 92
       -2
340
0
 93
        0
 40
0.045
309
GRIDFORMAT_END
309
TABLEFORMAT_END
  1
CELLSTYLE_BEGIN
 90
        2
 91
        1
300
_HEADER
309
CELLSTYLE_END
300
CELLSTYLE
  1
TABLEFORMAT_BEGIN
 90
        5
170
     1
 91
        0
 92
        0
 62
   257
 93
        1
300
CONTENTFORMAT
  1
CONTENTFORMAT_BEGIN
 90
        0
 91
        0
 92
        4
 93
        0
300

 40
0.0
140
1.0
 94
        2
 62
     0
340
10
144
0.18
309
CONTENTFORMAT_END
171
     0
 94
        6
 95
        1
302
GRIDFORMAT
  1
GRIDFORMAT_BEGIN
 90
        0
 91
        1
 62
     0
 92
       -2
340
0
 93
        0
 40
0.045
309
GRIDFORMAT_END
 95
        2
302
GRIDFORMAT
  1
GRIDFORMAT_BEGIN
 90
        0
 91
        1
 62
     0
 92
       -2
340
0
 93
        0
 40
0.045
309
GRIDFORMAT_END
 95
        4
302
GRIDFORMAT
  1
GRIDFORMAT_BEGIN
 90
        0
 91
        1
 62
     0
 92
       -2
340
0
 93
        0
 40
0.045
309
GRIDFORMAT_END
 95
        8
302
GRIDFORMAT
  1
GRIDFORMAT_BEGIN
 90
        0
 91
        1
 62
     0
 92
       -2
340
0
 93
        0
 40
0.045
309
GRIDFORMAT_END
 95
       16
302
GRIDFORMAT
  1
GRIDFORMAT_BEGIN
 90
        0
 91
        1
 62
     0
 92
       -2
340
0
 93
        0
 40
0.045
309
GRIDFORMAT_END
 95
       32
302
GRIDFORMAT
  1
GRIDFORMAT_BEGIN
 90
        0
 91
        1
 62
     0
 92
       -2
340
0
 93
        0
 40
0.045
309
GRIDFORMAT_END
309
TABLEFORMAT_END
  1
CELLSTYLE_BEGIN
 90
        3
 91
        2
300
_DATA
309
CELLSTYLE_END
  0
XRECORD
  5
BCBE
102
{ACAD_REACTORS
330
BC7D
102
}
330
BC7D
100
AcDbXrecord
280
     1
102
ACAD_ROUNDTRIP_PRE2007_TABLESTYLE
 90
        4
 91
        0
  1

 92
        4
 93
        0
  2

 94
        4
 95
        0
  3

  0
XRECORD
  5
BCD5
102
{ACAD_REACTORS
330
BCD4
102
}
330
BCD4
100
AcDbXrecord
280
     1
102
RTVSPropertyOp0
 70
     1
102
RTVSPropertyOp1
 70
     1
102
RTVSPropertyOp2
 70
     1
102
RTVSPropertyOp3
 70
     1
102
RTVSPropertyOp4
 70
     1
102
RTVSPropertyOp5
 70
     1
102
RTVSPropertyOp6
 70
     1
102
RTVSPropertyOp7
 70
     1
102
RTVSPropertyOp8
 70
     1
102
RTVSPropertyOp9
 70
     1
102
RTVSPropertyOp10
 70
     1
102
RTVSPropertyOp11
 70
     1
102
RTVSPropertyOp12
 70
     1
102
RTVSPropertyOp13
 70
     1
102
RTVSPropertyOp14
 70
     1
102
RTVSPropertyOp15
 70
     1
102
RTVSPropertyOp16
 70
     1
102
RTVSPropertyOp17
 70
     1
102
RTVSPropertyOp18
 70
     1
102
RTVSPropertyOp19
 70
     1
102
RTVSPropertyOp20
 70
     1
102
RTVSPropertyOp21
 70
     1
102
RTVSPropertyOp22
 70
     1
102
RTVSPropertyOp23
 70
     1
102
RTVSPropertyOp24
 70
     1
102
RTVSPropertyOp25
 70
     1
102
RTVSPropertyOp26
 70
     1
102
RTVSPropertyOp27
 70
     1
  0
XRECORD
  5
BCD9
102
{ACAD_REACTORS
330
BCD8
102
}
330
BCD8
100
AcDbXrecord
280
     1
102
RTVSPropertyOp0
 70
     1
102
RTVSPropertyOp1
 70
     1
102
RTVSPropertyOp2
 70
     1
102
RTVSPropertyOp3
 70
     1
102
RTVSPropertyOp4
 70
     1
102
RTVSPropertyOp5
 70
     1
102
RTVSPropertyOp6
 70
     1
102
RTVSPropertyOp7
 70
     1
102
RTVSPropertyOp8
 70
     1
102
RTVSPropertyOp9
 70
     1
102
RTVSPropertyOp10
 70
     1
102
RTVSPropertyOp11
 70
     1
102
RTVSPropertyOp12
 70
     1
102
RTVSPropertyOp13
 70
     1
102
RTVSPropertyOp14
 70
     1
102
RTVSPropertyOp15
 70
     1
102
RTVSPropertyOp16
 70
     1
102
RTVSPropertyOp17
 70
     1
102
RTVSPropertyOp18
 70
     1
102
RTVSPropertyOp19
 70
     1
102
RTVSPropertyOp20
 70
     1
102
RTVSPropertyOp21
 70
     1
102
RTVSPropertyOp22
 70
     1
102
RTVSPropertyOp23
 70
     1
102
RTVSPropertyOp24
 70
     1
102
RTVSPropertyOp25
 70
     1
102
RTVSPropertyOp26
 70
     1
102
RTVSPropertyOp27
 70
     1
  0
XRECORD
  5
BCD7
102
{ACAD_REACTORS
330
BCD6
102
}
330
BCD6
100
AcDbXrecord
280
     1
102
RTVSPropertyOp0
 70
     1
102
RTVSPropertyOp1
 70
     1
102
RTVSPropertyOp2
 70
     1
102
RTVSPropertyOp3
 70
     1
102
RTVSPropertyOp4
 70
     1
102
RTVSPropertyOp5
 70
     1
102
RTVSPropertyOp6
 70
     1
102
RTVSPropertyOp7
 70
     1
102
RTVSPropertyOp8
 70
     1
102
RTVSPropertyOp9
 70
     1
102
RTVSPropertyOp10
 70
     1
102
RTVSPropertyOp11
 70
     1
102
RTVSPropertyOp12
 70
     1
102
RTVSPropertyOp13
 70
     1
102
RTVSPropertyOp14
 70
     1
102
RTVSPropertyOp15
 70
     1
102
RTVSPropertyOp16
 70
     1
102
RTVSPropertyOp17
 70
     1
102
RTVSPropertyOp18
 70
     1
102
RTVSPropertyOp19
 70
     1
102
RTVSPropertyOp20
 70
     1
102
RTVSPropertyOp21
 70
     1
102
RTVSPropertyOp22
 70
     1
102
RTVSPropertyOp23
 70
     1
102
RTVSPropertyOp24
 70
     1
102
RTVSPropertyOp25
 70
     1
102
RTVSPropertyOp26
 70
     1
102
RTVSPropertyOp27
 70
     1
  0
XRECORD
  5
BCD3
102
{ACAD_REACTORS
330
BCD2
102
}
330
BCD2
100
AcDbXrecord
280
     1
102
RTVSPropertyOp0
 70
     1
102
RTVSPropertyOp1
 70
     1
102
RTVSPropertyOp2
 70
     1
102
RTVSPropertyOp3
 70
     1
102
RTVSPropertyOp4
 70
     1
102
RTVSPropertyOp5
 70
     1
102
RTVSPropertyOp6
 70
     1
102
RTVSPropertyOp7
 70
     1
102
RTVSPropertyOp8
 70
     1
102
RTVSPropertyOp9
 70
     1
102
RTVSPropertyOp10
 70
     1
102
RTVSPropertyOp11
 70
     1
102
RTVSPropertyOp12
 70
     1
102
RTVSPropertyOp13
 70
     1
102
RTVSPropertyOp14
 70
     1
102
RTVSPropertyOp15
 70
     1
102
RTVSPropertyOp16
 70
     1
102
RTVSPropertyOp17
 70
     1
102
RTVSPropertyOp18
 70
     1
102
RTVSPropertyOp19
 70
     1
102
RTVSPropertyOp20
 70
     1
102
RTVSPropertyOp21
 70
     1
102
RTVSPropertyOp22
 70
     1
102
RTVSPropertyOp23
 70
     1
102
RTVSPropertyOp24
 70
     1
102
RTVSPropertyOp25
 70
     1
102
RTVSPropertyOp26
 70
     1
102
RTVSPropertyOp27
 70
     1
  0
XRECORD
  5
BCE1
102
{ACAD_REACTORS
330
BCE0
102
}
330
BCE0
100
AcDbXrecord
280
     1
102
RTVSPropertyOp0
 70
     1
102
RTVSPropertyOp1
 70
     1
102
RTVSPropertyOp2
 70
     1
102
RTVSPropertyOp3
 70
     1
102
RTVSPropertyOp4
 70
     1
102
RTVSPropertyOp5
 70
     1
102
RTVSPropertyOp6
 70
     1
102
RTVSPropertyOp7
 70
     1
102
RTVSPropertyOp8
 70
     1
102
RTVSPropertyOp9
 70
     1
102
RTVSPropertyOp10
 70
     1
102
RTVSPropertyOp11
 70
     1
102
RTVSPropertyOp12
 70
     1
102
RTVSPropertyOp13
 70
     1
102
RTVSPropertyOp14
 70
     1
102
RTVSPropertyOp15
 70
     1
102
RTVSPropertyOp16
 70
     1
102
RTVSPropertyOp17
 70
     1
102
RTVSPropertyOp18
 70
     1
102
RTVSPropertyOp19
 70
     1
102
RTVSPropertyOp20
 70
     1
102
RTVSPropertyOp21
 70
     1
102
RTVSPropertyOp22
 70
     1
102
RTVSPropertyOp23
 70
     1
102
RTVSPropertyOp24
 70
     1
102
RTVSPropertyOp25
 70
     1
102
RTVSPropertyOp26
 70
     1
102
RTVSPropertyOp27
 70
     1
  0
XRECORD
  5
BCE9
102
{ACAD_REACTORS
330
BCE8
102
}
330
BCE8
100
AcDbXrecord
280
     1
102
RTVSPropertyOp0
 70
     1
102
RTVSPropertyOp1
 70
     1
102
RTVSPropertyOp2
 70
     1
102
RTVSPropertyOp3
 70
     1
102
RTVSPropertyOp4
 70
     1
102
RTVSPropertyOp5
 70
     1
102
RTVSPropertyOp6
 70
     1
102
RTVSPropertyOp7
 70
     1
102
RTVSPropertyOp8
 70
     1
102
RTVSPropertyOp9
 70
     1
102
RTVSPropertyOp10
 70
     1
102
RTVSPropertyOp11
 70
     1
102
RTVSPropertyOp12
 70
     1
102
RTVSPropertyOp13
 70
     1
102
RTVSPropertyOp14
 70
     1
102
RTVSPropertyOp15
 70
     1
102
RTVSPropertyOp16
 70
     1
102
RTVSPropertyOp17
 70
     1
102
RTVSPropertyOp18
 70
     1
102
RTVSPropertyOp19
 70
     1
102
RTVSPropertyOp20
 70
     1
102
RTVSPropertyOp21
 70
     1
102
RTVSPropertyOp22
 70
     1
102
RTVSPropertyOp23
 70
     1
102
RTVSPropertyOp24
 70
     1
102
RTVSPropertyOp25
 70
     1
102
RTVSPropertyOp26
 70
     1
102
RTVSPropertyOp27
 70
     1
  0
XRECORD
  5
BCDB
102
{ACAD_REACTORS
330
BCDA
102
}
330
BCDA
100
AcDbXrecord
280
     1
102
RTVSPropertyOp0
 70
     1
102
RTVSPropertyOp1
 70
     1
102
RTVSPropertyOp2
 70
     1
102
RTVSPropertyOp3
 70
     1
102
RTVSPropertyOp4
 70
     1
102
RTVSPropertyOp5
 70
     1
102
RTVSPropertyOp6
 70
     1
102
RTVSPropertyOp7
 70
     1
102
RTVSPropertyOp8
 70
     1
102
RTVSPropertyOp9
 70
     1
102
RTVSPropertyOp10
 70
     1
102
RTVSPropertyOp11
 70
     1
102
RTVSPropertyOp12
 70
     1
102
RTVSPropertyOp13
 70
     1
102
RTVSPropertyOp14
 70
     1
102
RTVSPropertyOp15
 70
     1
102
RTVSPropertyOp16
 70
     1
102
RTVSPropertyOp17
 70
     1
102
RTVSPropertyOp18
 70
     1
102
RTVSPropertyOp19
 70
     1
102
RTVSPropertyOp20
 70
     1
102
RTVSPropertyOp21
 70
     1
102
RTVSPropertyOp22
 70
     1
102
RTVSPropertyOp23
 70
     1
102
RTVSPropertyOp24
 70
     1
102
RTVSPropertyOp25
 70
     1
102
RTVSPropertyOp26
 70
     1
102
RTVSPropertyOp27
 70
     1
  0
XRECORD
  5
BCDF
102
{ACAD_REACTORS
330
BCDE
102
}
330
BCDE
100
AcDbXrecord
280
     1
102
RTVSPropertyOp0
 70
     1
102
RTVSPropertyOp1
 70
     1
102
RTVSPropertyOp2
 70
     1
102
RTVSPropertyOp3
 70
     1
102
RTVSPropertyOp4
 70
     1
102
RTVSPropertyOp5
 70
     1
102
RTVSPropertyOp6
 70
     1
102
RTVSPropertyOp7
 70
     1
102
RTVSPropertyOp8
 70
     1
102
RTVSPropertyOp9
 70
     1
102
RTVSPropertyOp10
 70
     1
102
RTVSPropertyOp11
 70
     1
102
RTVSPropertyOp12
 70
     1
102
RTVSPropertyOp13
 70
     1
102
RTVSPropertyOp14
 70
     1
102
RTVSPropertyOp15
 70
     1
102
RTVSPropertyOp16
 70
     1
102
RTVSPropertyOp17
 70
     1
102
RTVSPropertyOp18
 70
     1
102
RTVSPropertyOp19
 70
     1
102
RTVSPropertyOp20
 70
     1
102
RTVSPropertyOp21
 70
     1
102
RTVSPropertyOp22
 70
     1
102
RTVSPropertyOp23
 70
     1
102
RTVSPropertyOp24
 70
     1
102
RTVSPropertyOp25
 70
     1
102
RTVSPropertyOp26
 70
     1
102
RTVSPropertyOp27
 70
     1
  0
XRECORD
  5
BCEF
102
{ACAD_REACTORS
330
BCEE
102
}
330
BCEE
100
AcDbXrecord
280
     1
102
RTVSPropertyOp0
 70
     0
102
RTVSPropertyOp1
 70
     0
102
RTVSPropertyOp2
 70
     0
102
RTVSPropertyOp3
 70
     0
102
RTVSPropertyOp4
 70
     0
102
RTVSPropertyOp5
 70
     0
102
RTVSPropertyOp6
 70
     0
102
RTVSPropertyOp7
 70
     0
102
RTVSPropertyOp8
 70
     0
102
RTVSPropertyOp9
 70
     0
102
RTVSPropertyOp10
 70
     0
102
RTVSPropertyOp11
 70
     0
102
RTVSPropertyOp12
 70
     0
102
RTVSPropertyOp13
 70
     0
102
RTVSPropertyOp14
 70
     2
102
RTVSPropertyOp15
 70
     0
102
RTVSPropertyOp16
 70
     0
102
RTVSPropertyOp17
 70
     0
102
RTVSPropertyOp18
 70
     0
102
RTVSPropertyOp19
 70
     0
102
RTVSPropertyOp20
 70
     0
102
RTVSPropertyOp21
 70
     0
102
RTVSPropertyOp22
 70
     0
102
RTVSPropertyOp23
 70
     0
102
RTVSPropertyOp24
 70
     0
102
RTVSPropertyOp25
 70
     0
102
RTVSPropertyOp26
 70
     0
102
RTVSPropertyOp27
 70
     0
  0
XRECORD
  5
BCE7
102
{ACAD_REACTORS
330
BCE6
102
}
330
BCE6
100
AcDbXrecord
280
     1
102
RTVSPropertyOp0
 70
     1
102
RTVSPropertyOp1
 70
     1
102
RTVSPropertyOp2
 70
     1
102
RTVSPropertyOp3
 70
     1
102
RTVSPropertyOp4
 70
     1
102
RTVSPropertyOp5
 70
     1
102
RTVSPropertyOp6
 70
     1
102
RTVSPropertyOp7
 70
     1
102
RTVSPropertyOp8
 70
     1
102
RTVSPropertyOp9
 70
     1
102
RTVSPropertyOp10
 70
     1
102
RTVSPropertyOp11
 70
     1
102
RTVSPropertyOp12
 70
     1
102
RTVSPropertyOp13
 70
     1
102
RTVSPropertyOp14
 70
     1
102
RTVSPropertyOp15
 70
     1
102
RTVSPropertyOp16
 70
     1
102
RTVSPropertyOp17
 70
     1
102
RTVSPropertyOp18
 70
     1
102
RTVSPropertyOp19
 70
     1
102
RTVSPropertyOp20
 70
     1
102
RTVSPropertyOp21
 70
     1
102
RTVSPropertyOp22
 70
     1
102
RTVSPropertyOp23
 70
     1
102
RTVSPropertyOp24
 70
     1
102
RTVSPropertyOp25
 70
     1
102
RTVSPropertyOp26
 70
     1
102
RTVSPropertyOp27
 70
     1
  0
XRECORD
  5
BCCB
102
{ACAD_REACTORS
330
BCCA
102
}
330
BCCA
100
AcDbXrecord
280
     1
102
RTVSPropertyOp0
 70
     1
102
RTVSPropertyOp1
 70
     1
102
RTVSPropertyOp2
 70
     1
102
RTVSPropertyOp3
 70
     1
102
RTVSPropertyOp4
 70
     1
102
RTVSPropertyOp5
 70
     1
102
RTVSPropertyOp6
 70
     1
102
RTVSPropertyOp7
 70
     1
102
RTVSPropertyOp8
 70
     1
102
RTVSPropertyOp9
 70
     1
102
RTVSPropertyOp10
 70
     1
102
RTVSPropertyOp11
 70
     1
102
RTVSPropertyOp12
 70
     1
102
RTVSPropertyOp13
 70
     1
102
RTVSPropertyOp14
 70
     1
102
RTVSPropertyOp15
 70
     1
102
RTVSPropertyOp16
 70
     1
102
RTVSPropertyOp17
 70
     1
102
RTVSPropertyOp18
 70
     1
102
RTVSPropertyOp19
 70
     1
102
RTVSPropertyOp20
 70
     1
102
RTVSPropertyOp21
 70
     1
102
RTVSPropertyOp22
 70
     1
102
RTVSPropertyOp23
 70
     1
102
RTVSPropertyOp24
 70
     1
102
RTVSPropertyOp25
 70
     1
102
RTVSPropertyOp26
 70
     1
102
RTVSPropertyOp27
 70
     1
  0
XRECORD
  5
BCCD
102
{ACAD_REACTORS
330
BCCC
102
}
330
BCCC
100
AcDbXrecord
280
     1
102
RTVSPropertyOp0
 70
     1
102
RTVSPropertyOp1
 70
     1
102
RTVSPropertyOp2
 70
     1
102
RTVSPropertyOp3
 70
     1
102
RTVSPropertyOp4
 70
     1
102
RTVSPropertyOp5
 70
     1
102
RTVSPropertyOp6
 70
     1
102
RTVSPropertyOp7
 70
     1
102
RTVSPropertyOp8
 70
     1
102
RTVSPropertyOp9
 70
     1
102
RTVSPropertyOp10
 70
     1
102
RTVSPropertyOp11
 70
     1
102
RTVSPropertyOp12
 70
     1
102
RTVSPropertyOp13
 70
     1
102
RTVSPropertyOp14
 70
     1
102
RTVSPropertyOp15
 70
     1
102
RTVSPropertyOp16
 70
     1
102
RTVSPropertyOp17
 70
     1
102
RTVSPropertyOp18
 70
     1
102
RTVSPropertyOp19
 70
     1
102
RTVSPropertyOp20
 70
     1
102
RTVSPropertyOp21
 70
     1
102
RTVSPropertyOp22
 70
     1
102
RTVSPropertyOp23
 70
     1
102
RTVSPropertyOp24
 70
     1
102
RTVSPropertyOp25
 70
     1
102
RTVSPropertyOp26
 70
     1
102
RTVSPropertyOp27
 70
     1
  0
XRECORD
  5
BCCF
102
{ACAD_REACTORS
330
BCCE
102
}
330
BCCE
100
AcDbXrecord
280
     1
102
RTVSPropertyOp0
 70
     1
102
RTVSPropertyOp1
 70
     1
102
RTVSPropertyOp2
 70
     1
102
RTVSPropertyOp3
 70
     1
102
RTVSPropertyOp4
 70
     1
102
RTVSPropertyOp5
 70
     1
102
RTVSPropertyOp6
 70
     1
102
RTVSPropertyOp7
 70
     1
102
RTVSPropertyOp8
 70
     1
102
RTVSPropertyOp9
 70
     1
102
RTVSPropertyOp10
 70
     1
102
RTVSPropertyOp11
 70
     1
102
RTVSPropertyOp12
 70
     1
102
RTVSPropertyOp13
 70
     1
102
RTVSPropertyOp14
 70
     1
102
RTVSPropertyOp15
 70
     1
102
RTVSPropertyOp16
 70
     1
102
RTVSPropertyOp17
 70
     1
102
RTVSPropertyOp18
 70
     1
102
RTVSPropertyOp19
 70
     1
102
RTVSPropertyOp20
 70
     1
102
RTVSPropertyOp21
 70
     1
102
RTVSPropertyOp22
 70
     1
102
RTVSPropertyOp23
 70
     1
102
RTVSPropertyOp24
 70
     1
102
RTVSPropertyOp25
 70
     1
102
RTVSPropertyOp26
 70
     1
102
RTVSPropertyOp27
 70
     1
  0
XRECORD
  5
BCD1
102
{ACAD_REACTORS
330
BCD0
102
}
330
BCD0
100
AcDbXrecord
280
     1
102
RTVSPropertyOp0
 70
     1
102
RTVSPropertyOp1
 70
     1
102
RTVSPropertyOp2
 70
     1
102
RTVSPropertyOp3
 70
     1
102
RTVSPropertyOp4
 70
     1
102
RTVSPropertyOp5
 70
     1
102
RTVSPropertyOp6
 70
     1
102
RTVSPropertyOp7
 70
     1
102
RTVSPropertyOp8
 70
     1
102
RTVSPropertyOp9
 70
     1
102
RTVSPropertyOp10
 70
     1
102
RTVSPropertyOp11
 70
     1
102
RTVSPropertyOp12
 70
     1
102
RTVSPropertyOp13
 70
     1
102
RTVSPropertyOp14
 70
     1
102
RTVSPropertyOp15
 70
     1
102
RTVSPropertyOp16
 70
     1
102
RTVSPropertyOp17
 70
     1
102
RTVSPropertyOp18
 70
     1
102
RTVSPropertyOp19
 70
     1
102
RTVSPropertyOp20
 70
     1
102
RTVSPropertyOp21
 70
     1
102
RTVSPropertyOp22
 70
     1
102
RTVSPropertyOp23
 70
     1
102
RTVSPropertyOp24
 70
     1
102
RTVSPropertyOp25
 70
     1
102
RTVSPropertyOp26
 70
     1
102
RTVSPropertyOp27
 70
     1
  0
XRECORD
  5
BCEB
102
{ACAD_REACTORS
330
BCEA
102
}
330
BCEA
100
AcDbXrecord
280
     1
102
RTVSPropertyOp0
 70
     0
102
RTVSPropertyOp1
 70
     0
102
RTVSPropertyOp2
 70
     0
102
RTVSPropertyOp3
 70
     0
102
RTVSPropertyOp4
 70
     0
102
RTVSPropertyOp5
 70
     0
102
RTVSPropertyOp6
 70
     0
102
RTVSPropertyOp7
 70
     0
102
RTVSPropertyOp8
 70
     0
102
RTVSPropertyOp9
 70
     0
102
RTVSPropertyOp10
 70
     0
102
RTVSPropertyOp11
 70
     0
102
RTVSPropertyOp12
 70
     0
102
RTVSPropertyOp13
 70
     0
102
RTVSPropertyOp14
 70
     2
102
RTVSPropertyOp15
 70
     0
102
RTVSPropertyOp16
 70
     0
102
RTVSPropertyOp17
 70
     0
102
RTVSPropertyOp18
 70
     0
102
RTVSPropertyOp19
 70
     0
102
RTVSPropertyOp20
 70
     0
102
RTVSPropertyOp21
 70
     0
102
RTVSPropertyOp22
 70
     0
102
RTVSPropertyOp23
 70
     0
102
RTVSPropertyOp24
 70
     0
102
RTVSPropertyOp25
 70
     0
102
RTVSPropertyOp26
 70
     0
102
RTVSPropertyOp27
 70
     0
  0
XRECORD
  5
BCE5
102
{ACAD_REACTORS
330
BCE4
102
}
330
BCE4
100
AcDbXrecord
280
     1
102
RTVSPropertyOp0
 70
     1
102
RTVSPropertyOp1
 70
     1
102
RTVSPropertyOp2
 70
     1
102
RTVSPropertyOp3
 70
     1
102
RTVSPropertyOp4
 70
     1
102
RTVSPropertyOp5
 70
     1
102
RTVSPropertyOp6
 70
     1
102
RTVSPropertyOp7
 70
     1
102
RTVSPropertyOp8
 70
     1
102
RTVSPropertyOp9
 70
     1
102
RTVSPropertyOp10
 70
     1
102
RTVSPropertyOp11
 70
     1
102
RTVSPropertyOp12
 70
     1
102
RTVSPropertyOp13
 70
     1
102
RTVSPropertyOp14
 70
     1
102
RTVSPropertyOp15
 70
     1
102
RTVSPropertyOp16
 70
     1
102
RTVSPropertyOp17
 70
     1
102
RTVSPropertyOp18
 70
     1
102
RTVSPropertyOp19
 70
     1
102
RTVSPropertyOp20
 70
     1
102
RTVSPropertyOp21
 70
     1
102
RTVSPropertyOp22
 70
     1
102
RTVSPropertyOp23
 70
     1
102
RTVSPropertyOp24
 70
     1
102
RTVSPropertyOp25
 70
     1
102
RTVSPropertyOp26
 70
     1
102
RTVSPropertyOp27
 70
     1
  0
XRECORD
  5
BCED
102
{ACAD_REACTORS
330
BCEC
102
}
330
BCEC
100
AcDbXrecord
280
     1
102
RTVSPropertyOp0
 70
     0
102
RTVSPropertyOp1
 70
     0
102
RTVSPropertyOp2
 70
     0
102
RTVSPropertyOp3
 70
     0
102
RTVSPropertyOp4
 70
     0
102
RTVSPropertyOp5
 70
     0
102
RTVSPropertyOp6
 70
     0
102
RTVSPropertyOp7
 70
     0
102
RTVSPropertyOp8
 70
     0
102
RTVSPropertyOp9
 70
     0
102
RTVSPropertyOp10
 70
     0
102
RTVSPropertyOp11
 70
     0
102
RTVSPropertyOp12
 70
     0
102
RTVSPropertyOp13
 70
     0
102
RTVSPropertyOp14
 70
     2
102
RTVSPropertyOp15
 70
     0
102
RTVSPropertyOp16
 70
     0
102
RTVSPropertyOp17
 70
     0
102
RTVSPropertyOp18
 70
     0
102
RTVSPropertyOp19
 70
     0
102
RTVSPropertyOp20
 70
     0
102
RTVSPropertyOp21
 70
     0
102
RTVSPropertyOp22
 70
     0
102
RTVSPropertyOp23
 70
     0
102
RTVSPropertyOp24
 70
     0
102
RTVSPropertyOp25
 70
     0
102
RTVSPropertyOp26
 70
     0
102
RTVSPropertyOp27
 70
     0
  0
XRECORD
  5
BCDD
102
{ACAD_REACTORS
330
BCDC
102
}
330
BCDC
100
AcDbXrecord
280
     1
102
RTVSPropertyOp0
 70
     1
102
RTVSPropertyOp1
 70
     1
102
RTVSPropertyOp2
 70
     1
102
RTVSPropertyOp3
 70
     1
102
RTVSPropertyOp4
 70
     1
102
RTVSPropertyOp5
 70
     1
102
RTVSPropertyOp6
 70
     1
102
RTVSPropertyOp7
 70
     1
102
RTVSPropertyOp8
 70
     1
102
RTVSPropertyOp9
 70
     1
102
RTVSPropertyOp10
 70
     1
102
RTVSPropertyOp11
 70
     1
102
RTVSPropertyOp12
 70
     1
102
RTVSPropertyOp13
 70
     1
102
RTVSPropertyOp14
 70
     1
102
RTVSPropertyOp15
 70
     1
102
RTVSPropertyOp16
 70
     1
102
RTVSPropertyOp17
 70
     1
102
RTVSPropertyOp18
 70
     1
102
RTVSPropertyOp19
 70
     1
102
RTVSPropertyOp20
 70
     1
102
RTVSPropertyOp21
 70
     1
102
RTVSPropertyOp22
 70
     1
102
RTVSPropertyOp23
 70
     1
102
RTVSPropertyOp24
 70
     1
102
RTVSPropertyOp25
 70
     1
102
RTVSPropertyOp26
 70
     1
102
RTVSPropertyOp27
 70
     1
  0
XRECORD
  5
BCE3
102
{ACAD_REACTORS
330
BCE2
102
}
330
BCE2
100
AcDbXrecord
280
     1
102
RTVSPropertyOp0
 70
     1
102
RTVSPropertyOp1
 70
     1
102
RTVSPropertyOp2
 70
     1
102
RTVSPropertyOp3
 70
     1
102
RTVSPropertyOp4
 70
     1
102
RTVSPropertyOp5
 70
     1
102
RTVSPropertyOp6
 70
     1
102
RTVSPropertyOp7
 70
     1
102
RTVSPropertyOp8
 70
     1
102
RTVSPropertyOp9
 70
     1
102
RTVSPropertyOp10
 70
     1
102
RTVSPropertyOp11
 70
     1
102
RTVSPropertyOp12
 70
     1
102
RTVSPropertyOp13
 70
     1
102
RTVSPropertyOp14
 70
     1
102
RTVSPropertyOp15
 70
     1
102
RTVSPropertyOp16
 70
     1
102
RTVSPropertyOp17
 70
     1
102
RTVSPropertyOp18
 70
     1
102
RTVSPropertyOp19
 70
     1
102
RTVSPropertyOp20
 70
     1
102
RTVSPropertyOp21
 70
     1
102
RTVSPropertyOp22
 70
     1
102
RTVSPropertyOp23
 70
     1
102
RTVSPropertyOp24
 70
     1
102
RTVSPropertyOp25
 70
     1
102
RTVSPropertyOp26
 70
     1
102
RTVSPropertyOp27
 70
     1
  0
ENDSEC
  0
EOF
