  0
SECTION
  2
HEADER
  9
$ACADVER
  1
AC1015
  9
$ACADMAINTVER
 70
    18
  9
$DWGCODEPAGE
  3
ANSI_1252
  9
$INSBASE
 10
0.0
 20
0.0
 30
0.0
  9
$EXTMIN
 10
0.0
 20
0.0
 30
0.0
  9
$EXTMAX
 10
420.0
 20
297.0
 30
0.0
  9
$LIMMIN
 10
0.0
 20
0.0
  9
$LIMMAX
 10
420.0
 20
297.0
  9
$ORTHOMODE
 70
     0
  9
$REGENMODE
 70
     1
  9
$FILLMODE
 70
     1
  9
$QTEXTMODE
 70
     0
  9
$MIRRTEXT
 70
     0
  9
$LTSCALE
 40
1.0
  9
$ATTMODE
 70
     1
  9
$TEXTSIZE
 40
0.2
  9
$TRACEWID
 40
0.05
  9
$TEXTSTYLE
  7
Standard
  9
$CLAYER
  8
0
  9
$CELTYPE
  6
ByLayer
  9
$CECOLOR
 62
   256
  9
$CELTSCALE
 40
1.0
  9
$DISPSILH
 70
     0
  9
$DIMSCALE
 40
1.0
  9
$DIMASZ
 40
1.799999999999999
  9
$DIMEXO
 40
0.0625
  9
$DIMDLI
 40
0.38
  9
$DIMRND
 40
0.0
  9
$DIMDLE
 40
0.0
  9
$DIMEXE
 40
0.18
  9
$DIMTP
 40
0.0
  9
$DIMTM
 40
0.0
  9
$DIMTXT
 40
0.25
  9
$DIMCEN
 40
0.09
  9
$DIMTSZ
 40
0.0
  9
$DIMTOL
 70
     0
  9
$DIMLIM
 70
     0
  9
$DIMTIH
 70
     1
  9
$DIMTOH
 70
     1
  9
$DIMSE1
 70
     0
  9
$DIMSE2
 70
     0
  9
$DIMTAD
 70
     0
  9
$DIMZIN
 70
     0
  9
$DIMBLK
  1

  9
$DIMASO
 70
     1
  9
$DIMSHO
 70
     1
  9
$DIMPOST
  1

  9
$DIMAPOST
  1

  9
$DIMALT
 70
     0
  9
$DIMALTD
 70
     2
  9
$DIMALTF
 40
25.4
  9
$DIMLFAC
 40
1.0
  9
$DIMTOFL
 70
     0
  9
$DIMTVP
 40
0.0
  9
$DIMTIX
 70
     0
  9
$DIMSOXD
 70
     0
  9
$DIMSAH
 70
     0
  9
$DIMBLK1
  1

  9
$DIMBLK2
  1

  9
$DIMSTYLE
  2
Standard
  9
$DIMCLRD
 70
     0
  9
$DIMCLRE
 70
     0
  9
$DIMCLRT
 70
     0
  9
$DIMTFAC
 40
1.0
  9
$DIMGAP
 40
0.09
  9
$DIMJUST
 70
     0
  9
$DIMSD1
 70
     0
  9
$DIMSD2
 70
     0
  9
$DIMTOLJ
 70
     1
  9
$DIMTZIN
 70
     0
  9
$DIMALTZ
 70
     0
  9
$DIMALTTZ
 70
     0
  9
$DIMUPT
 70
     0
  9
$DIMDEC
 70
     4
  9
$DIMTDEC
 70
     4
  9
$DIMALTU
 70
     2
  9
$DIMALTTD
 70
     2
  9
$DIMTXSTY
  7
Standard
  9
$DIMAUNIT
 70
     0
  9
$DIMADEC
 70
     0
  9
$DIMALTRND
 40
0.0
  9
$DIMAZIN
 70
     0
  9
$DIMDSEP
 70
    46
  9
$DIMATFIT
 70
     3
  9
$DIMFRAC
 70
     0
  9
$DIMLDRBLK
  1

  9
$DIMLUNIT
 70
     2
  9
$DIMLWD
 70
    -2
  9
$DIMLWE
 70
    -2
  9
$DIMTMOVE
 70
     0
  9
$LUNITS
 70
     2
  9
$LUPREC
 70
     4
  9
$SKETCHINC
 40
0.1
  9
$FILLETRAD
 40
0.0
  9
$AUNITS
 70
     0
  9
$AUPREC
 70
     0
  9
$MENU
  1
.
  9
$ELEVATION
 40
0.0
  9
$PELEVATION
 40
0.0
  9
$THICKNESS
 40
0.0
  9
$LIMCHECK
 70
     0
  9
$CHAMFERA
 40
0.0
  9
$CHAMFERB
 40
0.0
  9
$CHAMFERC
 40
0.0
  9
$CHAMFERD
 40
0.0
  9
$SKPOLY
 70
     0
  9
$TDCREATE
 40
2456163.477556250
  9
$TDUCREATE
 40
2456163.394222917
  9
$TDUPDATE
 40
2456163.477556250
  9
$TDUUPDATE
 40
2456163.394222917
  9
$TDINDWG
 40
0.0000198727
  9
$TDUSRTIMER
 40
0.0000198727
  9
$USRTIMER
 70
     1
  9
$ANGBASE
 50
0.0
  9
$ANGDIR
 70
     0
  9
$PDMODE
 70
     0
  9
$PDSIZE
 40
0.0
  9
$PLINEWID
 40
0.0
  9
$SPLFRAME
 70
     0
  9
$SPLINETYPE
 70
     6
  9
$SPLINESEGS
 70
     8
  9
$HANDSEED
  5
91F
  9
$SURFTAB1
 70
     6
  9
$SURFTAB2
 70
     6
  9
$SURFTYPE
 70
     6
  9
$SURFU
 70
     6
  9
$SURFV
 70
     6
  9
$UCSBASE
  2

  9
$UCSNAME
  2

  9
$UCSORG
 10
0.0
 20
0.0
 30
0.0
  9
$UCSXDIR
 10
1.0
 20
0.0
 30
0.0
  9
$UCSYDIR
 10
0.0
 20
1.0
 30
0.0
  9
$UCSORTHOREF
  2

  9
$UCSORTHOVIEW
 70
     0
  9
$UCSORGTOP
 10
0.0
 20
0.0
 30
0.0
  9
$UCSORGBOTTOM
 10
0.0
 20
0.0
 30
0.0
  9
$UCSORGLEFT
 10
0.0
 20
0.0
 30
0.0
  9
$UCSORGRIGHT
 10
0.0
 20
0.0
 30
0.0
  9
$UCSORGFRONT
 10
0.0
 20
0.0
 30
0.0
  9
$UCSORGBACK
 10
0.0
 20
0.0
 30
0.0
  9
$PUCSBASE
  2

  9
$PUCSNAME
  2

  9
$PUCSORG
 10
0.0
 20
0.0
 30
0.0
  9
$PUCSXDIR
 10
1.0
 20
0.0
 30
0.0
  9
$PUCSYDIR
 10
0.0
 20
1.0
 30
0.0
  9
$PUCSORTHOREF
  2

  9
$PUCSORTHOVIEW
 70
     0
  9
$PUCSORGTOP
 10
0.0
 20
0.0
 30
0.0
  9
$PUCSORGBOTTOM
 10
0.0
 20
0.0
 30
0.0
  9
$PUCSORGLEFT
 10
0.0
 20
0.0
 30
0.0
  9
$PUCSORGRIGHT
 10
0.0
 20
0.0
 30
0.0
  9
$PUCSORGFRONT
 10
0.0
 20
0.0
 30
0.0
  9
$PUCSORGBACK
 10
0.0
 20
0.0
 30
0.0
  9
$USERI1
 70
     0
  9
$USERI2
 70
     0
  9
$USERI3
 70
     0
  9
$USERI4
 70
     0
  9
$USERI5
 70
     0
  9
$USERR1
 40
0.0
  9
$USERR2
 40
0.0
  9
$USERR3
 40
0.0
  9
$USERR4
 40
0.0
  9
$USERR5
 40
0.0
  9
$WORLDVIEW
 70
     1
  9
$SHADEDGE
 70
     3
  9
$SHADEDIF
 70
    70
  9
$TILEMODE
 70
     1
  9
$MAXACTVP
 70
    64
  9
$PINSBASE
 10
0.0
 20
0.0
 30
0.0
  9
$PLIMCHECK
 70
     0
  9
$PEXTMIN
 10
0.0
 20
0.0
 30
0.0
  9
$PEXTMAX
 10
420.0
 20
297.0
 30
0.0
  9
$PLIMMIN
 10
0.0
 20
0.0
  9
$PLIMMAX
 10
420.0
 20
297.0
  9
$UNITMODE
 70
     0
  9
$VISRETAIN
 70
     1
  9
$PLINEGEN
 70
     0
  9
$PSLTSCALE
 70
     1
  9
$TREEDEPTH
 70
  3020
  9
$CMLSTYLE
  2
Standard
  9
$CMLJUST
 70
     0
  9
$CMLSCALE
 40
1.0
  9
$PROXYGRAPHICS
 70
     1
  9
$MEASUREMENT
 70
     1
  9
$CELWEIGHT
370
    -1
  9
$ENDCAPS
280
     0
  9
$JOINSTYLE
280
     0
  9
$LWDISPLAY
290
     0
  9
$INSUNITS
 70
     4
  9
$HYPERLINKBASE
  1

  9
$STYLESHEET
  1

  9
$XEDIT
290
     1
  9
$CEPSNTYPE
380
     0
  9
$PSTYLEMODE
290
     1
  9
$FINGERPRINTGUID
  2
{3C7AC0D7-3957-4599-8530-7D7FDD7C16B3}
  9
$VERSIONGUID
  2
{2B5AC33E-1699-487B-B2A4-58D532351FE2}
  9
$EXTNAMES
290
     1
  9
$PSVPSCALE
 40
0.0
  9
$OLESTARTUP
290
     0
  0
ENDSEC
  0
SECTION
  2
CLASSES
  0
CLASS
  1
ACDBDICTIONARYWDFLT
  2
AcDbDictionaryWithDefault
  3
ObjectDBX Classes
 90
        0
280
     0
281
     0
  0
CLASS
  1
MATERIAL
  2
AcDbMaterial
  3
ObjectDBX Classes
 90
     1153
280
     0
281
     0
  0
CLASS
  1
VISUALSTYLE
  2
AcDbVisualStyle
  3
ObjectDBX Classes
 90
     4095
280
     0
281
     0
  0
CLASS
  1
SCALE
  2
AcDbScale
  3
ObjectDBX Classes
 90
     1153
280
     0
281
     0
  0
CLASS
  1
TABLESTYLE
  2
AcDbTableStyle
  3
ObjectDBX Classes
 90
     4095
280
     0
281
     0
  0
CLASS
  1
MLEADERSTYLE
  2
AcDbMLeaderStyle
  3
ACDB_MLEADERSTYLE_CLASS
 90
     4095
280
     0
281
     0
  0
CLASS
  1
ACDBSECTIONVIEWSTYLE
  2
AcDbSectionViewStyle
  3
ObjectDBX Classes
 90
     1025
280
     0
281
     0
  0
CLASS
  1
ACDBDETAILVIEWSTYLE
  2
AcDbDetailViewStyle
  3
ObjectDBX Classes
 90
     1025
280
     0
281
     0
  0
CLASS
  1
DICTIONARYVAR
  2
AcDbDictionaryVar
  3
ObjectDBX Classes
 90
        0
280
     0
281
     0
  0
CLASS
  1
CELLSTYLEMAP
  2
AcDbCellStyleMap
  3
ObjectDBX Classes
 90
     1152
280
     0
281
     0
  0
CLASS
  1
ACDBPLACEHOLDER
  2
AcDbPlaceHolder
  3
ObjectDBX Classes
 90
        0
280
     0
281
     0
  0
CLASS
  1
LAYOUT
  2
AcDbLayout
  3
ObjectDBX Classes
 90
        0
280
     0
281
     0
  0
ENDSEC
  0
SECTION
  2
TABLES
  0
TABLE
  2
VPORT
  5
8
330
0
100
AcDbSymbolTable
 70
     1
  0
VPORT
  5
57
330
8
100
AcDbSymbolTableRecord
100
AcDbViewportTableRecord
  2
*Active
 70
     0
 10
0.0
 20
0.0
 11
1.0
 21
1.0
 12
210.0
 22
148.5
 13
0.0
 23
0.0
 14
1.0
 24
1.0
 15
0.0
 25
0.0
 16
0.0
 26
0.0
 36
1.0
 17
0.0
 27
0.0
 37
0.0
 40
297.0
 41
1.414141414141414
 42
50.0
 43
0.0
 44
0.0
 50
0.0
 51
0.0
 71
     0
 72
   100
 73
     1
 74
     1
 75
     0
 76
     0
 77
     0
 78
     0
281
     0
 65
     1
110
0.0
120
0.0
130
0.0
111
1.0
121
0.0
131
0.0
112
0.0
122
1.0
132
0.0
 79
     0
146
0.0
  0
ENDTAB
  0
TABLE
  2
LTYPE
  5
5
330
0
100
AcDbSymbolTable
 70
    59
  0
LTYPE
  5
5B
330
5
100
AcDbSymbolTableRecord
100
AcDbLinetypeTableRecord
  2
ByBlock
 70
     0
  3

 72
    65
 73
     0
 40
0.0
  0
LTYPE
  5
5C
330
5
100
AcDbSymbolTableRecord
100
AcDbLinetypeTableRecord
  2
ByLayer
 70
     0
  3

 72
    65
 73
     0
 40
0.0
  0
LTYPE
  5
5D
330
5
100
AcDbSymbolTableRecord
100
AcDbLinetypeTableRecord
  2
Continuous
 70
     0
  3
Solid line
 72
    65
 73
     0
 40
0.0
  0
LTYPE
  5
69
330
5
100
AcDbSymbolTableRecord
100
AcDbLinetypeTableRecord
  2
PHANTOM2
 70
     0
  3
Phantom (.5x) ___ _ _ ___ _ _ ___ _ _ ___ _ _
 72
    65
 73
     6
 40
1.25
 49
0.625
 74
     0
 49
-0.125
 74
     0
 49
0.125
 74
     0
 49
-0.125
 74
     0
 49
0.125
 74
     0
 49
-0.125
 74
     0
  0
LTYPE
  5
79
330
5
100
AcDbSymbolTableRecord
100
AcDbLinetypeTableRecord
  2
Section_View_Lines
 70
     0
  3
Section View Lines
 72
    65
 73
     4
 40
0.8406
 49
0.6614
 74
     0
 49
-0.0827
 74
     0
 49
0.0138
 74
     0
 49
-0.0827
 74
     0
  0
LTYPE
  5
7A
330
5
100
AcDbSymbolTableRecord
100
AcDbLinetypeTableRecord
  2
CHAIN
 70
     0
  3
Chain ____ _ ____ _ ____ _ ____ _ ____ _ ____
 72
    65
 73
     4
 40
0.3543
 49
0.2362
 74
     0
 49
-0.0295
 74
     0
 49
0.0591
 74
     0
 49
-0.0295
 74
     0
  0
LTYPE
  5
7B
330
5
100
AcDbSymbolTableRecord
100
AcDbLinetypeTableRecord
  2
DASH_DOT
 70
     0
  3
Dash dot _._._._._._._._._._._._._._._.
 72
    65
 73
     4
 40
0.37
 49
0.24
 74
     0
 49
-0.06
 74
     0
 49
0.01
 74
     0
 49
-0.06
 74
     0
  0
LTYPE
  5
7C
330
5
100
AcDbSymbolTableRecord
100
AcDbLinetypeTableRecord
  2
DASH_DOUBLE_DOT
 70
     0
  3
Dash Double Dot __ __ . __ __ . __ __ . __ _
 72
    65
 73
     6
 40
0.4398
 49
0.24
 74
     0
 49
-0.06
 74
     0
 49
0.0098
 74
     0
 49
-0.06
 74
     0
 49
0.01
 74
     0
 49
-0.06
 74
     0
  0
LTYPE
  5
7D
330
5
100
AcDbSymbolTableRecord
100
AcDbLinetypeTableRecord
  2
DASH_TRIPLE_DOT
 70
     0
  3
Dash Triple-Dot _ . . . _ . . . _ . . . _
 72
    65
 73
     8
 40
0.51
 49
0.24
 74
     0
 49
-0.06
 74
     0
 49
0.01
 74
     0
 49
-0.06
 74
     0
 49
0.01
 74
     0
 49
-0.06
 74
     0
 49
0.01
 74
     0
 49
-0.06
 74
     0
  0
LTYPE
  5
7E
330
5
100
AcDbSymbolTableRecord
100
AcDbLinetypeTableRecord
  2
DASHED
 70
     0
  3
Dashed __ __ __ __ __ __ __ __ __ __ __ __ __ _
 72
    65
 73
     2
 40
0.2067
 49
0.1654
 74
     0
 49
-0.0413
 74
     0
  0
LTYPE
  5
7F
330
5
100
AcDbSymbolTableRecord
100
AcDbLinetypeTableRecord
  2
DASHED_SPACE
 70
     0
  3
Dashed Space _._._._._._._._._._._._._._._.
 72
    65
 73
     2
 40
0.2067
 49
0.1654
 74
     0
 49
-0.0413
 74
     0
  0
LTYPE
  5
80
330
5
100
AcDbSymbolTableRecord
100
AcDbLinetypeTableRecord
  2
DOTTED
 70
     0
  3
Dotted . . . . . . . . . . . . . . . . . . . . 
 72
    65
 73
     2
 40
0.0482
 49
0.0069
 74
     0
 49
-0.0413
 74
     0
  0
LTYPE
  5
81
330
5
100
AcDbSymbolTableRecord
100
AcDbLinetypeTableRecord
  2
DOUBLE_DASH_CHAIN
 70
     0
  3
Double Dash Chain ___ _ _ ___ _ _ ___ _ _ ___ _
 72
    65
 73
     6
 40
1.240299999999999
 49
0.6614
 74
     0
 49
-0.0827
 74
     0
 49
0.1654
 74
     0
 49
-0.0827
 74
     0
 49
0.1654
 74
     0
 49
-0.0827
 74
     0
  0
LTYPE
  5
82
330
5
100
AcDbSymbolTableRecord
100
AcDbLinetypeTableRecord
  2
DOUBLE_DASH_DOT
 70
     0
  3
Double Dash Dot __ __ . __ __ . __ __ . __ _
 72
    65
 73
     6
 40
0.67
 49
0.24
 74
     0
 49
-0.06
 74
     0
 49
0.24
 74
     0
 49
-0.06
 74
     0
 49
0.01
 74
     0
 49
-0.06
 74
     0
  0
LTYPE
  5
83
330
5
100
AcDbSymbolTableRecord
100
AcDbLinetypeTableRecord
  2
DOUBLE_DASH_DOUBLE_DOT
 70
     0
  3
Double-dash double-dot _ _ . . _ _ . . _
 72
    65
 73
     8
 40
0.7400000000000001
 49
0.24
 74
     0
 49
-0.06
 74
     0
 49
0.24
 74
     0
 49
-0.06
 74
     0
 49
0.01
 74
     0
 49
-0.06
 74
     0
 49
0.01
 74
     0
 49
-0.06
 74
     0
  0
LTYPE
  5
84
330
5
100
AcDbSymbolTableRecord
100
AcDbLinetypeTableRecord
  2
DOUBLE_DASH_TRIPLE_DOT
 70
     0
  3
Double Dash Triple Dot __ __ . . . __ __ . . .
 72
    65
 73
    10
 40
0.8100000000000001
 49
0.24
 74
     0
 49
-0.06
 74
     0
 49
0.24
 74
     0
 49
-0.06
 74
     0
 49
0.01
 74
     0
 49
-0.06
 74
     0
 49
0.01
 74
     0
 49
-0.06
 74
     0
 49
0.01
 74
     0
 49
-0.06
 74
     0
  0
LTYPE
  5
85
330
5
100
AcDbSymbolTableRecord
100
AcDbLinetypeTableRecord
  2
LONG_DASH_DOTTED
 70
     0
  3
Long-Dash Dot ____ . ____ . ____ . ____ . _
 72
    65
 73
     4
 40
0.3001
 49
0.2362
 74
     0
 49
-0.0295
 74
     0
 49
0.0049
 74
     0
 49
-0.0295
 74
     0
  0
LTYPE
  5
86
330
5
100
AcDbSymbolTableRecord
100
AcDbLinetypeTableRecord
  2
LONG_DASH_DOUBLE_DOT
 70
     0
  3
Long Dash Double Dot ____ . . ____ . . ____ . .
 72
    65
 73
     6
 40
0.3345
 49
0.2362
 74
     0
 49
-0.0295
 74
     0
 49
0.0049
 74
     0
 49
-0.0295
 74
     0
 49
0.0049
 74
     0
 49
-0.0295
 74
     0
  0
LTYPE
  5
87
330
5
100
AcDbSymbolTableRecord
100
AcDbLinetypeTableRecord
  2
LONG_DASH_TRIPLE_DOT
 70
     0
  3
Long Dash Triple Dot ____ ... ____ ... ____
 72
    65
 73
     8
 40
0.75
 49
0.48
 74
     0
 49
-0.06
 74
     0
 49
0.01
 74
     0
 49
-0.06
 74
     0
 49
0.01
 74
     0
 49
-0.06
 74
     0
 49
0.01
 74
     0
 49
-0.06
 74
     0
  0
LTYPE
  5
88
330
5
100
AcDbSymbolTableRecord
100
AcDbLinetypeTableRecord
  2
BORDER
 70
     0
  3
Border __ __ . __ __ . __ __ . __ __ . __ __ .
 72
    65
 73
     6
 40
44.45
 49
12.7
 74
     0
 49
-6.349999999999999
 74
     0
 49
12.7
 74
     0
 49
-6.349999999999999
 74
     0
 49
0.0
 74
     0
 49
-6.349999999999999
 74
     0
  0
LTYPE
  5
89
330
5
100
AcDbSymbolTableRecord
100
AcDbLinetypeTableRecord
  2
BORDER2
 70
     0
  3
Border (.5x) __.__.__.__.__.__.__.__.__.__.__.
 72
    65
 73
     6
 40
22.225
 49
6.349999999999999
 74
     0
 49
-3.174999999999999
 74
     0
 49
6.349999999999999
 74
     0
 49
-3.174999999999999
 74
     0
 49
0.0
 74
     0
 49
-3.174999999999999
 74
     0
  0
LTYPE
  5
8A
330
5
100
AcDbSymbolTableRecord
100
AcDbLinetypeTableRecord
  2
BORDERX2
 70
     0
  3
Border (2x) ____  ____  .  ____  ____  .  ___
 72
    65
 73
     6
 40
88.9
 49
25.4
 74
     0
 49
-12.7
 74
     0
 49
25.4
 74
     0
 49
-12.7
 74
     0
 49
0.0
 74
     0
 49
-12.7
 74
     0
  0
LTYPE
  5
8B
330
5
100
AcDbSymbolTableRecord
100
AcDbLinetypeTableRecord
  2
CENTER
 70
     0
  3
Center ____ _ ____ _ ____ _ ____ _ ____ _ ____
 72
    65
 73
     4
 40
50.8
 49
31.75
 74
     0
 49
-6.349999999999999
 74
     0
 49
6.349999999999999
 74
     0
 49
-6.349999999999999
 74
     0
  0
LTYPE
  5
8C
330
5
100
AcDbSymbolTableRecord
100
AcDbLinetypeTableRecord
  2
CENTER2
 70
     0
  3
Center (.5x) ___ _ ___ _ ___ _ ___ _ ___ _ ___
 72
    65
 73
     4
 40
28.575
 49
19.05
 74
     0
 49
-3.174999999999999
 74
     0
 49
3.174999999999999
 74
     0
 49
-3.174999999999999
 74
     0
  0
LTYPE
  5
8D
330
5
100
AcDbSymbolTableRecord
100
AcDbLinetypeTableRecord
  2
CENTERX2
 70
     0
  3
Center (2x) ________  __  ________  __  _____
 72
    65
 73
     4
 40
101.6
 49
63.5
 74
     0
 49
-12.7
 74
     0
 49
12.7
 74
     0
 49
-12.7
 74
     0
  0
LTYPE
  5
8E
330
5
100
AcDbSymbolTableRecord
100
AcDbLinetypeTableRecord
  2
DASHDOT2
 70
     0
  3
Dash dot (.5x) _._._._._._._._._._._._._._._.
 72
    65
 73
     4
 40
12.7
 49
6.349999999999999
 74
     0
 49
-3.174999999999999
 74
     0
 49
0.0
 74
     0
 49
-3.174999999999999
 74
     0
  0
LTYPE
  5
8F
330
5
100
AcDbSymbolTableRecord
100
AcDbLinetypeTableRecord
  2
DASHDOTX2
 70
     0
  3
Dash dot (2x) ____  .  ____  .  ____  .  ___
 72
    65
 73
     4
 40
50.8
 49
25.4
 74
     0
 49
-12.7
 74
     0
 49
0.0
 74
     0
 49
-12.7
 74
     0
  0
LTYPE
  5
90
330
5
100
AcDbSymbolTableRecord
100
AcDbLinetypeTableRecord
  2
DASHED2
 70
     0
  3
Dashed (.5x) _ _ _ _ _ _ _ _ _ _ _ _ _ _ _ _ _
 72
    65
 73
     2
 40
9.524999999999998
 49
6.349999999999999
 74
     0
 49
-3.174999999999999
 74
     0
  0
LTYPE
  5
91
330
5
100
AcDbSymbolTableRecord
100
AcDbLinetypeTableRecord
  2
DASHEDX2
 70
     0
  3
Dashed (2x) ____  ____  ____  ____  ____  ___
 72
    65
 73
     2
 40
38.1
 49
25.4
 74
     0
 49
-12.7
 74
     0
  0
LTYPE
  5
92
330
5
100
AcDbSymbolTableRecord
100
AcDbLinetypeTableRecord
  2
DIVIDE
 70
     0
  3
Divide ____ . . ____ . . ____ . . ____ . . ____
 72
    65
 73
     6
 40
31.75
 49
12.7
 74
     0
 49
-6.349999999999999
 74
     0
 49
0.0
 74
     0
 49
-6.349999999999999
 74
     0
 49
0.0
 74
     0
 49
-6.349999999999999
 74
     0
  0
LTYPE
  5
93
330
5
100
AcDbSymbolTableRecord
100
AcDbLinetypeTableRecord
  2
DIVIDE2
 70
     0
  3
Divide (.5x) __..__..__..__..__..__..__..__.._
 72
    65
 73
     6
 40
15.875
 49
6.349999999999999
 74
     0
 49
-3.174999999999999
 74
     0
 49
0.0
 74
     0
 49
-3.174999999999999
 74
     0
 49
0.0
 74
     0
 49
-3.174999999999999
 74
     0
  0
LTYPE
  5
94
330
5
100
AcDbSymbolTableRecord
100
AcDbLinetypeTableRecord
  2
DIVIDEX2
 70
     0
  3
Divide (2x) ________  .  .  ________  .  .  _
 72
    65
 73
     6
 40
63.49999999999999
 49
25.4
 74
     0
 49
-12.7
 74
     0
 49
0.0
 74
     0
 49
-12.7
 74
     0
 49
0.0
 74
     0
 49
-12.7
 74
     0
  0
LTYPE
  5
95
330
5
100
AcDbSymbolTableRecord
100
AcDbLinetypeTableRecord
  2
DOT
 70
     0
  3
Dot . . . . . . . . . . . . . . . . . . . . . .
 72
    65
 73
     2
 40
6.349999999999999
 49
0.0
 74
     0
 49
-6.349999999999999
 74
     0
  0
LTYPE
  5
96
330
5
100
AcDbSymbolTableRecord
100
AcDbLinetypeTableRecord
  2
DOT2
 70
     0
  3
Dot (.5x) .....................................
 72
    65
 73
     2
 40
3.174999999999999
 49
0.0
 74
     0
 49
-3.174999999999999
 74
     0
  0
LTYPE
  5
97
330
5
100
AcDbSymbolTableRecord
100
AcDbLinetypeTableRecord
  2
DOTX2
 70
     0
  3
Dot (2x) .  .  .  .  .  .  .  .  .  .  .  .  . 
 72
    65
 73
     2
 40
12.7
 49
0.0
 74
     0
 49
-12.7
 74
     0
  0
LTYPE
  5
98
330
5
100
AcDbSymbolTableRecord
100
AcDbLinetypeTableRecord
  2
HIDDEN
 70
     0
  3
Hidden __ __ __ __ __ __ __ __ __ __ __ __ __ _
 72
    65
 73
     2
 40
9.524999999999998
 49
6.349999999999999
 74
     0
 49
-3.174999999999999
 74
     0
  0
LTYPE
  5
99
330
5
100
AcDbSymbolTableRecord
100
AcDbLinetypeTableRecord
  2
HIDDEN2
 70
     0
  3
Hidden (.5x) _ _ _ _ _ _ _ _ _ _ _ _ _ _ _ _ _
 72
    65
 73
     2
 40
4.762499999999999
 49
3.174999999999999
 74
     0
 49
-1.587499999999999
 74
     0
  0
LTYPE
  5
9A
330
5
100
AcDbSymbolTableRecord
100
AcDbLinetypeTableRecord
  2
HIDDENX2
 70
     0
  3
Hidden (2x) ____ ____ ____ ____ ____ ____ ____
 72
    65
 73
     2
 40
19.05
 49
12.7
 74
     0
 49
-6.349999999999999
 74
     0
  0
LTYPE
  5
9B
330
5
100
AcDbSymbolTableRecord
100
AcDbLinetypeTableRecord
  2
PHANTOM
 70
     0
  3
Phantom ______  __  __  ______  __  __  ______
 72
    65
 73
     6
 40
63.5
 49
31.75
 74
     0
 49
-6.349999999999999
 74
     0
 49
6.349999999999999
 74
     0
 49
-6.349999999999999
 74
     0
 49
6.349999999999999
 74
     0
 49
-6.349999999999999
 74
     0
  0
LTYPE
  5
9D
330
5
100
AcDbSymbolTableRecord
100
AcDbLinetypeTableRecord
  2
PHANTOMX2
 70
     0
  3
Phantom (2x) ____________    ____    ____   _
 72
    65
 73
     6
 40
127.0
 49
63.5
 74
     0
 49
-12.7
 74
     0
 49
12.7
 74
     0
 49
-12.7
 74
     0
 49
12.7
 74
     0
 49
-12.7
 74
     0
  0
LTYPE
  5
9E
330
5
100
AcDbSymbolTableRecord
100
AcDbLinetypeTableRecord
  2
ACAD_ISO02W100
 70
     0
  3
ISO dash __ __ __ __ __ __ __ __ __ __ __ __ __
 72
    65
 73
     2
 40
15.0
 49
12.0
 74
     0
 49
-3.0
 74
     0
  0
LTYPE
  5
9F
330
5
100
AcDbSymbolTableRecord
100
AcDbLinetypeTableRecord
  2
ACAD_ISO03W100
 70
     0
  3
ISO dash space __    __    __    __    __    __
 72
    65
 73
     2
 40
30.0
 49
12.0
 74
     0
 49
-18.0
 74
     0
  0
LTYPE
  5
A0
330
5
100
AcDbSymbolTableRecord
100
AcDbLinetypeTableRecord
  2
ACAD_ISO04W100
 70
     0
  3
ISO long-dash dot ____ . ____ . ____ . ____ . _
 72
    65
 73
     4
 40
30.0
 49
24.0
 74
     0
 49
-3.0
 74
     0
 49
0.0
 74
     0
 49
-3.0
 74
     0
  0
LTYPE
  5
A1
330
5
100
AcDbSymbolTableRecord
100
AcDbLinetypeTableRecord
  2
ACAD_ISO05W100
 70
     0
  3
ISO long-dash double-dot ____ .. ____ .. ____ .
 72
    65
 73
     6
 40
33.0
 49
24.0
 74
     0
 49
-3.0
 74
     0
 49
0.0
 74
     0
 49
-3.0
 74
     0
 49
0.0
 74
     0
 49
-3.0
 74
     0
  0
LTYPE
  5
A2
330
5
100
AcDbSymbolTableRecord
100
AcDbLinetypeTableRecord
  2
ACAD_ISO06W100
 70
     0
  3
ISO long-dash triple-dot ____ ... ____ ... ____
 72
    65
 73
     8
 40
36.0
 49
24.0
 74
     0
 49
-3.0
 74
     0
 49
0.0
 74
     0
 49
-3.0
 74
     0
 49
0.0
 74
     0
 49
-3.0
 74
     0
 49
0.0
 74
     0
 49
-3.0
 74
     0
  0
LTYPE
  5
A3
330
5
100
AcDbSymbolTableRecord
100
AcDbLinetypeTableRecord
  2
ACAD_ISO07W100
 70
     0
  3
ISO dot . . . . . . . . . . . . . . . . . . . .
 72
    65
 73
     2
 40
3.0
 49
0.0
 74
     0
 49
-3.0
 74
     0
  0
LTYPE
  5
A4
330
5
100
AcDbSymbolTableRecord
100
AcDbLinetypeTableRecord
  2
ACAD_ISO08W100
 70
     0
  3
ISO long-dash short-dash ____ __ ____ __ ____ _
 72
    65
 73
     4
 40
36.0
 49
24.0
 74
     0
 49
-3.0
 74
     0
 49
6.0
 74
     0
 49
-3.0
 74
     0
  0
LTYPE
  5
A5
330
5
100
AcDbSymbolTableRecord
100
AcDbLinetypeTableRecord
  2
ACAD_ISO09W100
 70
     0
  3
ISO long-dash double-short-dash ____ __ __ ____
 72
    65
 73
     6
 40
45.0
 49
24.0
 74
     0
 49
-3.0
 74
     0
 49
6.0
 74
     0
 49
-3.0
 74
     0
 49
6.0
 74
     0
 49
-3.0
 74
     0
  0
LTYPE
  5
A6
330
5
100
AcDbSymbolTableRecord
100
AcDbLinetypeTableRecord
  2
ACAD_ISO10W100
 70
     0
  3
ISO dash dot __ . __ . __ . __ . __ . __ . __ .
 72
    65
 73
     4
 40
18.0
 49
12.0
 74
     0
 49
-3.0
 74
     0
 49
0.0
 74
     0
 49
-3.0
 74
     0
  0
LTYPE
  5
A7
330
5
100
AcDbSymbolTableRecord
100
AcDbLinetypeTableRecord
  2
ACAD_ISO11W100
 70
     0
  3
ISO double-dash dot __ __ . __ __ . __ __ . __ 
 72
    65
 73
     6
 40
33.0
 49
12.0
 74
     0
 49
-3.0
 74
     0
 49
12.0
 74
     0
 49
-3.0
 74
     0
 49
0.0
 74
     0
 49
-3.0
 74
     0
  0
LTYPE
  5
A8
330
5
100
AcDbSymbolTableRecord
100
AcDbLinetypeTableRecord
  2
ACAD_ISO12W100
 70
     0
  3
ISO dash double-dot __ . . __ . . __ . . __ . .
 72
    65
 73
     6
 40
21.0
 49
12.0
 74
     0
 49
-3.0
 74
     0
 49
0.0
 74
     0
 49
-3.0
 74
     0
 49
0.0
 74
     0
 49
-3.0
 74
     0
  0
LTYPE
  5
A9
330
5
100
AcDbSymbolTableRecord
100
AcDbLinetypeTableRecord
  2
ACAD_ISO13W100
 70
     0
  3
ISO double-dash double-dot __ __ . . __ __ . . 
 72
    65
 73
     8
 40
36.0
 49
12.0
 74
     0
 49
-3.0
 74
     0
 49
12.0
 74
     0
 49
-3.0
 74
     0
 49
0.0
 74
     0
 49
-3.0
 74
     0
 49
0.0
 74
     0
 49
-3.0
 74
     0
  0
LTYPE
  5
AA
330
5
100
AcDbSymbolTableRecord
100
AcDbLinetypeTableRecord
  2
ACAD_ISO14W100
 70
     0
  3
ISO dash triple-dot __ . . . __ . . . __ . . . 
 72
    65
 73
     8
 40
24.0
 49
12.0
 74
     0
 49
-3.0
 74
     0
 49
0.0
 74
     0
 49
-3.0
 74
     0
 49
0.0
 74
     0
 49
-3.0
 74
     0
 49
0.0
 74
     0
 49
-3.0
 74
     0
  0
LTYPE
  5
AB
330
5
100
AcDbSymbolTableRecord
100
AcDbLinetypeTableRecord
  2
ACAD_ISO15W100
 70
     0
  3
ISO double-dash triple-dot __ __ . . . __ __ . 
 72
    65
 73
    10
 40
39.0
 49
12.0
 74
     0
 49
-3.0
 74
     0
 49
12.0
 74
     0
 49
-3.0
 74
     0
 49
0.0
 74
     0
 49
-3.0
 74
     0
 49
0.0
 74
     0
 49
-3.0
 74
     0
 49
0.0
 74
     0
 49
-3.0
 74
     0
  0
LTYPE
  5
AE
330
5
100
AcDbSymbolTableRecord
100
AcDbLinetypeTableRecord
  2
FENCELINE1
 70
     0
  3
Fenceline circle ----0-----0----0-----0----0---
 72
    65
 73
     4
 40
36.83
 49
6.349999999999999
 74
     0
 49
-2.54
 74
     4
 75
   133
340
AD
 46
2.54
 50
0.0
 44
-2.54
 45
0.0
 49
-2.54
 74
     0
 49
25.4
 74
     0
  0
LTYPE
  5
AF
330
5
100
AcDbSymbolTableRecord
100
AcDbLinetypeTableRecord
  2
FENCELINE2
 70
     0
  3
Fenceline square ----[]-----[]----[]-----[]----
 72
    65
 73
     4
 40
36.83
 49
6.349999999999999
 74
     0
 49
-2.54
 74
     4
 75
   132
340
AD
 46
2.54
 50
0.0
 44
-2.54
 45
0.0
 49
-2.54
 74
     0
 49
25.4
 74
     0
  0
LTYPE
  5
B0
330
5
100
AcDbSymbolTableRecord
100
AcDbLinetypeTableRecord
  2
TRACKS
 70
     0
  3
Tracks -|-|-|-|-|-|-|-|-|-|-|-|-|-|-|-|-|-|-|-|
 72
    65
 73
     2
 40
7.62
 49
3.81
 74
     4
 75
   130
340
AD
 46
6.349999999999999
 50
0.0
 44
0.0
 45
0.0
 49
3.81
 74
     0
  0
LTYPE
  5
B1
330
5
100
AcDbSymbolTableRecord
100
AcDbLinetypeTableRecord
  2
BATTING
 70
     0
  3
Batting SSSSSSSSSSSSSSSSSSSSSSSSSSSSSSSSSSSSSSS
 72
    65
 73
     4
 40
10.16254
 49
0.00254
 74
     0
 49
-2.54
 74
     4
 75
   134
340
AD
 46
2.54
 50
0.0
 44
-2.54
 45
0.0
 49
-5.08
 74
     4
 75
   134
340
AD
 46
2.54
 50
180.0
 44
2.54
 45
0.0
 49
-2.54
 74
     0
  0
LTYPE
  5
B2
330
5
100
AcDbSymbolTableRecord
100
AcDbLinetypeTableRecord
  2
HOT_WATER_SUPPLY
 70
     0
  3
Hot water supply ---- HW ---- HW ---- HW ----
 72
    65
 73
     3
 40
22.86
 49
12.7
 74
     0
 49
-5.08
 74
     2
 75
     0
340
55
 46
2.54
 50
0.0
 44
-2.54
 45
-1.27
  9
HW
 49
-5.08
 74
     0
  0
LTYPE
  5
B3
330
5
100
AcDbSymbolTableRecord
100
AcDbLinetypeTableRecord
  2
GAS_LINE
 70
     0
  3
Gas line ----GAS----GAS----GAS----GAS----GAS---
 72
    65
 73
     3
 40
24.13
 49
12.7
 74
     0
 49
-5.08
 74
     2
 75
     0
340
55
 46
2.54
 50
0.0
 44
-2.54
 45
-1.27
  9
GAS
 49
-6.349999999999999
 74
     0
  0
LTYPE
  5
B4
330
5
100
AcDbSymbolTableRecord
100
AcDbLinetypeTableRecord
  2
ZIGZAG
 70
     0
  3
Zig zag /\/\/\/\/\/\/\/\/\/\/\/\/\/\/\/\/\/\/\/
 72
    65
 73
     4
 40
20.32254
 49
0.00254
 74
     0
 49
-5.08
 74
     4
 75
   131
340
AD
 46
5.08
 50
0.0
 44
-5.08
 45
0.0
 49
-10.16
 74
     4
 75
   131
340
AD
 46
5.08
 50
180.0
 44
5.08
 45
0.0
 49
-5.08
 74
     0
  0
ENDTAB
  0
TABLE
  2
LAYER
  5
2
330
0
100
AcDbSymbolTable
 70
    27
  0
LAYER
  5
54
330
2
100
AcDbSymbolTableRecord
100
AcDbLayerTableRecord
  2
0
 70
     0
 62
     7
  6
Continuous
370
    25
390
F
  0
LAYER
  5
B9
330
2
100
AcDbSymbolTableRecord
100
AcDbLayerTableRecord
  2
Bemaßung (ISO)
 70
     0
 62
     1
  6
Continuous
370
    25
390
F
  0
LAYER
  5
BE
330
2
100
AcDbSymbolTableRecord
100
AcDbLayerTableRecord
  2
Mittellinie (ISO)
 70
     0
 62
     1
  6
DASH_DOT
370
    25
390
F
  0
LAYER
  5
BF
330
2
100
AcDbSymbolTableRecord
100
AcDbLayerTableRecord
  2
Mittelpunktmarkierung (ISO)
 70
     0
 62
     1
  6
DASH_DOT
370
    25
390
F
  0
LAYER
  5
C1
330
2
100
AcDbSymbolTableRecord
100
AcDbLayerTableRecord
  2
Rahmen (ISO)
 70
     0
 62
     7
  6
Continuous
370
    70
390
F
  0
LAYER
  5
C5
330
2
100
AcDbSymbolTableRecord
100
AcDbLayerTableRecord
  2
Schraffur (ISO)
 70
     0
 62
     1
  6
Continuous
370
    18
390
F
  0
LAYER
  5
C6
330
2
100
AcDbSymbolTableRecord
100
AcDbLayerTableRecord
  2
Sichtbar (ISO)
 70
     0
 62
     7
  6
Continuous
370
    50
390
F
  0
LAYER
  5
C7
330
2
100
AcDbSymbolTableRecord
100
AcDbLayerTableRecord
  2
Sichtbar schmal (ISO)
 70
     0
 62
     1
  6
Continuous
370
    25
390
F
  0
LAYER
  5
CA
330
2
100
AcDbSymbolTableRecord
100
AcDbLayerTableRecord
  2
Titel (ISO)
 70
     0
 62
     5
  6
Continuous
370
    50
390
F
  0
LAYER
  5
CC
330
2
100
AcDbSymbolTableRecord
100
AcDbLayerTableRecord
  2
Verdeckt (ISO)
 70
     0
 62
     5
  6
DASHED
370
    35
390
F
  0
LAYER
  5
1E4
330
2
100
AcDbSymbolTableRecord
100
AcDbLayerTableRecord
  2
Defpoints
 70
     0
 62
     7
  6
Continuous
290
     0
370
    -3
390
F
  0
ENDTAB
  0
TABLE
  2
STYLE
  5
3
330
0
100
AcDbSymbolTable
 70
    25
  0
STYLE
  5
55
330
3
100
AcDbSymbolTableRecord
100
AcDbTextStyleTableRecord
  2
Standard
 70
     0
 40
0.0
 41
1.100000023841857
 50
0.0
 71
     0
 42
0.2
  3
isocpeur.ttf
  4

1001
ACAD
1000
ISOCPEUR
1071
      256
  0
STYLE
  5
5A
330
3
100
AcDbSymbolTableRecord
100
AcDbTextStyleTableRecord
  2
Annotative
 70
     0
 40
0.0
 41
1.0
 50
0.0
 71
     0
 42
0.2
  3
txt
  4

1001
AcadAnnotative
1000
AnnotativeData
1002
{
1070
     1
1070
     1
1002
}
  0
STYLE
  5
AD
330
3
100
AcDbSymbolTableRecord
100
AcDbTextStyleTableRecord
  2

 70
     1
 40
0.0
 41
1.0
 50
0.0
 71
     0
 42
0.2
  3
ltypeshp.shx
  4

  0
STYLE
  5
CE
330
3
100
AcDbSymbolTableRecord
100
AcDbTextStyleTableRecord
  2
1_8
 70
     0
 40
0.0
 41
1.100000023841857
 50
0.0
 71
     0
 42
0.2
  3
isocpeur.ttf
  4

1001
ACAD
1000
ISOCPEUR
1071
      256
  0
STYLE
  5
CF
330
3
100
AcDbSymbolTableRecord
100
AcDbTextStyleTableRecord
  2
2_5
 70
     0
 40
0.0
 41
1.100000023841857
 50
0.0
 71
     0
 42
0.2
  3
isocpeur.ttf
  4

1001
ACAD
1000
ISOCPEUR
1071
      256
  0
STYLE
  5
D0
330
3
100
AcDbSymbolTableRecord
100
AcDbTextStyleTableRecord
  2
3_5
 70
     0
 40
0.0
 41
1.100000023841857
 50
0.0
 71
     0
 42
0.2
  3
isocpeur.ttf
  4

1001
ACAD
1000
ISOCPEUR
1071
      256
  0
STYLE
  5
D1
330
3
100
AcDbSymbolTableRecord
100
AcDbTextStyleTableRecord
  2
5
 70
     0
 40
0.0
 41
1.100000023841857
 50
0.0
 71
     0
 42
0.2
  3
isocpeur.ttf
  4

1001
ACAD
1000
ISOCPEUR
1071
      256
  0
STYLE
  5
D2
330
3
100
AcDbSymbolTableRecord
100
AcDbTextStyleTableRecord
  2
7
 70
     0
 40
0.0
 41
1.100000023841857
 50
0.0
 71
     0
 42
0.2
  3
isocpeur.ttf
  4

1001
ACAD
1000
ISOCPEUR
1071
      256
  0
STYLE
  5
D3
330
3
100
AcDbSymbolTableRecord
100
AcDbTextStyleTableRecord
  2
Bezeichnungstext (DIN)
 70
     0
 40
0.0
 41
1.100000023841857
 50
0.0
 71
     0
 42
0.2
  3
isocpeur.ttf
  4

1001
ACAD
1000
ISOCPEUR
1071
      256
  0
STYLE
  5
D4
330
3
100
AcDbSymbolTableRecord
100
AcDbTextStyleTableRecord
  2
Notiztext (DIN)
 70
     0
 40
0.0
 41
1.100000023841857
 50
0.0
 71
     0
 42
0.2
  3
isocpeur.ttf
  4

1001
ACAD
1000
ISOCPEUR
1071
      256
  0
STYLE
  5
128
330
3
100
AcDbSymbolTableRecord
100
AcDbTextStyleTableRecord
  2
Textstil159
 70
     0
 40
0.0
 41
1.25
 50
0.0
 71
     0
 42
0.2
  3
isocpeur.ttf
  4

1001
ACAD
1000
ISOCPEUR
1071
      256
  0
STYLE
  5
130
330
3
100
AcDbSymbolTableRecord
100
AcDbTextStyleTableRecord
  2
Textstil246
 70
     0
 40
0.0
 41
1.100000023841857
 50
0.0
 71
     0
 42
0.2
  3
isocpeui.ttf
  4

1001
ACAD
1000
ISOCPEUR
1071
 16777472
  0
STYLE
  5
133
330
3
100
AcDbSymbolTableRecord
100
AcDbTextStyleTableRecord
  2
Textstil117
 70
     0
 40
0.0
 41
1.399999976158142
 50
0.0
 71
     0
 42
0.2
  3
isocpeur.ttf
  4

1001
ACAD
1000
ISOCPEUR
1071
      256
  0
STYLE
  5
137
330
3
100
AcDbSymbolTableRecord
100
AcDbTextStyleTableRecord
  2
Textstil251
 70
     0
 40
0.0
 41
1.399999976158142
 50
0.0
 71
     0
 42
0.2
  3
isocpeui.ttf
  4

1001
ACAD
1000
ISOCPEUR
1071
 16777472
  0
STYLE
  5
13A
330
3
100
AcDbSymbolTableRecord
100
AcDbTextStyleTableRecord
  2
Textstil244
 70
     0
 40
0.0
 41
1.200000047683715
 50
0.0
 71
     0
 42
0.2
  3
isocpeui.ttf
  4

1001
ACAD
1000
ISOCPEUR
1071
 16777472
  0
STYLE
  5
14B
330
3
100
AcDbSymbolTableRecord
100
AcDbTextStyleTableRecord
  2
Textstil239
 70
     0
 40
0.0
 41
1.200000047683715
 50
0.0
 71
     0
 42
0.2
  3
isocpeur.ttf
  4

1001
ACAD
1000
ISOCPEUR
1071
      256
  0
STYLE
  5
14D
330
3
100
AcDbSymbolTableRecord
100
AcDbTextStyleTableRecord
  2
Textstil250
 70
     0
 40
0.0
 41
1.200000047683715
 50
0.0
 71
     0
 42
0.2
  3
isocpeui.ttf
  4

1001
ACAD
1000
ISOCPEUR
1071
 16777472
  0
STYLE
  5
17A
330
3
100
AcDbSymbolTableRecord
100
AcDbTextStyleTableRecord
  2
Textstil68
 70
     0
 40
0.0
 41
1.200000047683715
 50
0.0
 71
     0
 42
0.2
  3
isocpeur.ttf
  4

1001
ACAD
1000
ISOCPEUR
1071
      256
  0
STYLE
  5
17D
330
3
100
AcDbSymbolTableRecord
100
AcDbTextStyleTableRecord
  2
Textstil144
 70
     0
 40
0.0
 41
1.399999976158142
 50
0.0
 71
     0
 42
0.2
  3
isocpeur.ttf
  4

1001
ACAD
1000
ISOCPEUR
1071
      256
  0
STYLE
  5
180
330
3
100
AcDbSymbolTableRecord
100
AcDbTextStyleTableRecord
  2
Textstil142
 70
     0
 40
0.0
 41
1.399999976158142
 50
0.0
 71
     0
 42
0.2
  3
isocpeur.ttf
  4

1001
ACAD
1000
ISOCPEUR
1071
      256
  0
STYLE
  5
185
330
3
100
AcDbSymbolTableRecord
100
AcDbTextStyleTableRecord
  2
Textstil249
 70
     0
 40
0.0
 41
1.399999976158142
 50
0.0
 71
     0
 42
0.2
  3
isocpeui.ttf
  4

1001
ACAD
1000
ISOCPEUR
1071
 16777472
  0
STYLE
  5
188
330
3
100
AcDbSymbolTableRecord
100
AcDbTextStyleTableRecord
  2
Textstil248
 70
     0
 40
0.0
 41
1.200000047683715
 50
0.0
 71
     0
 42
0.2
  3
isocpeui.ttf
  4

1001
ACAD
1000
ISOCPEUR
1071
 16777472
  0
STYLE
  5
1A1
330
3
100
AcDbSymbolTableRecord
100
AcDbTextStyleTableRecord
  2
Textstil243
 70
     0
 40
0.0
 41
1.399999976158142
 50
0.0
 71
     0
 42
0.2
  3
isocpeur.ttf
  4

1001
ACAD
1000
ISOCPEUR
1071
      256
  0
STYLE
  5
1A3
330
3
100
AcDbSymbolTableRecord
100
AcDbTextStyleTableRecord
  2
Textstil143
 70
     0
 40
0.0
 41
1.399999976158142
 50
0.0
 71
     0
 42
0.2
  3
isocpeur.ttf
  4

1001
ACAD
1000
ISOCPEUR
1071
      256
  0
STYLE
  5
1A6
330
3
100
AcDbSymbolTableRecord
100
AcDbTextStyleTableRecord
  2
Textstil242
 70
     0
 40
0.0
 41
1.200000047683715
 50
0.0
 71
     0
 42
0.2
  3
isocpeur.ttf
  4

1001
ACAD
1000
ISOCPEUR
1071
      256
  0
ENDTAB
  0
TABLE
  2
VIEW
  5
6
330
0
100
AcDbSymbolTable
 70
     0
  0
ENDTAB
  0
TABLE
  2
UCS
  5
7
330
0
100
AcDbSymbolTable
 70
     0
  0
ENDTAB
  0
TABLE
  2
APPID
  5
9
330
0
100
AcDbSymbolTable
 70
     4
  0
APPID
  5
56
330
9
100
AcDbSymbolTableRecord
100
AcDbRegAppTableRecord
  2
ACAD
 70
     0
  0
APPID
  5
5E
330
9
100
AcDbSymbolTableRecord
100
AcDbRegAppTableRecord
  2
AcadAnnotative
 70
     0
  0
APPID
  5
136
330
9
100
AcDbSymbolTableRecord
100
AcDbRegAppTableRecord
  2
AcadAnnoPO
 70
     0
  0
APPID
  5
916
330
9
100
AcDbSymbolTableRecord
100
AcDbRegAppTableRecord
  2
ACAD_MLEADERVER
 70
     0
  0
ENDTAB
  0
TABLE
  2
DIMSTYLE
  5
A
330
0
100
AcDbSymbolTable
 70
    47
100
AcDbDimStyleTable
 71
     2
340
EF
340
58
  0
DIMSTYLE
105
58
330
A
100
AcDbSymbolTableRecord
100
AcDbDimStyleTableRecord
  2
Standard
 70
     0
340
55
  0
DIMSTYLE
105
59
330
A
100
AcDbSymbolTableRecord
100
AcDbDimStyleTableRecord
  2
Annotative
 70
     0
340
55
1001
AcadAnnotative
1000
AnnotativeData
1002
{
1070
     1
1070
     1
1002
}
  0
DIMSTYLE
105
D5
330
A
100
AcDbSymbolTableRecord
100
AcDbDimStyleTableRecord
  2
01-Bopla
 70
     0
 41
2.5
 42
0.0
 43
5.0
 44
1.0
 45
0.00000001
 46
6.999999999999999
 73
     0
 74
     0
 77
     1
 78
     8
 79
     2
140
2.5
143
0.03937
146
0.7200000286102295
147
0.2
171
     3
172
     1
176
     1
177
     1
178
     5
179
     6
271
     6
272
     3
274
     3
278
    44
284
     8
340
CF
371
    25
372
    25
  0
DIMSTYLE
105
D6
330
A
100
AcDbSymbolTableRecord
100
AcDbDimStyleTableRecord
  2
01-Bopla$7
 70
     0
 41
2.5
 42
0.0
 43
5.0
 44
1.0
 45
0.00000001
 46
6.999999999999999
 73
     0
 74
     0
 77
     1
 78
     8
 79
     2
140
2.5
143
0.03937
146
0.7200000286102295
147
0.2
171
     3
172
     1
176
   256
177
     1
178
     5
179
     6
271
     6
272
     3
274
     3
278
    44
284
     8
340
CF
371
    -1
372
    25
  0
DIMSTYLE
105
D7
330
A
100
AcDbSymbolTableRecord
100
AcDbDimStyleTableRecord
  2
02-Bopla (____)
 70
     0
 41
2.5
 42
0.0
 43
5.0
 44
1.0
 45
0.00000001
 46
6.999999999999999
 73
     0
 74
     0
 77
     1
 78
     8
 79
     2
140
2.5
143
0.03937
146
0.7200000286102295
147
0.2
171
     3
172
     1
176
     1
177
     1
178
     5
179
     6
271
     3
272
     3
274
     3
278
    44
284
     8
340
CF
371
    25
372
    25
  0
DIMSTYLE
105
D8
330
A
100
AcDbSymbolTableRecord
100
AcDbDimStyleTableRecord
  2
02-Bopla (____)$7
 70
     0
 41
2.5
 42
0.0
 43
5.0
 44
1.0
 45
0.00000001
 46
6.999999999999999
 73
     0
 74
     0
 77
     1
 78
     8
 79
     2
140
2.5
143
0.03937
146
0.7200000286102295
147
0.2
171
     3
172
     1
176
   256
177
     1
178
     5
179
     6
271
     3
272
     3
274
     3
278
    44
284
     8
340
CF
371
    -1
372
    25
  0
DIMSTYLE
105
D9
330
A
100
AcDbSymbolTableRecord
100
AcDbDimStyleTableRecord
  2
03-Bopla M
 70
     0
 41
2.5
 42
0.0
 43
5.0
 44
1.0
 45
0.00000001
 46
6.999999999999999
 73
     0
 74
     0
 77
     1
 78
     8
 79
     2
140
2.5
143
0.03937
146
0.7200000286102295
147
0.2
171
     3
172
     1
176
     1
177
     1
178
     5
179
     6
271
     6
272
     3
274
     3
278
    44
284
     8
340
CF
371
    25
372
    25
  0
DIMSTYLE
105
DA
330
A
100
AcDbSymbolTableRecord
100
AcDbDimStyleTableRecord
  2
03-Bopla M$7
 70
     0
 41
2.5
 42
0.0
 43
5.0
 44
1.0
 45
0.00000001
 46
6.999999999999999
 73
     0
 74
     0
 77
     1
 78
     8
 79
     2
140
2.5
143
0.03937
146
0.7200000286102295
147
0.2
171
     3
172
     1
176
   256
177
     1
178
     5
179
     6
271
     6
272
     3
274
     3
278
    44
284
     8
340
CF
371
    -1
372
    25
  0
DIMSTYLE
105
DB
330
A
100
AcDbSymbolTableRecord
100
AcDbDimStyleTableRecord
  2
04-Bopla ø
 70
     0
 41
2.5
 42
0.0
 43
5.0
 44
1.0
 45
0.00000001
 46
6.999999999999999
 73
     0
 74
     0
 77
     1
 78
     8
 79
     2
140
2.5
143
0.03937
146
0.7200000286102295
147
0.2
171
     3
172
     1
176
     1
177
     1
178
     5
179
     6
271
     6
272
     3
274
     3
278
    44
284
     8
340
CF
371
    25
372
    25
  0
DIMSTYLE
105
DC
330
A
100
AcDbSymbolTableRecord
100
AcDbDimStyleTableRecord
  2
04-Bopla ø$7
 70
     0
 41
2.5
 42
0.0
 43
5.0
 44
1.0
 45
0.00000001
 46
6.999999999999999
 73
     0
 74
     0
 77
     1
 78
     8
 79
     2
140
2.5
143
0.03937
146
0.7200000286102295
147
0.2
171
     3
172
     1
176
   256
177
     1
178
     5
179
     6
271
     6
272
     3
274
     3
278
    44
284
     8
340
CF
371
    -1
372
    25
  0
DIMSTYLE
105
DD
330
A
100
AcDbSymbolTableRecord
100
AcDbDimStyleTableRecord
  2
05-Bopla x45°
 70
     0
 41
2.5
 42
0.0
 43
5.0
 44
1.0
 45
0.00000001
 46
6.999999999999999
 73
     0
 74
     0
 77
     1
 78
     8
 79
     2
140
2.5
143
0.03937
146
0.7200000286102295
147
0.2
171
     3
172
     1
176
     1
177
     1
178
     5
179
     6
271
     6
272
     3
274
     3
278
    44
284
     8
340
CF
371
    25
372
    25
  0
DIMSTYLE
105
DE
330
A
100
AcDbSymbolTableRecord
100
AcDbDimStyleTableRecord
  2
05-Bopla x45°$7
 70
     0
 41
2.5
 42
0.0
 43
5.0
 44
1.0
 45
0.00000001
 46
6.999999999999999
 73
     0
 74
     0
 77
     1
 78
     8
 79
     2
140
2.5
143
0.03937
146
0.7200000286102295
147
0.2
171
     3
172
     1
176
   256
177
     1
178
     5
179
     6
271
     6
272
     3
274
     3
278
    44
284
     8
340
CF
371
    -1
372
    25
  0
DIMSTYLE
105
DF
330
A
100
AcDbSymbolTableRecord
100
AcDbDimStyleTableRecord
  2
06-Bopla Einpressb.
 70
     0
 41
2.5
 42
0.0
 43
5.0
 44
1.0
 45
0.00000001
 46
6.999999999999999
 48
0.000000001
 71
     1
 73
     0
 74
     0
 77
     1
 78
     8
 79
     2
140
2.5
143
0.03937
146
0.7200000286102295
147
0.2
171
     3
172
     1
176
     1
177
     1
178
     5
179
     6
271
     6
272
     3
274
     3
278
    44
284
     8
340
CF
371
    25
372
    25
  0
DIMSTYLE
105
E0
330
A
100
AcDbSymbolTableRecord
100
AcDbDimStyleTableRecord
  2
06-Bopla Einpressb.$7
 70
     0
 41
2.5
 42
0.0
 43
5.0
 44
1.0
 45
0.00000001
 46
6.999999999999999
 48
0.000000001
 71
     1
 73
     0
 74
     0
 77
     1
 78
     8
 79
     2
140
2.5
143
0.03937
146
0.7200000286102295
147
0.2
171
     3
172
     1
176
   256
177
     1
178
     5
179
     6
271
     6
272
     3
274
     3
278
    44
284
     8
340
CF
371
    -1
372
    25
  0
DIMSTYLE
105
E1
330
A
100
AcDbSymbolTableRecord
100
AcDbDimStyleTableRecord
  2
11-Bopla 5
 70
     0
 41
2.5
 42
0.0
 43
5.0
 44
1.0
 45
0.00000001
 46
6.999999999999999
 73
     0
 74
     0
 77
     1
 78
     8
 79
     2
140
5.0
143
0.03937
146
0.6999999880790711
147
0.6
171
     3
172
     1
176
     1
177
     1
178
     7
179
     6
271
     6
272
     3
274
     3
278
    44
284
     8
340
D1
371
    25
372
    25
  0
DIMSTYLE
105
E2
330
A
100
AcDbSymbolTableRecord
100
AcDbDimStyleTableRecord
  2
11-Bopla 5$7
 70
     0
 41
2.5
 42
0.0
 43
5.0
 44
1.0
 45
0.00000001
 46
6.999999999999999
 73
     0
 74
     0
 77
     1
 78
     8
 79
     2
140
5.0
143
0.03937
146
0.6999999880790711
147
0.6
171
     3
172
     1
176
   256
177
     1
178
     7
179
     6
271
     6
272
     3
274
     3
278
    44
284
     8
340
D1
371
    -1
372
    25
  0
DIMSTYLE
105
E3
330
A
100
AcDbSymbolTableRecord
100
AcDbDimStyleTableRecord
  2
12-Bopla 5 (____)
 70
     0
 41
2.5
 42
0.0
 43
5.0
 44
1.0
 45
0.00000001
 46
6.999999999999999
 73
     0
 74
     0
 77
     1
 78
     8
 79
     2
140
5.0
143
0.03937
146
0.6999999880790711
147
0.6
171
     3
172
     1
176
     1
177
     1
178
     7
179
     6
271
     3
272
     3
274
     3
278
    44
284
     8
340
D1
371
    25
372
    25
  0
DIMSTYLE
105
E4
330
A
100
AcDbSymbolTableRecord
100
AcDbDimStyleTableRecord
  2
12-Bopla 5 (____)$7
 70
     0
 41
2.5
 42
0.0
 43
5.0
 44
1.0
 45
0.00000001
 46
6.999999999999999
 73
     0
 74
     0
 77
     1
 78
     8
 79
     2
140
5.0
143
0.03937
146
0.6999999880790711
147
0.6
171
     3
172
     1
176
   256
177
     1
178
     7
179
     6
271
     3
272
     3
274
     3
278
    44
284
     8
340
D1
371
    -1
372
    25
  0
DIMSTYLE
105
E5
330
A
100
AcDbSymbolTableRecord
100
AcDbDimStyleTableRecord
  2
13-Bopla 5 M
 70
     0
 41
2.5
 42
0.0
 43
5.0
 44
1.0
 45
0.00000001
 46
6.999999999999999
 73
     0
 74
     0
 77
     1
 78
     8
 79
     2
140
5.0
143
0.03937
146
0.6999999880790711
147
0.6
171
     3
172
     1
176
     1
177
     1
178
     7
179
     6
271
     6
272
     3
274
     3
278
    44
284
     8
340
D1
371
    25
372
    25
  0
DIMSTYLE
105
E6
330
A
100
AcDbSymbolTableRecord
100
AcDbDimStyleTableRecord
  2
13-Bopla 5 M$7
 70
     0
 41
2.5
 42
0.0
 43
5.0
 44
1.0
 45
0.00000001
 46
6.999999999999999
 73
     0
 74
     0
 77
     1
 78
     8
 79
     2
140
5.0
143
0.03937
146
0.6999999880790711
147
0.6
171
     3
172
     1
176
   256
177
     1
178
     7
179
     6
271
     6
272
     3
274
     3
278
    44
284
     8
340
D1
371
    -1
372
    25
  0
DIMSTYLE
105
E7
330
A
100
AcDbSymbolTableRecord
100
AcDbDimStyleTableRecord
  2
14-Bopla 5 ø
 70
     0
 41
2.5
 42
0.0
 43
5.0
 44
1.0
 45
0.00000001
 46
6.999999999999999
 73
     0
 74
     0
 77
     1
 78
     8
 79
     2
140
5.0
143
0.03937
146
0.6999999880790711
147
0.6
171
     3
172
     1
176
     1
177
     1
178
     7
179
     6
271
     6
272
     3
274
     3
278
    44
284
     8
340
D1
371
    25
372
    25
  0
DIMSTYLE
105
E8
330
A
100
AcDbSymbolTableRecord
100
AcDbDimStyleTableRecord
  2
14-Bopla 5 ø$7
 70
     0
 41
2.5
 42
0.0
 43
5.0
 44
1.0
 45
0.00000001
 46
6.999999999999999
 73
     0
 74
     0
 77
     1
 78
     8
 79
     2
140
5.0
143
0.03937
146
0.6999999880790711
147
0.6
171
     3
172
     1
176
   256
177
     1
178
     7
179
     6
271
     6
272
     3
274
     3
278
    44
284
     8
340
D1
371
    -1
372
    25
  0
DIMSTYLE
105
E9
330
A
100
AcDbSymbolTableRecord
100
AcDbDimStyleTableRecord
  2
15-Bopla 5 x45°
 70
     0
 41
2.5
 42
0.0
 43
5.0
 44
1.0
 45
0.00000001
 46
6.999999999999999
 73
     0
 74
     0
 77
     1
 78
     8
 79
     2
140
5.0
143
0.03937
146
0.6999999880790711
147
0.6
171
     3
172
     1
176
     1
177
     1
178
     7
179
     6
271
     6
272
     3
274
     3
278
    44
284
     8
340
D1
371
    25
372
    25
  0
DIMSTYLE
105
EA
330
A
100
AcDbSymbolTableRecord
100
AcDbDimStyleTableRecord
  2
15-Bopla 5 x45°$7
 70
     0
 41
2.5
 42
0.0
 43
5.0
 44
1.0
 45
0.00000001
 46
6.999999999999999
 73
     0
 74
     0
 77
     1
 78
     8
 79
     2
140
5.0
143
0.03937
146
0.6999999880790711
147
0.6
171
     3
172
     1
176
   256
177
     1
178
     7
179
     6
271
     6
272
     3
274
     3
278
    44
284
     8
340
D1
371
    -1
372
    25
  0
DIMSTYLE
105
EB
330
A
100
AcDbSymbolTableRecord
100
AcDbDimStyleTableRecord
  2
16-Bopla 5 Einpressb.
 70
     0
 41
2.5
 42
0.0
 43
5.0
 44
1.0
 45
0.00000001
 46
6.999999999999999
 48
0.000000001
 71
     1
 73
     0
 74
     0
 77
     1
 78
     8
 79
     2
140
5.0
143
0.03937
146
0.6999999880790711
147
0.6
171
     3
172
     1
176
     1
177
     1
178
     7
179
     6
271
     6
272
     3
274
     3
278
    44
284
     8
340
D1
371
    25
372
    25
  0
DIMSTYLE
105
EC
330
A
100
AcDbSymbolTableRecord
100
AcDbDimStyleTableRecord
  2
16-Bopla 5 Einpressb.$7
 70
     0
 41
2.5
 42
0.0
 43
5.0
 44
1.0
 45
0.00000001
 46
6.999999999999999
 48
0.000000001
 71
     1
 73
     0
 74
     0
 77
     1
 78
     8
 79
     2
140
5.0
143
0.03937
146
0.6999999880790711
147
0.6
171
     3
172
     1
176
   256
177
     1
178
     7
179
     6
271
     6
272
     3
274
     3
278
    44
284
     8
340
D1
371
    -1
372
    25
  0
DIMSTYLE
105
ED
330
A
100
AcDbSymbolTableRecord
100
AcDbDimStyleTableRecord
  2
17-Bopla 7 grosse Pfeile
 70
     0
 41
10.0
 42
0.0
 43
5.0
 44
5.0
 45
0.00000001
 46
6.999999999999999
 73
     0
 74
     0
 77
     1
 78
     8
 79
     2
140
7.0
143
0.03937
146
0.5
147
0.6
171
     3
172
     1
176
     1
177
     1
178
    96
179
     6
271
     6
272
     3
274
     3
278
    44
284
     8
340
D2
371
    25
372
    25
  0
DIMSTYLE
105
EE
330
A
100
AcDbSymbolTableRecord
100
AcDbDimStyleTableRecord
  2
17-Bopla 7 grosse Pfeile$7
 70
     0
 41
2.5
 42
0.0
 43
5.0
 44
5.0
 45
0.00000001
 46
6.999999999999999
 73
     0
 74
     0
 77
     1
 78
     8
 79
     2
140
7.0
143
0.03937
146
0.5
147
0.6
171
     3
172
     1
176
   256
177
     1
178
    96
179
     6
271
     6
272
     3
274
     3
278
    44
284
     8
340
D2
371
    -1
372
    25
  0
DIMSTYLE
105
EF
102
{ACAD_REACTORS
330
1E3
330
2BA
330
390
330
49E
330
574
330
64A
330
720
102
}
330
A
100
AcDbSymbolTableRecord
100
AcDbDimStyleTableRecord
  2
18-Bopla 3_5
 70
     0
 41
2.5
 42
0.0
 43
5.0
 44
1.0
 45
0.00000001
 46
6.999999999999999
 73
     0
 74
     0
 77
     1
 78
     8
 79
     2
140
3.5
143
0.03937
146
0.7142857313156128
147
0.2
171
     3
172
     1
176
     1
177
     1
178
     5
179
     6
271
     6
272
     3
274
     3
278
    44
284
     8
340
D0
371
    25
372
    25
  0
DIMSTYLE
105
F0
330
A
100
AcDbSymbolTableRecord
100
AcDbDimStyleTableRecord
  2
18-Bopla 3_5$7
 70
     0
 41
2.5
 42
0.0
 43
5.0
 44
1.0
 45
0.00000001
 46
6.999999999999999
 73
     0
 74
     0
 77
     1
 78
     8
 79
     2
140
3.5
143
0.03937
146
0.7142857313156128
147
0.2
171
     3
172
     1
176
   256
177
     1
178
     5
179
     6
271
     6
272
     3
274
     3
278
    44
284
     8
340
D0
371
    -1
372
    25
  0
DIMSTYLE
105
F1
330
A
100
AcDbSymbolTableRecord
100
AcDbDimStyleTableRecord
  2
19-Bopla 3_5 (____)
 70
     0
 41
2.5
 42
0.0
 43
5.0
 44
1.0
 45
0.00000001
 46
6.999999999999999
 73
     0
 74
     0
 77
     1
 78
     8
 79
     2
140
3.5
143
0.03937
146
0.7142857313156128
147
0.2
171
     3
172
     1
176
     1
177
     1
178
     5
179
     6
271
     3
272
     3
274
     3
278
    44
284
     8
340
D0
371
    25
372
    25
  0
DIMSTYLE
105
F2
330
A
100
AcDbSymbolTableRecord
100
AcDbDimStyleTableRecord
  2
19-Bopla 3_5 (____)$7
 70
     0
 41
2.5
 42
0.0
 43
5.0
 44
1.0
 45
0.00000001
 46
6.999999999999999
 73
     0
 74
     0
 77
     1
 78
     8
 79
     2
140
3.5
143
0.03937
146
0.7142857313156128
147
0.2
171
     3
172
     1
176
   256
177
     1
178
     5
179
     6
271
     3
272
     3
274
     3
278
    44
284
     8
340
D0
371
    -1
372
    25
  0
DIMSTYLE
105
F3
330
A
100
AcDbSymbolTableRecord
100
AcDbDimStyleTableRecord
  2
20-Bopla 3_5 M
 70
     0
 41
2.5
 42
0.0
 43
5.0
 44
1.0
 45
0.00000001
 46
6.999999999999999
 73
     0
 74
     0
 77
     1
 78
     8
 79
     2
140
3.5
143
0.03937
146
0.7142857313156128
147
0.2
171
     3
172
     1
176
     1
177
     1
178
     5
179
     6
271
     6
272
     3
274
     3
278
    44
284
     8
340
D0
371
    25
372
    25
  0
DIMSTYLE
105
F4
330
A
100
AcDbSymbolTableRecord
100
AcDbDimStyleTableRecord
  2
20-Bopla 3_5 M$7
 70
     0
 41
2.5
 42
0.0
 43
5.0
 44
1.0
 45
0.00000001
 46
6.999999999999999
 73
     0
 74
     0
 77
     1
 78
     8
 79
     2
140
3.5
143
0.03937
146
0.7142857313156128
147
0.2
171
     3
172
     1
176
   256
177
     1
178
     5
179
     6
271
     6
272
     3
274
     3
278
    44
284
     8
340
D0
371
    -1
372
    25
  0
DIMSTYLE
105
F5
330
A
100
AcDbSymbolTableRecord
100
AcDbDimStyleTableRecord
  2
21-Bopla ø
 70
     0
 41
2.5
 42
0.0
 43
5.0
 44
1.0
 45
0.00000001
 46
6.999999999999999
 73
     0
 74
     0
 77
     1
 78
     8
 79
     2
140
3.5
143
0.03937
146
0.7142857313156128
147
0.2
171
     3
172
     1
176
     1
177
     1
178
     5
179
     6
271
     6
272
     3
274
     3
278
    44
284
     8
340
D0
371
    25
372
    25
  0
DIMSTYLE
105
F6
330
A
100
AcDbSymbolTableRecord
100
AcDbDimStyleTableRecord
  2
21-Bopla ø$7
 70
     0
 41
2.5
 42
0.0
 43
5.0
 44
1.0
 45
0.00000001
 46
6.999999999999999
 73
     0
 74
     0
 77
     1
 78
     8
 79
     2
140
3.5
143
0.03937
146
0.7142857313156128
147
0.2
171
     3
172
     1
176
   256
177
     1
178
     5
179
     6
271
     6
272
     3
274
     3
278
    44
284
     8
340
D0
371
    -1
372
    25
  0
DIMSTYLE
105
F7
330
A
100
AcDbSymbolTableRecord
100
AcDbDimStyleTableRecord
  2
22-Bopla x45°
 70
     0
 41
2.5
 42
0.0
 43
5.0
 44
1.0
 45
0.00000001
 46
6.999999999999999
 73
     0
 74
     0
 77
     1
 78
     8
 79
     2
140
3.5
143
0.03937
146
0.7142857313156128
147
0.2
171
     3
172
     1
176
     1
177
     1
178
     5
179
     6
271
     6
272
     3
274
     3
278
    44
284
     8
340
D0
371
    25
372
    25
  0
DIMSTYLE
105
F8
330
A
100
AcDbSymbolTableRecord
100
AcDbDimStyleTableRecord
  2
22-Bopla x45°$7
 70
     0
 41
2.5
 42
0.0
 43
5.0
 44
1.0
 45
0.00000001
 46
6.999999999999999
 73
     0
 74
     0
 77
     1
 78
     8
 79
     2
140
3.5
143
0.03937
146
0.7142857313156128
147
0.2
171
     3
172
     1
176
   256
177
     1
178
     5
179
     6
271
     6
272
     3
274
     3
278
    44
284
     8
340
D0
371
    -1
372
    25
  0
DIMSTYLE
105
F9
330
A
100
AcDbSymbolTableRecord
100
AcDbDimStyleTableRecord
  2
23-Bopla Einpressb.
 70
     0
 41
2.5
 42
0.0
 43
5.0
 44
1.0
 45
0.00000001
 46
6.999999999999999
 48
0.000000001
 71
     1
 73
     0
 74
     0
 77
     1
 78
     8
 79
     2
140
3.5
143
0.03937
146
0.7142857313156128
147
0.2
171
     3
172
     1
176
     1
177
     1
178
     5
179
     6
271
     6
272
     3
274
     3
278
    44
284
     8
340
D0
371
    25
372
    25
  0
DIMSTYLE
105
FA
330
A
100
AcDbSymbolTableRecord
100
AcDbDimStyleTableRecord
  2
23-Bopla Einpressb.$7
 70
     0
 41
2.5
 42
0.0
 43
5.0
 44
1.0
 45
0.00000001
 46
6.999999999999999
 48
0.000000001
 71
     1
 73
     0
 74
     0
 77
     1
 78
     8
 79
     2
140
3.5
143
0.03937
146
0.7142857313156128
147
0.2
171
     3
172
     1
176
   256
177
     1
178
     5
179
     6
271
     6
272
     3
274
     3
278
    44
284
     8
340
D0
371
    -1
372
    25
  0
DIMSTYLE
105
FB
330
A
100
AcDbSymbolTableRecord
100
AcDbDimStyleTableRecord
  2
Standard - Methode 2a (DIN)
 70
     0
 41
2.5
 42
0.0
 43
5.999999999999999
 44
1.0
 45
0.00000001
 46
10.0
 77
     1
 78
     8
 79
     2
140
2.5
143
0.03937
146
1.399999976158142
147
0.2
170
     1
171
     3
172
     1
176
   256
177
   256
178
     5
179
     2
271
     2
272
     2
274
     3
278
    44
284
     8
286
     8
340
D4
371
    -1
372
    -1
  0
DIMSTYLE
105
FC
330
A
100
AcDbSymbolTableRecord
100
AcDbDimStyleTableRecord
  2
Standard - Methode 2a (DIN)$7
 70
     0
 41
2.5
 42
0.0
 43
5.999999999999999
 44
1.0
 45
0.00000001
 46
10.0
 77
     1
 78
     8
 79
     2
140
2.5
143
0.03937
146
1.399999976158142
147
0.2
170
     1
171
     3
172
     1
176
   256
177
   256
178
     5
179
     2
271
     2
272
     2
274
     3
278
    44
284
     8
286
     8
340
D4
371
    -1
372
    -1
  0
DIMSTYLE
105
FD
330
A
100
AcDbSymbolTableRecord
100
AcDbDimStyleTableRecord
  2
Standard (DIN)
 70
     0
 41
2.5
 42
0.0
 43
5.0
 44
1.0
 45
0.00000001
 46
6.999999999999999
 73
     0
 74
     0
 77
     1
 78
     8
 79
     2
140
2.5
143
0.03937
146
0.7200000286102295
147
0.2
171
     3
172
     1
176
   256
177
   256
178
     5
179
     6
271
     6
272
     2
274
     3
278
    44
284
     8
340
CF
371
    -1
372
    -1
  0
DIMSTYLE
105
FE
330
A
100
AcDbSymbolTableRecord
100
AcDbDimStyleTableRecord
  2
Standard (DIN)$7
 70
     0
 41
2.5
 42
0.0
 43
5.0
 44
1.0
 45
0.00000001
 46
6.999999999999999
 73
     0
 74
     0
 77
     1
 78
     8
 79
     2
140
2.5
143
0.03937
146
0.7200000286102295
147
0.2
171
     3
172
     1
176
   256
177
   256
178
     5
179
     6
271
     6
272
     2
274
     3
278
    44
284
     8
340
CF
371
    -1
372
    -1
  0
DIMSTYLE
105
FF
330
A
100
AcDbSymbolTableRecord
100
AcDbDimStyleTableRecord
  2
Alternativ (ISO)
 70
     0
 41
2.5
340
55
  0
DIMSTYLE
105
10B
330
A
100
AcDbSymbolTableRecord
100
AcDbDimStyleTableRecord
  2
Bezug (ISO)
 70
     0
 41
2.5
340
55
  0
DIMSTYLE
105
11A
330
A
100
AcDbSymbolTableRecord
100
AcDbDimStyleTableRecord
  2
Groß (ISO)
 70
     0
 41
5.0
340
55
  0
ENDTAB
  0
TABLE
  2
BLOCK_RECORD
  5
1
330
0
100
AcDbSymbolTable
 70
    13
  0
BLOCK_RECORD
  5
71
330
1
100
AcDbSymbolTableRecord
100
AcDbBlockTableRecord
  2
*Model_Space
340
74
  0
BLOCK_RECORD
  5
6D
330
1
100
AcDbSymbolTableRecord
100
AcDbBlockTableRecord
  2
*Paper_Space
340
70
  0
BLOCK_RECORD
  5
75
330
1
100
AcDbSymbolTableRecord
100
AcDbBlockTableRecord
  2
*Paper_Space0
340
78
  0
BLOCK_RECORD
  5
100
330
1
100
AcDbSymbolTableRecord
100
AcDbBlockTableRecord
  2
DatumFilled45
340
0
  0
BLOCK_RECORD
  5
10C
330
1
100
AcDbSymbolTableRecord
100
AcDbBlockTableRecord
  2
Filled-1
340
0
  0
BLOCK_RECORD
  5
11B
330
1
100
AcDbSymbolTableRecord
100
AcDbBlockTableRecord
  2
Freigabesymbol
340
0
  0
BLOCK_RECORD
  5
13C
330
1
100
AcDbSymbolTableRecord
100
AcDbBlockTableRecord
  2
Ränder Bopla-A3-Rahmen
340
0
102
{BLKREFS
331
150
102
}
  0
BLOCK_RECORD
  5
151
330
1
100
AcDbSymbolTableRecord
100
AcDbBlockTableRecord
  2
Schriftfelder Katalogzeichnung
340
0
102
{BLKREFS
331
1AA
102
}
  0
BLOCK_RECORD
  5
1E5
330
1
100
AcDbSymbolTableRecord
100
AcDbBlockTableRecord
  2
*D6
340
0
  0
BLOCK_RECORD
  5
2BB
330
1
100
AcDbSymbolTableRecord
100
AcDbBlockTableRecord
  2
*D7
340
0
  0
BLOCK_RECORD
  5
391
330
1
100
AcDbSymbolTableRecord
100
AcDbBlockTableRecord
  2
*D8
340
0
  0
BLOCK_RECORD
  5
49F
330
1
100
AcDbSymbolTableRecord
100
AcDbBlockTableRecord
  2
*D9
340
0
  0
BLOCK_RECORD
  5
575
330
1
100
AcDbSymbolTableRecord
100
AcDbBlockTableRecord
  2
*D10
340
0
  0
BLOCK_RECORD
  5
64B
330
1
100
AcDbSymbolTableRecord
100
AcDbBlockTableRecord
  2
*D11
340
0
  0
BLOCK_RECORD
  5
721
330
1
100
AcDbSymbolTableRecord
100
AcDbBlockTableRecord
  2
*D12
340
0
  0
ENDTAB
  0
ENDSEC
  0
SECTION
  2
BLOCKS
  0
BLOCK
  5
72
330
71
100
AcDbEntity
  8
0
100
AcDbBlockBegin
  2
*Model_Space
 70
     0
 10
0.0
 20
0.0
 30
0.0
  3
*Model_Space
  1

  0
ENDBLK
  5
73
330
71
100
AcDbEntity
  8
0
100
AcDbBlockEnd
  0
BLOCK
  5
6E
330
6D
100
AcDbEntity
 67
     1
  8
0
100
AcDbBlockBegin
  2
*Paper_Space
 70
     0
 10
0.0
 20
0.0
 30
0.0
  3
*Paper_Space
  1

  0
ENDBLK
  5
6F
330
6D
100
AcDbEntity
 67
     1
  8
0
100
AcDbBlockEnd
  0
BLOCK
  5
76
330
75
100
AcDbEntity
 67
     1
  8
0
100
AcDbBlockBegin
  2
*Paper_Space0
 70
     0
 10
0.0
 20
0.0
 30
0.0
  3
*Paper_Space0
  1

  0
ENDBLK
  5
77
330
75
100
AcDbEntity
 67
     1
  8
0
100
AcDbBlockEnd
  0
BLOCK
  5
101
330
100
100
AcDbEntity
  8
0
100
AcDbBlockBegin
  2
DatumFilled45
 70
     0
 10
0.0
 20
0.0
 30
0.0
  3
DatumFilled45
  1

  0
POLYLINE
  5
103
330
100
100
AcDbEntity
  8
0
 62
     0
100
AcDb2dPolyline
 66
     1
 10
0.0
 20
0.0
 30
0.0
 70
   128
  0
VERTEX
  5
104
330
103
100
AcDbEntity
  8
0
 62
     0
100
AcDbVertex
100
AcDb2dVertex
 10
0.0
 20
1.0
 30
0.0
  0
VERTEX
  5
105
330
103
100
AcDbEntity
  8
0
 62
     0
100
AcDbVertex
100
AcDb2dVertex
 10
0.0
 20
-1.0
 30
0.0
  0
VERTEX
  5
107
330
103
100
AcDbEntity
  8
0
 62
     0
100
AcDbVertex
100
AcDb2dVertex
 10
-1.0
 20
0.0
 30
0.0
  0
VERTEX
  5
108
330
103
100
AcDbEntity
  8
0
 62
     0
100
AcDbVertex
100
AcDb2dVertex
 10
0.0
 20
1.0
 30
0.0
  0
SEQEND
  5
106
330
103
100
AcDbEntity
  8
0
 62
     0
  0
SOLID
  5
10A
330
100
100
AcDbEntity
  8
0
 62
     0
100
AcDbTrace
 10
0.0
 20
1.0
 30
0.0
 11
0.0
 21
-1.0
 31
0.0
 12
-1.0
 22
0.0
 32
0.0
 13
0.0
 23
1.0
 33
0.0
  0
ENDBLK
  5
102
330
100
100
AcDbEntity
  8
0
100
AcDbBlockEnd
  0
BLOCK
  5
10D
330
10C
100
AcDbEntity
  8
0
100
AcDbBlockBegin
  2
Filled-1
 70
     0
 10
0.0
 20
0.0
 30
0.0
  3
Filled-1
  1

  0
LINE
  5
10F
330
10C
100
AcDbEntity
  8
0
 62
     0
100
AcDbLine
 10
-1.0
 20
0.0
 30
0.0
 11
0.0
 21
0.0
 31
0.0
  0
POLYLINE
  5
110
330
10C
100
AcDbEntity
  8
0
 62
     0
100
AcDb2dPolyline
 66
     1
 10
0.0
 20
0.0
 30
0.0
 70
   128
  0
VERTEX
  5
111
330
110
100
AcDbEntity
  8
0
 62
     0
100
AcDbVertex
100
AcDb2dVertex
 10
-1.0
 20
-0.1
 30
0.0
  0
VERTEX
  5
112
330
110
100
AcDbEntity
  8
0
 62
     0
100
AcDbVertex
100
AcDb2dVertex
 10
0.0
 20
0.0
 30
0.0
  0
VERTEX
  5
114
330
110
100
AcDbEntity
  8
0
 62
     0
100
AcDbVertex
100
AcDb2dVertex
 10
-1.0
 20
0.1
 30
0.0
  0
VERTEX
  5
115
330
110
100
AcDbEntity
  8
0
 62
     0
100
AcDbVertex
100
AcDb2dVertex
 10
-1.0
 20
-0.1
 30
0.0
  0
SEQEND
  5
113
330
110
100
AcDbEntity
  8
0
 62
     0
  0
SOLID
  5
116
330
10C
100
AcDbEntity
  8
0
 62
     0
100
AcDbTrace
 10
-1.0
 20
-0.1
 30
0.0
 11
0.0
 21
0.0
 31
0.0
 12
-1.0
 22
0.1
 32
0.0
 13
-1.0
 23
-0.1
 33
0.0
  0
LINE
  5
117
330
10C
100
AcDbEntity
  8
0
 62
     0
100
AcDbLine
 10
-1.0
 20
-0.1
 30
0.0
 11
0.0
 21
0.0
 31
0.0
  0
LINE
  5
118
330
10C
100
AcDbEntity
  8
0
 62
     0
100
AcDbLine
 10
0.0
 20
0.0
 30
0.0
 11
-1.0
 21
0.1
 31
0.0
  0
LINE
  5
119
330
10C
100
AcDbEntity
  8
0
 62
     0
100
AcDbLine
 10
-1.0
 20
0.1
 30
0.0
 11
-1.0
 21
-0.1
 31
0.0
  0
ENDBLK
  5
10E
330
10C
100
AcDbEntity
  8
0
100
AcDbBlockEnd
  0
BLOCK
  5
11C
330
11B
100
AcDbEntity
  8
0
100
AcDbBlockBegin
  2
Freigabesymbol
 70
     2
 10
0.0
 20
0.0
 30
0.0
  3
Freigabesymbol
  1

  0
LINE
  5
11E
330
11B
100
AcDbEntity
  8
0
  6
Continuous
 62
     3
370
    50
100
AcDbLine
 10
-3.999999999999914
 20
13.99999999999998
 30
0.0
 11
-97.99999999999968
 21
13.99999999999998
 31
0.0
  0
LINE
  5
11F
330
11B
100
AcDbEntity
  8
0
  6
Continuous
 62
     3
370
    50
100
AcDbLine
 10
-4.500000000000099
 20
58.0
 30
0.0
 11
-97.49999999999964
 21
58.0
 31
0.0
  0
LINE
  5
120
330
11B
100
AcDbEntity
  8
0
  6
Continuous
 62
     3
370
    50
100
AcDbLine
 10
-99.99999999999964
 20
4.499999999999992
 30
0.0
 11
-99.99999999999964
 21
55.5
 31
0.0
  0
LINE
  5
121
330
11B
100
AcDbEntity
  8
0
  6
Continuous
 62
     3
370
    50
100
AcDbLine
 10
-1.999999999999957
 20
4.499999999999992
 30
0.0
 11
-1.999999999999957
 21
55.5
 31
0.0
  0
ARC
  5
122
330
11B
100
AcDbEntity
  8
0
  6
Continuous
 62
     3
370
    50
100
AcDbCircle
 10
-97.49999999999964
 20
4.499999999999992
 30
0.0
 40
2.5
100
AcDbArc
 50
180.0
 51
270.0
  0
ARC
  5
123
330
11B
100
AcDbEntity
  8
0
  6
Continuous
 62
     3
370
    50
100
AcDbCircle
 10
-4.499999999999957
 20
4.499999999999992
 30
0.0
 40
2.5
100
AcDbArc
 50
270.0
 51
0.0
  0
LINE
  5
124
330
11B
100
AcDbEntity
  8
0
  6
Continuous
 62
     3
370
    50
100
AcDbLine
 10
-4.499999999999957
 20
1.999999999999992
 30
0.0
 11
-97.49999999999964
 21
1.999999999999992
 31
0.0
  0
ARC
  5
125
330
11B
100
AcDbEntity
  8
0
  6
Continuous
 62
     3
370
    50
100
AcDbCircle
 10
-97.49999999999964
 20
55.5
 30
0.0
 40
2.5
100
AcDbArc
 50
90.0
 51
180.0
  0
ARC
  5
126
330
11B
100
AcDbEntity
  8
0
  6
Continuous
 62
     3
370
    50
100
AcDbCircle
 10
-4.499999999999957
 20
55.5
 30
0.0
 40
2.5
100
AcDbArc
 50
0.0
 51
90.0
  0
LINE
  5
127
330
11B
100
AcDbEntity
  8
0
  6
Continuous
 62
     3
370
    50
100
AcDbLine
 10
-3.999999999999985
 20
46.00000000000001
 30
0.0
 11
-97.99999999999961
 21
46.00000000000001
 31
0.0
  0
TEXT
  5
129
330
11B
100
AcDbEntity
  8
0
 62
     3
100
AcDbText
 10
-96.99999999999967
 20
8.999999999999985
 30
0.0
 40
3.499999940395355
  1
Entwicklungsstand vom
 41
1.25
  7
Textstil159
100
AcDbText
  0
MTEXT
  5
12B
330
11B
100
AcDbEntity
  8
0
 62
     5
100
AcDbMText
 10
-96.99999999999967
 20
40.91573902467889
 30
0.0
 40
2.5
 41
0.0
 71
     7
 72
     1
  1
Freigabe am /\fISOCPEUR|b0|i1;\H2.5000; approved on\fISOCPEUR|b0|i0;\H2.5000; ____________
 73
     2
 44
1.0
1001
ACAD
1000
MTEXTBEGIN
1070
    73
1070
     2
1070
    44
1040
1.0
1070
    74
1070
     0
1000
MTEXTEND
  0
MTEXT
  5
12D
330
11B
100
AcDbEntity
  8
0
 62
     5
100
AcDbMText
 10
-96.99999999999974
 20
35.91573902467889
 30
0.0
 40
2.5
 41
0.0
 71
     7
 72
     1
  1
durch / \fISOCPEUR|b0|i1;\H2.5000;by\fISOCPEUR|b0|i0;\H2.5000; _________________________
 73
     2
 44
1.0
1001
ACAD
1000
MTEXTBEGIN
1070
    73
1070
     2
1070
    44
1040
1.0
1070
    74
1070
     0
1000
MTEXTEND
  0
TEXT
  5
12E
330
11B
100
AcDbEntity
  8
0
 62
     5
100
AcDbText
 10
-96.99999999999974
 20
31.00000000000001
 30
0.0
 40
2.5
  1
Die Gültigkeit dieses Dokuments erlischt mit der
 41
1.099999904632568
100
AcDbText
  0
TEXT
  5
12F
330
11B
100
AcDbEntity
  8
0
 62
     5
100
AcDbText
 10
-96.99999999999974
 20
26.00000000000001
 30
0.0
 40
2.5
  1
Freigabe. Gültig sind die daraus erstellten Unterlagen.
 41
1.099999904632568
100
AcDbText
  0
TEXT
  5
131
330
11B
100
AcDbEntity
  8
0
 62
     5
100
AcDbText
 10
-96.99999999999974
 20
21.00000000000001
 30
0.0
 40
2.5
  1
The validy of this document ends after approval.
 41
1.099999904632568
  7
Textstil246
100
AcDbText
  0
TEXT
  5
134
330
11B
100
AcDbEntity
  8
0
 62
     3
100
AcDbText
 10
-92.89500081379868
 20
52.25000002980234
 30
0.0
 40
3.499999940395355
  1
Zeichnung nicht freigegeben
 41
1.400000095367431
  7
Textstil117
 72
     1
 11
-50.9999999999998
 21
54.00000000000002
 31
0.0
100
AcDbText
 73
     2
  0
ATTDEF
  5
135
102
{ACAD_XDICTIONARY
360
833
102
}
330
11B
100
AcDbEntity
  8
0
 62
     3
100
AcDbText
 10
-34.43749997869606
 20
6.999999999999992
 30
0.0
 40
3.499999940395355
  1
13.07.2012
 41
1.25
  7
Textstil159
100
AcDbAttributeDefinition
  3
30-Entwicklungsstand
  2
30-Entwicklungsstand_001
 70
     0
  0
TEXT
  5
138
330
11B
100
AcDbEntity
  8
0
 62
     3
100
AcDbText
 10
-85.36310672809975
 20
47.25000002980234
 30
0.0
 40
3.499999940395355
  1
Drawing not approved
 41
1.400000095367431
  7
Textstil251
 72
     1
 11
-50.9999999999998
 21
49.00000000000002
 31
0.0
100
AcDbText
 73
     2
  0
TEXT
  5
139
330
11B
100
AcDbEntity
  8
0
 62
     5
100
AcDbText
 10
-96.99999999999967
 20
16.00000000000001
 30
0.0
 40
2.5
  1
The documentation prepared using it is valid.
 41
1.099999904632568
  7
Textstil246
100
AcDbText
  0
TEXT
  5
13B
330
11B
100
AcDbEntity
  8
0
 62
     3
100
AcDbText
 10
-96.99999999999967
 20
3.999999999999985
 30
0.0
 40
3.000000119209289
  1
Development status as of
 41
1.200000047683715
  7
Textstil244
100
AcDbText
  0
ENDBLK
  5
11D
330
11B
100
AcDbEntity
  8
0
100
AcDbBlockEnd
  0
BLOCK
  5
13D
330
13C
100
AcDbEntity
  8
0
100
AcDbBlockBegin
  2
Ränder Bopla-A3-Rahmen
 70
     0
 10
0.0
 20
0.0
 30
0.0
  3
Ränder Bopla-A3-Rahmen
  1

  0
LINE
  5
13F
330
13C
100
AcDbEntity
  8
0
  6
Continuous
 62
     1
370
    18
100
AcDbLine
 10
230.0
 20
4.999999999999999
 30
0.0
 11
230.0
 21
0.9999999999999998
 31
0.0
  0
LINE
  5
140
330
13C
100
AcDbEntity
  8
0
  6
Continuous
 62
     3
370
    70
100
AcDbLine
 10
415.0
 20
4.999999999999999
 30
0.0
 11
20.0
 21
4.999999999999999
 31
0.0
  0
LINE
  5
141
330
13C
100
AcDbEntity
  8
0
  6
Continuous
 62
     1
370
    18
100
AcDbLine
 10
124.9999999999999
 20
296.0
 30
0.0
 11
124.9999999999999
 21
292.0
 31
0.0
  0
LINE
  5
142
330
13C
100
AcDbEntity
  8
0
  6
Continuous
 62
     1
370
    18
100
AcDbLine
 10
229.9999999999999
 20
296.0
 30
0.0
 11
229.9999999999999
 21
292.0
 31
0.0
  0
LINE
  5
143
330
13C
100
AcDbEntity
  8
0
  6
Continuous
 62
     1
370
    18
100
AcDbLine
 10
125.0
 20
4.999999999999999
 30
0.0
 11
125.0
 21
0.9999999999999998
 31
0.0
  0
LINE
  5
144
330
13C
100
AcDbEntity
  8
0
  6
Continuous
 62
     1
370
    18
100
AcDbLine
 10
419.0
 20
0.9999999999999998
 30
0.0
 11
1.000000000000014
 21
0.9999999999999964
 31
0.0
  0
LINE
  5
145
330
13C
100
AcDbEntity
  8
0
  6
Continuous
 62
     1
370
    18
100
AcDbLine
 10
1.0
 20
0.9999999999999964
 30
0.0
 11
1.0
 21
296.0
 31
0.0
  0
LINE
  5
146
330
13C
100
AcDbEntity
  8
0
  6
Continuous
 62
     1
370
    18
100
AcDbLine
 10
1.0
 20
296.0
 30
0.0
 11
419.0
 21
296.0
 31
0.0
  0
LINE
  5
147
330
13C
100
AcDbEntity
  8
0
  6
Continuous
 62
     1
370
    18
100
AcDbLine
 10
419.0
 20
296.0
 30
0.0
 11
419.0
 21
1.000000000000014
 31
0.0
  0
LINE
  5
148
330
13C
100
AcDbEntity
  8
0
  6
Continuous
 62
     3
370
    70
100
AcDbLine
 10
20.0
 20
4.999999999999999
 30
0.0
 11
20.0
 21
292.0
 31
0.0
  0
LINE
  5
149
330
13C
100
AcDbEntity
  8
0
  6
Continuous
 62
     3
370
    70
100
AcDbLine
 10
20.0
 20
292.0
 30
0.0
 11
415.0
 21
292.0
 31
0.0
  0
LINE
  5
14A
330
13C
100
AcDbEntity
  8
0
  6
Continuous
 62
     3
370
    70
100
AcDbLine
 10
415.0
 20
292.0
 30
0.0
 11
415.0
 21
5.0
 31
0.0
  0
MTEXT
  5
14C
330
13C
100
AcDbEntity
  8
Rahmen (ISO)
 62
     1
100
AcDbMText
 10
18.39175326375766
 20
55.20949653028296
 30
0.0
 40
2.029999941587448
 41
0.0
 71
     7
 72
     1
  1
"Schutzvermerk nach DIN ISO 16016 beachten" 
  7
Textstil239
 11
-0.0000000000000002
 21
1.0
 31
0.0
 73
     1
 44
1.0
1001
ACAD
1000
MTEXTBEGIN
1070
    73
1070
     1
1070
    44
1040
1.0
1070
    74
1070
     0
1000
MTEXTEND
  0
MTEXT
  5
14E
330
13C
100
AcDbEntity
  8
Rahmen (ISO)
 62
     1
100
AcDbMText
 10
18.99999999998611
 20
125.6988145130381
 30
0.0
 40
2.029999941587448
 41
0.0
 71
     7
 72
     1
  1
"Please pay attention to copyright note DIN ISO 16016"
  7
Textstil250
 11
-0.0000000000000002
 21
1.0
 31
0.0
 73
     1
 44
1.0
1001
ACAD
1000
MTEXTBEGIN
1070
    73
1070
     1
1070
    44
1040
1.0
1070
    74
1070
     0
1000
MTEXTEND
  0
ENDBLK
  5
13E
330
13C
100
AcDbEntity
  8
0
100
AcDbBlockEnd
  0
BLOCK
  5
152
330
151
100
AcDbEntity
  8
0
100
AcDbBlockBegin
  2
Schriftfelder Katalogzeichnung
 70
     2
 10
0.0
 20
0.0
 30
0.0
  3
Schriftfelder Katalogzeichnung
  1

  0
HATCH
  5
157
330
151
100
AcDbEntity
  8
Schraffur (ISO)
 62
     1
100
AcDbHatch
 10
0.0
 20
0.0
 30
0.0
210
0.0
220
0.0
230
1.0
  2
ANSI31
 70
     0
 71
     0
 91
        1
 92
        1
 93
        3
 72
     1
 10
395.7841604702593
 20
37.30672884538172
 11
391.6341604702594
 21
37.30672884538172
 72
     1
 10
391.6341604702593
 20
37.30672884538172
 11
391.6341604702593
 21
33.15672884538172
 72
     2
 10
391.6341604702593
 20
37.30672884538172
 40
4.15
 50
90.0
 51
360.0
 73
     0
 97
        0
 75
     0
 76
     1
 52
0.0
 41
5.08
 77
     0
 78
     1
 53
45.0
 43
0.0
 44
0.0
 45
-0.4490128060534576
 46
0.4490128060534577
 79
     0
 98
        1
 10
0.0
 20
0.0
  0
HATCH
  5
15D
330
151
100
AcDbEntity
  8
Schraffur (ISO)
 62
     7
100
AcDbHatch
 10
0.0
 20
0.0
 30
0.0
210
0.0
220
0.0
230
1.0
  2
SOLID
 70
     1
 71
     0
 91
        1
 92
        1
 93
        5
 72
     1
 10
392.4841604702593
 20
33.15672884538172
 11
404.4841604702593
 21
33.15672884538172
 72
     1
 10
404.4841604702593
 20
33.15672884538172
 11
404.4841604702593
 21
40.95672884538171
 72
     1
 10
404.4841604702593
 20
40.95672884538171
 11
399.1841604702593
 21
34.05672884538172
 72
     1
 10
399.1841604702593
 20
34.05672884538172
 11
399.1841604702593
 21
40.95672884538171
 72
     1
 10
399.1841604702593
 20
40.95672884538171
 11
392.4841604702592
 21
33.15672884538172
 97
        0
 75
     0
 76
     1
 98
        1
 10
0.0
 20
0.0
  0
CIRCLE
  5
15E
330
151
100
AcDbEntity
  8
0
  6
Continuous
 62
     5
100
AcDbCircle
 10
402.9841604702583
 20
104.3067288453815
 30
0.0
 40
1.75
  0
CIRCLE
  5
15F
330
151
100
AcDbEntity
  8
0
  6
Continuous
 62
     5
100
AcDbCircle
 10
402.9841604702583
 20
104.3067288453815
 30
0.0
 40
3.5
  0
LINE
  5
160
330
151
100
AcDbEntity
  8
0
  6
Continuous
 62
     5
100
AcDbLine
 10
390.9841604702591
 20
102.5567288453815
 30
0.0
 11
390.9841604702583
 21
106.0567288453815
 31
0.0
  0
LINE
  5
161
330
151
100
AcDbEntity
  8
0
  6
Continuous
 62
     5
100
AcDbLine
 10
397.9841604702583
 20
107.806728845382
 30
0.0
 11
390.9841604702583
 21
106.0567288453815
 31
0.0
  0
LINE
  5
162
330
151
100
AcDbEntity
  8
0
  6
Continuous
 62
     5
100
AcDbLine
 10
397.9841604702593
 20
100.8067288453819
 30
0.0
 11
397.9841604702583
 21
107.806728845382
 31
0.0
  0
LINE
  5
163
330
151
100
AcDbEntity
  8
0
  6
Continuous
 62
     5
100
AcDbLine
 10
397.9841604702593
 20
100.8067288453819
 30
0.0
 11
390.9841604702591
 21
102.5567288453815
 31
0.0
  0
LINE
  5
164
330
151
100
AcDbEntity
  8
0
  6
ACAD_ISO04W100
 62
     1
100
AcDbLine
 10
407.4841604702583
 20
104.3067288453815
 30
0.0
 11
389.9841604702589
 21
104.3067288453815
 31
0.0
  0
LINE
  5
165
330
151
100
AcDbEntity
  8
0
  6
ACAD_ISO04W100
 62
     1
100
AcDbLine
 10
402.9841604702583
 20
99.80672884538172
 30
0.0
 11
402.9841604702583
 21
108.8067288453812
 31
0.0
  0
ARC
  5
166
330
151
100
AcDbEntity
  8
Verdeckt (ISO)
  6
Continuous
 62
     5
370
    35
100
AcDbCircle
 10
309.9841608643611
 20
108.3067288453817
 30
0.0
 40
2.5
100
AcDbArc
 50
90.0
 51
180.0
  0
ARC
  5
167
330
151
100
AcDbEntity
  8
Verdeckt (ISO)
  6
Continuous
 62
     5
370
    35
100
AcDbCircle
 10
309.9841608643611
 20
97.30672884538172
 30
0.0
 40
2.5
100
AcDbArc
 50
90.0
 51
180.0
  0
ARC
  5
168
330
151
100
AcDbEntity
  8
Verdeckt (ISO)
  6
Continuous
 62
     5
370
    35
100
AcDbCircle
 10
309.9841608643612
 20
82.30672884538169
 30
0.0
 40
2.5
100
AcDbArc
 50
90.0
 51
180.0
  0
ARC
  5
169
330
151
100
AcDbEntity
  8
Verdeckt (ISO)
  6
Continuous
 62
     5
370
    35
100
AcDbCircle
 10
309.9841608643612
 20
51.80672884538171
 30
0.0
 40
2.5
100
AcDbArc
 50
90.0
 51
180.0
  0
LINE
  5
16A
330
151
100
AcDbEntity
  8
Verdeckt (ISO)
  6
Continuous
 62
     5
370
    35
100
AcDbLine
 10
407.4841604702593
 20
84.8067288453817
 30
0.0
 11
309.9841608643612
 21
84.80672884538167
 31
0.0
  0
LINE
  5
16B
330
151
100
AcDbEntity
  8
Verdeckt (ISO)
  6
Continuous
 62
     5
370
    35
100
AcDbLine
 10
407.4841604702593
 20
54.30672884538171
 30
0.0
 11
309.9841608643612
 21
54.30672884538171
 31
0.0
  0
LINE
  5
16C
330
151
100
AcDbEntity
  8
Verdeckt (ISO)
  6
Continuous
 62
     5
370
    35
100
AcDbLine
 10
407.4841604702593
 20
20.80672884538171
 30
0.0
 11
307.4841608643612
 21
20.80672884538171
 31
0.0
  0
LINE
  5
16D
330
151
100
AcDbEntity
  8
Verdeckt (ISO)
  6
Continuous
 62
     5
370
    35
100
AcDbLine
 10
407.4841604702583
 20
110.8067288453817
 30
0.0
 11
309.9841608643611
 21
110.8067288453817
 31
0.0
  0
LINE
  5
16E
330
151
100
AcDbEntity
  8
Verdeckt (ISO)
  6
Continuous
 62
     5
370
    35
100
AcDbLine
 10
407.4841604702583
 20
99.80672884538172
 30
0.0
 11
309.9841608643611
 21
99.80672884538172
 31
0.0
  0
LINE
  5
16F
330
151
100
AcDbEntity
  8
0
  6
Continuous
 62
     1
370
    25
100
AcDbLine
 10
307.4841608643612
 20
27.80672884538172
 30
0.0
 11
344.4841608643616
 21
27.80672884538172
 31
0.0
  0
LINE
  5
170
330
151
100
AcDbEntity
  8
Verdeckt (ISO)
  6
Continuous
 62
     5
370
    35
100
AcDbLine
 10
307.4841608643611
 20
108.3067288453817
 30
0.0
 11
307.4841608643612
 21
11.30672884538171
 31
0.0
  0
LINE
  5
171
330
151
100
AcDbEntity
  8
0
  6
Continuous
 62
     1
370
    25
100
AcDbLine
 10
322.4841608643612
 20
54.30672884538171
 30
0.0
 11
322.4841608643612
 21
20.80672884538172
 31
0.0
  0
LINE
  5
172
330
151
100
AcDbEntity
  8
Verdeckt (ISO)
  6
Continuous
 62
     5
100
AcDbLine
 10
344.4841608643616
 20
54.30672884538171
 30
0.0
 11
344.4841608643616
 21
20.80672884538172
 31
0.0
  0
LINE
  5
173
330
151
100
AcDbEntity
  8
Titel (ISO)
370
    18
100
AcDbLine
 10
410.4841604702592
 20
7.306728845381712
 30
0.0
 11
411.4841604702593
 21
7.306728845381712
 31
0.0
  0
LINE
  5
174
330
151
100
AcDbEntity
  8
Titel (ISO)
370
    18
100
AcDbLine
 10
411.4841604702593
 20
7.306728845381712
 30
0.0
 11
411.4841604702593
 21
8.306728845381712
 31
0.0
  0
LINE
  5
175
330
151
100
AcDbEntity
  8
0
  6
Continuous
 62
     7
100
AcDbLine
 10
399.1841604702593
 20
40.95672884538171
 30
0.0
 11
392.4841604702593
 21
33.15672884538172
 31
0.0
  0
LINE
  5
176
330
151
100
AcDbEntity
  8
0
  6
Continuous
 62
     7
100
AcDbLine
 10
392.4841604702593
 20
33.15672884538172
 30
0.0
 11
404.4841604702593
 21
33.15672884538172
 31
0.0
  0
LINE
  5
177
330
151
100
AcDbEntity
  8
0
  6
Continuous
 62
     7
100
AcDbLine
 10
404.4841604702593
 20
33.15672884538172
 30
0.0
 11
404.4841604702593
 21
40.95672884538171
 31
0.0
  0
LINE
  5
178
330
151
100
AcDbEntity
  8
0
  6
Continuous
 62
     7
100
AcDbLine
 10
404.4841604702593
 20
40.95672884538171
 30
0.0
 11
399.1841604702593
 21
34.05672884538172
 31
0.0
  0
LINE
  5
179
330
151
100
AcDbEntity
  8
0
  6
Continuous
 62
     7
100
AcDbLine
 10
399.1841604702593
 20
34.05672884538172
 30
0.0
 11
399.1841604702593
 21
40.95672884538171
 31
0.0
  0
TEXT
  5
17B
330
151
100
AcDbEntity
  8
Sichtbar schmal (ISO)
 62
     1
100
AcDbText
 10
309.9841608643612
 20
105.8067288453817
 30
0.0
 40
2.5
  1
Maßstab/
 41
1.200000047683715
  7
Textstil68
100
AcDbText
  0
MTEXT
  5
17C
330
151
100
AcDbEntity
  8
0
 62
     7
100
AcDbMText
 10
309.9841608643612
 20
77.64006219858825
 30
0.0
 40
3.499999940395355
 41
0.0
 71
     7
 72
     1
  1
\fISOCPEUR|b0|i0;\W1.30;\H3.5000;Artikel / \fISOCPEUR|b0|i1;\W1.30;\H3.5000;Article:
 73
     2
 44
1.0
1001
ACAD
1000
MTEXTBEGIN
1070
    73
1070
     2
1070
    44
1040
1.0
1070
    74
1070
     0
1000
MTEXTEND
  0
TEXT
  5
17E
330
151
100
AcDbEntity
  8
Sichtbar schmal (ISO)
 62
     1
100
AcDbText
 10
308.4841608643612
 20
24.80672884538173
 30
0.0
 40
2.000000029802322
  1
Ä.Nr/
 41
1.400000095367431
  7
Textstil144
100
AcDbText
  0
TEXT
  5
17F
330
151
100
AcDbEntity
  8
Sichtbar schmal (ISO)
 62
     1
100
AcDbText
 10
326.9841608643612
 20
24.80672884538173
 30
0.0
 40
2.000000029802322
  1
Datum/
 41
1.400000095367431
  7
Textstil144
100
AcDbText
  0
TEXT
  5
181
330
151
100
AcDbEntity
  8
0
 62
     5
100
AcDbText
 10
308.9841608643611
 20
16.80672884538171
 30
0.0
 40
2.5
  1
DISK:
 41
1.400000095367431
  7
Textstil142
100
AcDbText
  0
MTEXT
  5
182
330
151
100
AcDbEntity
  8
0
 62
     5
100
AcDbMText
 10
308.9841608643611
 20
11.72339551204838
 30
0.0
 40
2.5
 41
0.0
 71
     7
 72
     1
  1
\fISOCPEUR|b0|i0;\W1.20;\H2.5000;Datum/\fISOCPEUR|b0|i1;\W1.20;\H2.5000;Date:
 73
     2
 44
1.0
1001
ACAD
1000
MTEXTBEGIN
1070
    73
1070
     2
1070
    44
1040
1.0
1070
    74
1070
     0
1000
MTEXTEND
  0
MTEXT
  5
183
330
151
100
AcDbEntity
  8
Titel (ISO)
 62
     5
100
AcDbMText
 10
404.4841604702591
 20
23.80672884538171
 30
0.0
 40
1.599999964237213
 41
34.88244139839253
 71
     9
 72
     5
  1
\fArial|b0|i0;\W1.15;\H1.6000;A Phoenix Mecano Company
  7
Notiztext (DIN)
 73
     1
 44
1.0
1001
ACAD
1000
MTEXTBEGIN
1070
    73
1070
     1
1070
    44
1040
1.0
1070
    74
1070
     0
1000
MTEXTEND
  0
MTEXT
  5
184
330
151
100
AcDbEntity
  8
Titel (ISO)
 62
     7
100
AcDbMText
 10
404.4841604702593
 20
27.95672884538171
 30
0.0
 40
3.700000047683715
 41
19.88467931747436
 71
     9
 72
     5
  1
\fArial|b1|i0;\H3.7000;BOPLA
  7
Notiztext (DIN)
 73
     1
 44
1.0
1001
ACAD
1000
MTEXTBEGIN
1070
    73
1070
     1
1070
    44
1040
1.0
1070
    74
1070
     0
1000
MTEXTEND
  0
TEXT
  5
186
330
151
100
AcDbEntity
  8
Sichtbar schmal (ISO)
 62
     1
100
AcDbText
 10
308.4841608643612
 20
22.05672884538172
 30
0.0
 40
2.000000029802322
  1
Alt.No:
 41
1.400000095367431
  7
Textstil249
100
AcDbText
  0
TEXT
  5
187
330
151
100
AcDbEntity
  8
Sichtbar schmal (ISO)
 62
     1
100
AcDbText
 10
326.9841608643612
 20
22.05672884538172
 30
0.0
 40
2.000000029802322
  1
Date:
 41
1.400000095367431
  7
Textstil249
100
AcDbText
  0
TEXT
  5
189
330
151
100
AcDbEntity
  8
Sichtbar schmal (ISO)
 62
     1
100
AcDbText
 10
309.9841608643612
 20
101.8067288453817
 30
0.0
 40
2.5
  1
Scale:
 41
1.200000047683715
  7
Textstil248
100
AcDbText
  0
MTEXT
  5
18A
330
151
100
AcDbEntity
  8
Sichtbar schmal (ISO)
 62
     1
100
AcDbMText
 10
309.9841608643612
 20
94.7056157246669
 30
0.0
 40
3.000000119209289
 41
0.0
 71
     7
 72
     1
  1
\fISOCPEUR|b0|i0;\W1.20;\H3.0000;Zeichnungs-Nr. / \fISOCPEUR|b0|i1;\W1.20;\H3.0000;Drawing-No.:
 73
     2
 44
1.0
1001
ACAD
1000
MTEXTBEGIN
1070
    73
1070
     2
1070
    44
1040
1.0
1070
    74
1070
     0
1000
MTEXTEND
  0
ATTDEF
  5
18B
102
{ACAD_XDICTIONARY
360
838
102
}
330
151
100
AcDbEntity
  8
Sichtbar schmal (ISO)
 62
     1
100
AcDbText
 10
324.4841608643612
 20
39.05672884538171
 30
0.0
 40
2.000000029802322
  1

 41
1.400000095367431
  7
Textstil144
 11
324.4841608643612
 21
41.05672887518403
 31
0.0
100
AcDbAttributeDefinition
  3
14-Datum -5-
  2
14-Datum_-5-
 70
     0
 74
     3
  0
ATTDEF
  5
18C
102
{ACAD_XDICTIONARY
360
83B
102
}
330
151
100
AcDbEntity
  8
Sichtbar schmal (ISO)
 62
     1
100
AcDbText
 10
324.4841608643612
 20
31.55672884538172
 30
0.0
 40
2.000000029802322
  1

 41
1.400000095367431
  7
Textstil144
 11
324.4841608643612
 21
33.55672887518404
 31
0.0
100
AcDbAttributeDefinition
  3
11-Datum -2-
  2
11-Datum_-2-
 70
     0
 74
     3
  0
ATTDEF
  5
18D
102
{ACAD_XDICTIONARY
360
83E
102
}
330
151
100
AcDbEntity
  8
Sichtbar schmal (ISO)
 62
     1
100
AcDbText
 10
324.4841608643612
 20
34.05672884538172
 30
0.0
 40
2.000000029802322
  1

 41
1.400000095367431
  7
Textstil144
 11
324.4841608643612
 21
36.05672887518404
 31
0.0
100
AcDbAttributeDefinition
  3
12-Datum -3-
  2
12-Datum_-3-
 70
     0
 74
     3
  0
ATTDEF
  5
18E
102
{ACAD_XDICTIONARY
360
841
102
}
330
151
100
AcDbEntity
  8
Sichtbar schmal (ISO)
 62
     1
100
AcDbText
 10
324.4841608643612
 20
36.55672884538172
 30
0.0
 40
2.000000029802322
  1

 41
1.400000095367431
  7
Textstil144
 11
324.4841608643612
 21
38.55672887518404
 31
0.0
100
AcDbAttributeDefinition
  3
13-Datum -4-
  2
13-Datum_-4-
 70
     0
 74
     3
  0
ATTDEF
  5
18F
102
{ACAD_XDICTIONARY
360
844
102
}
330
151
100
AcDbEntity
  8
Sichtbar schmal (ISO)
 62
     1
100
AcDbText
 10
324.4841608643612
 20
29.05672884538171
 30
0.0
 40
2.000000029802322
  1

 41
1.400000095367431
  7
Textstil144
 11
324.4841608643612
 21
31.05672887518404
 31
0.0
100
AcDbAttributeDefinition
  3
10-Datum -1-
  2
10-Datum_-1-
 70
     0
 74
     3
  0
ATTDEF
  5
190
102
{ACAD_XDICTIONARY
360
847
102
}
330
151
100
AcDbEntity
  8
Sichtbar schmal (ISO)
 62
     1
100
AcDbText
 10
324.4841608643612
 20
44.05672884538171
 30
0.0
 40
2.000000029802322
  1

 41
1.400000095367431
  7
Textstil144
 11
324.4841608643612
 21
46.05672887518403
 31
0.0
100
AcDbAttributeDefinition
  3
16-Datum -7-
  2
16-Datum_-7-
 70
     0
 74
     3
  0
ATTDEF
  5
191
102
{ACAD_XDICTIONARY
360
84A
102
}
330
151
100
AcDbEntity
  8
Sichtbar schmal (ISO)
 62
     1
100
AcDbText
 10
324.4841608643612
 20
46.55672884538171
 30
0.0
 40
2.000000029802322
  1

 41
1.400000095367431
  7
Textstil144
 11
324.4841608643612
 21
48.55672887518403
 31
0.0
100
AcDbAttributeDefinition
  3
17-Datum -8-
  2
17-Datum_-8-
 70
     0
 74
     3
  0
ATTDEF
  5
192
102
{ACAD_XDICTIONARY
360
84D
102
}
330
151
100
AcDbEntity
  8
Sichtbar schmal (ISO)
 62
     1
100
AcDbText
 10
324.4841608643612
 20
41.55672884538171
 30
0.0
 40
2.000000029802322
  1

 41
1.400000095367431
  7
Textstil144
 11
324.4841608643612
 21
43.55672887518403
 31
0.0
100
AcDbAttributeDefinition
  3
15-Datum -6-
  2
15-Datum_-6-
 70
     0
 74
     3
  0
ATTDEF
  5
193
102
{ACAD_XDICTIONARY
360
850
102
}
330
151
100
AcDbEntity
  8
Sichtbar schmal (ISO)
 62
     1
100
AcDbText
 10
309.4841608643612
 20
39.05672884538171
 30
0.0
 40
2.000000029802322
  1

 41
1.400000095367431
  7
Textstil144
 11
309.4841608643612
 21
41.05672887518403
 31
0.0
100
AcDbAttributeDefinition
  3
14-Ä-Nr. -5-
  2
14-Ä-Nr._-5-
 70
     0
 74
     3
  0
ATTDEF
  5
194
102
{ACAD_XDICTIONARY
360
853
102
}
330
151
100
AcDbEntity
  8
Sichtbar schmal (ISO)
 62
     1
100
AcDbText
 10
309.4841608643612
 20
31.55672884538172
 30
0.0
 40
2.000000029802322
  1

 41
1.400000095367431
  7
Textstil144
 11
309.4841608643612
 21
33.55672887518404
 31
0.0
100
AcDbAttributeDefinition
  3
11-Ä-Nr. -2-
  2
11-Ä-Nr._-2-
 70
     0
 74
     3
  0
ATTDEF
  5
195
102
{ACAD_XDICTIONARY
360
856
102
}
330
151
100
AcDbEntity
  8
Sichtbar schmal (ISO)
 62
     1
100
AcDbText
 10
309.4841608643611
 20
34.05672884538172
 30
0.0
 40
2.000000029802322
  1

 41
1.400000095367431
  7
Textstil144
 11
309.4841608643611
 21
36.05672887518404
 31
0.0
100
AcDbAttributeDefinition
  3
12-Ä-Nr. -3-
  2
12-Ä-Nr._-3-
 70
     0
 74
     3
  0
ATTDEF
  5
196
102
{ACAD_XDICTIONARY
360
859
102
}
330
151
100
AcDbEntity
  8
Sichtbar schmal (ISO)
 62
     1
100
AcDbText
 10
309.4841608643612
 20
36.55672884538172
 30
0.0
 40
2.000000029802322
  1

 41
1.400000095367431
  7
Textstil144
 11
309.4841608643612
 21
38.55672887518404
 31
0.0
100
AcDbAttributeDefinition
  3
13-Ä-Nr. -4-
  2
13-Ä-Nr._-4-
 70
     0
 74
     3
  0
ATTDEF
  5
197
102
{ACAD_XDICTIONARY
360
85C
102
}
330
151
100
AcDbEntity
  8
Sichtbar schmal (ISO)
 62
     1
100
AcDbText
 10
309.4841608643612
 20
29.05672884538171
 30
0.0
 40
2.000000029802322
  1

 41
1.400000095367431
  7
Textstil144
 11
309.4841608643612
 21
31.05672887518404
 31
0.0
100
AcDbAttributeDefinition
  3
10-Ä-Nr. -1-
  2
10-Ä-Nr._-1-
 70
     0
 74
     3
  0
ATTDEF
  5
198
102
{ACAD_XDICTIONARY
360
85F
102
}
330
151
100
AcDbEntity
  8
Sichtbar schmal (ISO)
 62
     1
100
AcDbText
 10
309.4841608643612
 20
44.05672884538171
 30
0.0
 40
2.000000029802322
  1

 41
1.400000095367431
  7
Textstil144
 11
309.4841608643612
 21
46.05672887518403
 31
0.0
100
AcDbAttributeDefinition
  3
16-Ä-Nr. -7-
  2
16-Ä-Nr._-7-
 70
     0
 74
     3
  0
ATTDEF
  5
199
102
{ACAD_XDICTIONARY
360
862
102
}
330
151
100
AcDbEntity
  8
Sichtbar schmal (ISO)
 62
     1
100
AcDbText
 10
309.4841608643612
 20
46.55672884538171
 30
0.0
 40
2.000000029802322
  1

 41
1.400000095367431
  7
Textstil144
 11
309.4841608643612
 21
48.55672887518403
 31
0.0
100
AcDbAttributeDefinition
  3
17-Ä-Nr. -8-
  2
17-Ä-Nr._-8-
 70
     0
 74
     3
  0
ATTDEF
  5
19A
102
{ACAD_XDICTIONARY
360
865
102
}
330
151
100
AcDbEntity
  8
Sichtbar schmal (ISO)
 62
     1
100
AcDbText
 10
309.4841608643612
 20
41.55672884538171
 30
0.0
 40
2.000000029802322
  1

 41
1.400000095367431
  7
Textstil144
 11
309.4841608643612
 21
43.55672887518403
 31
0.0
100
AcDbAttributeDefinition
  3
15-Ä-Nr. -6-
  2
15-Ä-Nr._-6-
 70
     0
 74
     3
  0
ATTDEF
  5
19B
102
{ACAD_XDICTIONARY
360
868
102
}
330
151
100
AcDbEntity
  8
0
 62
     5
100
AcDbText
 10
334.1841608738607
 20
16.80672884538171
 30
0.0
 40
2.5
  1
2503397.idw
 41
1.199999999999999
  7
Textstil68
100
AcDbAttributeDefinition
  3
DATEINAME
  2
DATEINAME_001
 70
     0
  0
ATTDEF
  5
19C
102
{ACAD_XDICTIONARY
360
86B
102
}
330
151
100
AcDbEntity
  8
0
 62
     5
100
AcDbText
 10
334.1841608738607
 20
12.55672884538171
 30
0.0
 40
2.5
  1
13.07.2012
 41
1.199999999999999
  7
Textstil68
100
AcDbAttributeDefinition
  3
ERSTELLUNGSDATUM
  2
ERSTELLUNGSDATUM_001
 70
     0
  0
ATTDEF
  5
19D
102
{ACAD_XDICTIONARY
360
86E
102
}
330
151
100
AcDbEntity
  8
Sichtbar schmal (ISO)
 62
     1
100
AcDbText
 10
324.4841608643612
 20
51.55672884538171
 30
0.0
 40
2.000000029802322
  1

 41
1.400000095367431
  7
Textstil144
 11
324.4841608643612
 21
53.55672887518403
 31
0.0
100
AcDbAttributeDefinition
  3
19-Datum -10-
  2
19-Datum_-10-
 70
     0
 74
     3
  0
ATTDEF
  5
19E
102
{ACAD_XDICTIONARY
360
871
102
}
330
151
100
AcDbEntity
  8
Sichtbar schmal (ISO)
 62
     1
100
AcDbText
 10
324.4841608643612
 20
49.05672884538171
 30
0.0
 40
2.000000029802322
  1

 41
1.400000095367431
  7
Textstil144
 11
324.4841608643612
 21
51.05672887518403
 31
0.0
100
AcDbAttributeDefinition
  3
18-Datum -9-
  2
18-Datum_-9-
 70
     0
 74
     3
  0
ATTDEF
  5
19F
102
{ACAD_XDICTIONARY
360
874
102
}
330
151
100
AcDbEntity
  8
Sichtbar schmal (ISO)
 62
     1
100
AcDbText
 10
309.4841608643612
 20
51.55672884538171
 30
0.0
 40
2.000000029802322
  1

 41
1.400000095367431
  7
Textstil144
 11
309.4841608643612
 21
53.55672887518403
 31
0.0
100
AcDbAttributeDefinition
  3
19-Ä-Nr. -10-
  2
19-Ä-Nr._-10-
 70
     0
 74
     3
  0
ATTDEF
  5
1A0
102
{ACAD_XDICTIONARY
360
877
102
}
330
151
100
AcDbEntity
  8
Sichtbar schmal (ISO)
 62
     1
100
AcDbText
 10
309.4841608643612
 20
49.05672884538171
 30
0.0
 40
2.000000029802322
  1

 41
1.400000095367431
  7
Textstil144
 11
309.4841608643612
 21
51.05672887518403
 31
0.0
100
AcDbAttributeDefinition
  3
18-Ä-Nr. -9-
  2
18-Ä-Nr._-9-
 70
     0
 74
     3
  0
ATTDEF
  5
1A2
102
{ACAD_XDICTIONARY
360
87A
102
}
330
151
100
AcDbEntity
  8
Titel (ISO)
 62
     7
100
AcDbText
 10
309.4262928483785
 20
71.80672884538674
 30
0.0
 40
3.98477166891098
  1
BOCUBE
 41
1.399999999999999
  7
Textstil243
100
AcDbAttributeDefinition
  3
07-Artikel-Modell
  2
07-Artikel-Modell_001
 70
     0
  0
ATTDEF
  5
1A4
102
{ACAD_XDICTIONARY
360
87D
102
}
330
151
100
AcDbEntity
  8
Titel (ISO)
 62
     7
100
AcDbText
 10
331.9241608737489
 20
88.30672884538175
 30
0.0
 40
4.000000059604644
  1
3K 5390.064.01
 41
1.399999999999999
  7
Textstil143
100
AcDbAttributeDefinition
  3
03-Zchn.Nr.
  2
03-Zchn.Nr._001
 70
     0
  0
ATTDEF
  5
1A5
102
{ACAD_XDICTIONARY
360
880
102
}
330
151
100
AcDbEntity
  8
0
 62
     5
100
AcDbText
 10
354.1841608738606
 20
12.55672884538171
 30
0.0
 40
2.5
  1
KH
 41
1.199999999999999
  7
Textstil68
100
AcDbAttributeDefinition
  3
50-Namenskürzel
  2
50-Namenskürzel_001
 70
     0
  0
ATTDEF
  5
1A7
102
{ACAD_XDICTIONARY
360
883
102
}
330
151
100
AcDbEntity
  8
Titel (ISO)
 62
     7
100
AcDbText
 10
332.0041608724078
 20
103.8067288453817
 30
0.0
 40
4.000000059604644
  1
1:1
 41
1.199999999999999
  7
Textstil242
100
AcDbAttributeDefinition
  3
02-Maßstab
  2
02-Maßstab_001
 70
     0
  0
ATTDEF
  5
1A8
102
{ACAD_XDICTIONARY
360
886
102
}
330
151
100
AcDbEntity
  8
Titel (ISO)
 62
     7
100
AcDbText
 10
309.4241608737489
 20
64.80672884538674
 30
0.0
 40
4.000000059604644
  1
B M 1413
 41
1.399999999999999
  7
Textstil143
100
AcDbAttributeDefinition
  3
08-Artikel-Benennung
  2
08-Artikel-Benennung_001
 70
     0
  0
ATTDEF
  5
1A9
102
{ACAD_XDICTIONARY
360
889
102
}
330
151
100
AcDbEntity
  8
Titel (ISO)
 62
     7
100
AcDbText
 10
309.4262928483785
 20
57.80672884538674
 30
0.0
 40
3.98477166891098
  1
Katalogzg./Catalogue draw.
 41
1.399999999999999
  7
Textstil243
100
AcDbAttributeDefinition
  3
09-Artikel-Benennung (2.Zeile)
  2
09-Artikel-Benennung_(2.Zeile)_001
 70
     0
  0
ENDBLK
  5
153
330
151
100
AcDbEntity
  8
0
100
AcDbBlockEnd
  0
BLOCK
  5
1E6
330
1E5
100
AcDbEntity
  8
0
100
AcDbBlockBegin
  2
*D6
 70
     1
 10
0.0
 20
0.0
 30
0.0
  3
*D6
  1

  0
LINE
  5
2B1
330
1E5
100
AcDbEntity
  8
Bemaßung (ISO)
  6
Continuous
 62
     1
370
    25
100
AcDbLine
 10
90.56963452690956
 20
258.0349857016008
 30
0.0
 11
90.56963452690956
 21
273.8940717189437
 31
0.0
  0
LINE
  5
2B2
330
1E5
100
AcDbEntity
  8
Bemaßung (ISO)
  6
Continuous
 62
     1
370
    25
100
AcDbLine
 10
201.0696345269096
 20
258.0349857016008
 30
0.0
 11
201.0696345269096
 21
273.8940717189437
 31
0.0
  0
LINE
  5
2B3
330
1E5
100
AcDbEntity
  8
Bemaßung (ISO)
  6
Continuous
 62
     1
370
    25
100
AcDbLine
 10
93.06963452690956
 20
272.8940717189437
 30
0.0
 11
198.5696345269095
 21
272.8940717189437
 31
0.0
  0
SOLID
  5
2B4
330
1E5
100
AcDbEntity
  8
Bemaßung (ISO)
  6
Continuous
 62
     1
100
AcDbTrace
 10
93.06963452690956
 20
273.3107383856104
 30
0.0
 11
93.06963452690956
 21
272.477405052277
 31
0.0
 12
90.56963452690956
 22
272.8940717189437
 32
0.0
 13
90.56963452690956
 23
272.8940717189437
 33
0.0
  0
SOLID
  5
2B5
330
1E5
100
AcDbEntity
  8
Bemaßung (ISO)
  6
Continuous
 62
     1
100
AcDbTrace
 10
198.5696345269095
 20
273.3107383856104
 30
0.0
 11
198.5696345269095
 21
272.477405052277
 31
0.0
 12
201.0696345269096
 22
272.8940717189437
 32
0.0
 13
201.0696345269096
 23
272.8940717189437
 33
0.0
  0
MTEXT
  5
2B6
330
1E5
100
AcDbEntity
  8
Bemaßung (ISO)
  6
Continuous
 62
     5
370
    25
100
AcDbMText
 10
142.0625021984657
 20
273.0940717189437
 30
0.0
 40
3.5
 41
0.0
 71
     7
 72
     1
  1
\A1;110,5
  7
3_5
 73
     1
 44
1.0
1001
ACAD
1000
MTEXTBEGIN
1070
    73
1070
     1
1070
    44
1040
1.0
1070
    74
1070
     0
1000
MTEXTEND
  0
POINT
  5
2B7
330
1E5
100
AcDbEntity
  8
Defpoints
  6
Continuous
 62
     0
100
AcDbPoint
 10
90.56963452690956
 20
258.0349857016008
 30
0.0
  0
POINT
  5
2B8
330
1E5
100
AcDbEntity
  8
Defpoints
  6
Continuous
 62
     0
100
AcDbPoint
 10
201.0696345269096
 20
258.0349857016008
 30
0.0
  0
POINT
  5
2B9
330
1E5
100
AcDbEntity
  8
Defpoints
  6
Continuous
 62
     0
100
AcDbPoint
 10
201.0696345269096
 20
272.8940717189437
 30
0.0
  0
ENDBLK
  5
1E7
330
1E5
100
AcDbEntity
  8
0
100
AcDbBlockEnd
  0
BLOCK
  5
2BC
330
2BB
100
AcDbEntity
  8
0
100
AcDbBlockBegin
  2
*D7
 70
     1
 10
0.0
 20
0.0
 30
0.0
  3
*D7
  1

  0
LINE
  5
387
330
2BB
100
AcDbEntity
  8
Bemaßung (ISO)
  6
Continuous
 62
     1
370
    25
100
AcDbLine
 10
201.0696345269096
 20
258.0349857016008
 30
0.0
 11
226.6362878299382
 21
258.0349857016008
 31
0.0
  0
LINE
  5
388
330
2BB
100
AcDbEntity
  8
Bemaßung (ISO)
  6
Continuous
 62
     1
370
    25
100
AcDbLine
 10
201.0696345269096
 20
142.0349857016008
 30
0.0
 11
226.6362878299382
 21
142.0349857016008
 31
0.0
  0
LINE
  5
389
330
2BB
100
AcDbEntity
  8
Bemaßung (ISO)
  6
Continuous
 62
     1
370
    25
100
AcDbLine
 10
225.6362878299382
 20
255.5349857016008
 30
0.0
 11
225.6362878299382
 21
144.5349857016008
 31
0.0
  0
SOLID
  5
38A
330
2BB
100
AcDbEntity
  8
Bemaßung (ISO)
  6
Continuous
 62
     1
100
AcDbTrace
 10
225.2196211632716
 20
255.5349857016008
 30
0.0
 11
226.0529544966049
 21
255.5349857016008
 31
0.0
 12
225.6362878299382
 22
258.0349857016008
 32
0.0
 13
225.6362878299382
 23
258.0349857016008
 33
0.0
  0
SOLID
  5
38B
330
2BB
100
AcDbEntity
  8
Bemaßung (ISO)
  6
Continuous
 62
     1
100
AcDbTrace
 10
225.2196211632715
 20
144.5349857016008
 30
0.0
 11
226.0529544966049
 21
144.5349857016008
 31
0.0
 12
225.6362878299382
 22
142.0349857016008
 32
0.0
 13
225.6362878299382
 23
142.0349857016008
 33
0.0
  0
MTEXT
  5
38C
330
2BB
100
AcDbEntity
  8
Bemaßung (ISO)
  6
Continuous
 62
     5
370
    25
100
AcDbMText
 10
225.4362878299382
 20
197.1474857304485
 30
0.0
 40
3.5
 41
0.0
 71
     7
 72
     1
  1
\A1;116
  7
3_5
 11
0.0000000000000001
 21
1.0
 31
0.0
 73
     1
 44
1.0
1001
ACAD
1000
MTEXTBEGIN
1070
    73
1070
     1
1070
    44
1040
1.0
1070
    74
1070
     0
1000
MTEXTEND
  0
POINT
  5
38D
330
2BB
100
AcDbEntity
  8
Defpoints
  6
Continuous
 62
     0
100
AcDbPoint
 10
201.0696345269096
 20
258.0349857016008
 30
0.0
  0
POINT
  5
38E
330
2BB
100
AcDbEntity
  8
Defpoints
  6
Continuous
 62
     0
100
AcDbPoint
 10
201.0696345269096
 20
142.0349857016008
 30
0.0
  0
POINT
  5
38F
330
2BB
100
AcDbEntity
  8
Defpoints
  6
Continuous
 62
     0
100
AcDbPoint
 10
225.6362878299382
 20
142.0349857016008
 30
0.0
  0
ENDBLK
  5
2BD
330
2BB
100
AcDbEntity
  8
0
100
AcDbBlockEnd
  0
BLOCK
  5
392
330
391
100
AcDbEntity
  8
0
100
AcDbBlockBegin
  2
*D8
 70
     1
 10
0.0
 20
0.0
 30
0.0
  3
*D8
  1

  0
LINE
  5
483
330
391
100
AcDbEntity
  8
Bemaßung (ISO)
  6
Continuous
 62
     1
370
    25
100
AcDbLine
 10
255.155775268717
 20
258.0349857016008
 30
0.0
 11
255.155775268717
 21
266.0349857016008
 31
0.0
  0
LINE
  5
484
330
391
100
AcDbEntity
  8
Bemaßung (ISO)
  6
Continuous
 62
     1
370
    25
100
AcDbLine
 10
257.155775268717
 20
258.0349857016008
 30
0.0
 11
257.155775268717
 21
266.0349857016008
 31
0.0
  0
LINE
  5
485
330
391
100
AcDbEntity
  8
Bemaßung (ISO)
  6
Continuous
 62
     1
370
    25
100
AcDbLine
 10
252.655775268717
 20
265.0349857016008
 30
0.0
 11
250.155775268717
 21
265.0349857016008
 31
0.0
  0
LINE
  5
486
330
391
100
AcDbEntity
  8
Bemaßung (ISO)
  6
Continuous
 62
     1
370
    25
100
AcDbLine
 10
259.6557752687171
 20
265.0349857016008
 30
0.0
 11
264.951615081218
 21
265.0349857016008
 31
0.0
  0
LINE
  5
487
330
391
100
AcDbEntity
  8
Bemaßung (ISO)
  6
Continuous
 62
     1
370
    25
100
AcDbLine
 10
255.155775268717
 20
265.0349857016008
 30
0.0
 11
257.155775268717
 21
265.0349857016008
 31
0.0
  0
SOLID
  5
488
330
391
100
AcDbEntity
  8
Bemaßung (ISO)
  6
Continuous
 62
     1
100
AcDbTrace
 10
252.655775268717
 20
265.4516523682675
 30
0.0
 11
252.655775268717
 21
264.6183190349341
 31
0.0
 12
255.155775268717
 22
265.0349857016008
 32
0.0
 13
255.155775268717
 23
265.0349857016008
 33
0.0
  0
SOLID
  5
489
330
391
100
AcDbEntity
  8
Bemaßung (ISO)
  6
Continuous
 62
     1
100
AcDbTrace
 10
259.6557752687171
 20
265.4516523682675
 30
0.0
 11
259.6557752687171
 21
264.6183190349341
 31
0.0
 12
257.155775268717
 22
265.0349857016008
 32
0.0
 13
257.155775268717
 23
265.0349857016008
 33
0.0
  0
MTEXT
  5
48A
330
391
100
AcDbEntity
  8
Bemaßung (ISO)
  6
Continuous
 62
     5
370
    25
100
AcDbMText
 10
262.8266151004498
 20
265.2349857016008
 30
0.0
 40
3.5
 41
0.0
 71
     7
 72
     1
  1
\A1;2
  7
3_5
 73
     1
 44
1.0
1001
ACAD
1000
MTEXTBEGIN
1070
    73
1070
     1
1070
    44
1040
1.0
1070
    74
1070
     0
1000
MTEXTEND
  0
POINT
  5
48B
330
391
100
AcDbEntity
  8
Defpoints
  6
Continuous
 62
     0
100
AcDbPoint
 10
255.155775268717
 20
258.0349857016008
 30
0.0
  0
POINT
  5
48C
330
391
100
AcDbEntity
  8
Defpoints
  6
Continuous
 62
     0
100
AcDbPoint
 10
257.155775268717
 20
258.0349857016008
 30
0.0
  0
POINT
  5
48D
330
391
100
AcDbEntity
  8
Defpoints
  6
Continuous
 62
     0
100
AcDbPoint
 10
257.155775268717
 20
265.0349857016008
 30
0.0
  0
ENDBLK
  5
393
330
391
100
AcDbEntity
  8
0
100
AcDbBlockEnd
  0
BLOCK
  5
4A0
330
49F
100
AcDbEntity
  8
0
100
AcDbBlockBegin
  2
*D9
 70
     1
 10
0.0
 20
0.0
 30
0.0
  3
*D9
  1

  0
LINE
  5
56B
330
49F
100
AcDbEntity
  8
Bemaßung (ISO)
  6
Continuous
 62
     1
370
    25
100
AcDbLine
 10
95.81963452690956
 20
252.5349857016008
 30
0.0
 11
95.81963452690956
 21
265.7862435561419
 31
0.0
  0
LINE
  5
56C
330
49F
100
AcDbEntity
  8
Bemaßung (ISO)
  6
Continuous
 62
     1
370
    25
100
AcDbLine
 10
195.8196345269096
 20
252.5349857016008
 30
0.0
 11
195.8196345269096
 21
265.7862435561419
 31
0.0
  0
LINE
  5
56D
330
49F
100
AcDbEntity
  8
Bemaßung (ISO)
  6
Continuous
 62
     1
370
    25
100
AcDbLine
 10
98.31963452690956
 20
264.7862435561419
 30
0.0
 11
193.3196345269095
 21
264.7862435561419
 31
0.0
  0
SOLID
  5
56E
330
49F
100
AcDbEntity
  8
Bemaßung (ISO)
  6
Continuous
 62
     1
100
AcDbTrace
 10
98.31963452690956
 20
265.2029102228086
 30
0.0
 11
98.31963452690956
 21
264.3695768894752
 31
0.0
 12
95.81963452690956
 22
264.7862435561419
 32
0.0
 13
95.81963452690956
 23
264.7862435561419
 33
0.0
  0
SOLID
  5
56F
330
49F
100
AcDbEntity
  8
Bemaßung (ISO)
  6
Continuous
 62
     1
100
AcDbTrace
 10
193.3196345269095
 20
265.2029102228086
 30
0.0
 11
193.3196345269095
 21
264.3695768894752
 31
0.0
 12
195.8196345269096
 22
264.7862435561419
 32
0.0
 13
195.8196345269096
 23
264.7862435561419
 33
0.0
  0
MTEXT
  5
570
330
49F
100
AcDbEntity
  8
Bemaßung (ISO)
  6
Continuous
 62
     5
370
    25
100
AcDbMText
 10
142.5471345596036
 20
264.9862435561419
 30
0.0
 40
3.5
 41
0.0
 71
     7
 72
     1
  1
\A1;100
  7
3_5
 73
     1
 44
1.0
1001
ACAD
1000
MTEXTBEGIN
1070
    73
1070
     1
1070
    44
1040
1.0
1070
    74
1070
     0
1000
MTEXTEND
  0
POINT
  5
571
330
49F
100
AcDbEntity
  8
Defpoints
  6
Continuous
 62
     0
100
AcDbPoint
 10
95.81963452690956
 20
252.5349857016008
 30
0.0
  0
POINT
  5
572
330
49F
100
AcDbEntity
  8
Defpoints
  6
Continuous
 62
     0
100
AcDbPoint
 10
195.8196345269096
 20
252.5349857016008
 30
0.0
  0
POINT
  5
573
330
49F
100
AcDbEntity
  8
Defpoints
  6
Continuous
 62
     0
100
AcDbPoint
 10
195.8196345269096
 20
264.7862435561419
 30
0.0
  0
ENDBLK
  5
4A1
330
49F
100
AcDbEntity
  8
0
100
AcDbBlockEnd
  0
BLOCK
  5
576
330
575
100
AcDbEntity
  8
0
100
AcDbBlockBegin
  2
*D10
 70
     1
 10
0.0
 20
0.0
 30
0.0
  3
*D10
  1

  0
LINE
  5
641
330
575
100
AcDbEntity
  8
Bemaßung (ISO)
  6
Continuous
 62
     1
370
    25
100
AcDbLine
 10
195.8196345269096
 20
237.5349857016008
 30
0.0
 11
211.0709873094042
 21
237.5349857016008
 31
0.0
  0
LINE
  5
642
330
575
100
AcDbEntity
  8
Bemaßung (ISO)
  6
Continuous
 62
     1
370
    25
100
AcDbLine
 10
195.8196345269096
 20
162.5349857016008
 30
0.0
 11
211.0709873094041
 21
162.5349857016008
 31
0.0
  0
LINE
  5
643
330
575
100
AcDbEntity
  8
Bemaßung (ISO)
  6
Continuous
 62
     1
370
    25
100
AcDbLine
 10
210.0709873094042
 20
235.0349857016008
 30
0.0
 11
210.0709873094042
 21
165.0349857016008
 31
0.0
  0
SOLID
  5
644
330
575
100
AcDbEntity
  8
Bemaßung (ISO)
  6
Continuous
 62
     1
100
AcDbTrace
 10
209.6543206427375
 20
235.0349857016008
 30
0.0
 11
210.4876539760708
 21
235.0349857016008
 31
0.0
 12
210.0709873094042
 22
237.5349857016008
 32
0.0
 13
210.0709873094042
 23
237.5349857016008
 33
0.0
  0
SOLID
  5
645
330
575
100
AcDbEntity
  8
Bemaßung (ISO)
  6
Continuous
 62
     1
100
AcDbTrace
 10
209.6543206427375
 20
165.0349857016008
 30
0.0
 11
210.4876539760708
 21
165.0349857016008
 31
0.0
 12
210.0709873094042
 22
162.5349857016008
 32
0.0
 13
210.0709873094042
 23
162.5349857016008
 33
0.0
  0
MTEXT
  5
646
330
575
100
AcDbEntity
  8
Bemaßung (ISO)
  6
Continuous
 62
     5
370
    25
100
AcDbMText
 10
209.8709873094041
 20
197.7249857246789
 30
0.0
 40
3.5
 41
0.0
 71
     7
 72
     1
  1
\A1;75
  7
3_5
 11
0.0000000000000001
 21
1.0
 31
0.0
 73
     1
 44
1.0
1001
ACAD
1000
MTEXTBEGIN
1070
    73
1070
     1
1070
    44
1040
1.0
1070
    74
1070
     0
1000
MTEXTEND
  0
POINT
  5
647
330
575
100
AcDbEntity
  8
Defpoints
  6
Continuous
 62
     0
100
AcDbPoint
 10
195.8196345269096
 20
237.5349857016008
 30
0.0
  0
POINT
  5
648
330
575
100
AcDbEntity
  8
Defpoints
  6
Continuous
 62
     0
100
AcDbPoint
 10
195.8196345269096
 20
162.5349857016008
 30
0.0
  0
POINT
  5
649
330
575
100
AcDbEntity
  8
Defpoints
  6
Continuous
 62
     0
100
AcDbPoint
 10
210.0709873094042
 20
162.5349857016008
 30
0.0
  0
ENDBLK
  5
577
330
575
100
AcDbEntity
  8
0
100
AcDbBlockEnd
  0
BLOCK
  5
64C
330
64B
100
AcDbEntity
  8
0
100
AcDbBlockBegin
  2
*D11
 70
     1
 10
0.0
 20
0.0
 30
0.0
  3
*D11
  1

  0
LINE
  5
717
330
64B
100
AcDbEntity
  8
Bemaßung (ISO)
  6
Continuous
 62
     1
370
    25
100
AcDbLine
 10
195.8196345269096
 20
252.5349857016008
 30
0.0
 11
218.8196345269096
 21
252.5349857016008
 31
0.0
  0
LINE
  5
718
330
64B
100
AcDbEntity
  8
Bemaßung (ISO)
  6
Continuous
 62
     1
370
    25
100
AcDbLine
 10
195.8196345269096
 20
147.5349857016008
 30
0.0
 11
218.8196345269096
 21
147.5349857016008
 31
0.0
  0
LINE
  5
719
330
64B
100
AcDbEntity
  8
Bemaßung (ISO)
  6
Continuous
 62
     1
370
    25
100
AcDbLine
 10
217.8196345269096
 20
250.0349857016008
 30
0.0
 11
217.8196345269096
 21
150.0349857016008
 31
0.0
  0
SOLID
  5
71A
330
64B
100
AcDbEntity
  8
Bemaßung (ISO)
  6
Continuous
 62
     1
100
AcDbTrace
 10
217.402967860243
 20
250.0349857016008
 30
0.0
 11
218.2363011935763
 21
250.0349857016008
 31
0.0
 12
217.8196345269096
 22
252.5349857016008
 32
0.0
 13
217.8196345269096
 23
252.5349857016008
 33
0.0
  0
SOLID
  5
71B
330
64B
100
AcDbEntity
  8
Bemaßung (ISO)
  6
Continuous
 62
     1
100
AcDbTrace
 10
217.4029678602429
 20
150.0349857016008
 30
0.0
 11
218.2363011935763
 21
150.0349857016008
 31
0.0
 12
217.8196345269096
 22
147.5349857016008
 32
0.0
 13
217.8196345269096
 23
147.5349857016008
 33
0.0
  0
MTEXT
  5
71C
330
64B
100
AcDbEntity
  8
Bemaßung (ISO)
  6
Continuous
 62
     5
370
    25
100
AcDbMText
 10
217.6196345269096
 20
196.7624857342949
 30
0.0
 40
3.5
 41
0.0
 71
     7
 72
     1
  1
\A1;105
  7
3_5
 11
0.0000000000000001
 21
1.0
 31
0.0
 73
     1
 44
1.0
1001
ACAD
1000
MTEXTBEGIN
1070
    73
1070
     1
1070
    44
1040
1.0
1070
    74
1070
     0
1000
MTEXTEND
  0
POINT
  5
71D
330
64B
100
AcDbEntity
  8
Defpoints
  6
Continuous
 62
     0
100
AcDbPoint
 10
195.8196345269096
 20
252.5349857016008
 30
0.0
  0
POINT
  5
71E
330
64B
100
AcDbEntity
  8
Defpoints
  6
Continuous
 62
     0
100
AcDbPoint
 10
195.8196345269096
 20
147.5349857016008
 30
0.0
  0
POINT
  5
71F
330
64B
100
AcDbEntity
  8
Defpoints
  6
Continuous
 62
     0
100
AcDbPoint
 10
217.8196345269096
 20
147.5349857016008
 30
0.0
  0
ENDBLK
  5
64D
330
64B
100
AcDbEntity
  8
0
100
AcDbBlockEnd
  0
BLOCK
  5
722
330
721
100
AcDbEntity
  8
0
100
AcDbBlockBegin
  2
*D12
 70
     1
 10
0.0
 20
0.0
 30
0.0
  3
*D12
  1

  0
LINE
  5
816
330
721
100
AcDbEntity
  8
Bemaßung (ISO)
  6
Continuous
 62
     1
370
    25
100
AcDbLine
 10
95.81963452690956
 20
250.7849857016008
 30
0.0
 11
81.65521020417264
 21
250.7849857016008
 31
0.0
  0
LINE
  5
817
330
721
100
AcDbEntity
  8
Bemaßung (ISO)
  6
Continuous
 62
     1
370
    25
100
AcDbLine
 10
95.81963452690956
 20
254.2849857016008
 30
0.0
 11
81.65521020417264
 21
254.2849857016008
 31
0.0
  0
LINE
  5
818
330
721
100
AcDbEntity
  8
Bemaßung (ISO)
  6
Continuous
 62
     1
370
    25
100
AcDbLine
 10
82.65521020417263
 20
256.7849857016009
 30
0.0
 11
82.65521020417263
 21
259.2849857016009
 31
0.0
  0
LINE
  5
819
330
721
100
AcDbEntity
  8
Bemaßung (ISO)
  6
Continuous
 62
     1
370
    25
100
AcDbLine
 10
82.65521020417263
 20
248.2849857016008
 30
0.0
 11
82.65521020417263
 21
245.7849857016008
 31
0.0
  0
LINE
  5
81A
330
721
100
AcDbEntity
  8
Bemaßung (ISO)
  6
Continuous
 62
     1
370
    25
100
AcDbLine
 10
82.65521020417263
 20
254.2849857016008
 30
0.0
 11
82.65521020417263
 21
250.7849857016008
 31
0.0
  0
SOLID
  5
81B
330
721
100
AcDbEntity
  8
Bemaßung (ISO)
  6
Continuous
 62
     1
100
AcDbTrace
 10
82.23854353750596
 20
256.7849857016009
 30
0.0
 11
83.0718768708393
 21
256.7849857016009
 31
0.0
 12
82.65521020417263
 22
254.2849857016008
 32
0.0
 13
82.65521020417263
 23
254.2849857016008
 33
0.0
  0
SOLID
  5
81C
330
721
100
AcDbEntity
  8
Bemaßung (ISO)
  6
Continuous
 62
     1
100
AcDbTrace
 10
82.23854353750596
 20
248.2849857016008
 30
0.0
 11
83.0718768708393
 21
248.2849857016008
 31
0.0
 12
82.65521020417263
 22
250.7849857016008
 32
0.0
 13
82.65521020417263
 23
250.7849857016008
 33
0.0
  0
MTEXT
  5
81D
330
721
100
AcDbEntity
  8
Bemaßung (ISO)
  6
Continuous
 62
     5
370
    25
100
AcDbMText
 10
85.28825875727966
 20
235.0738786850275
 30
0.0
 40
3.5
 41
0.0
 71
     7
 72
     1
  1
\A1;\fAIGDT|b0|i0;\H3.5000;\ln\fISOCPEUR|b0|i0;\H3.5000;3,5
  7
3_5
 11
0.0000000000000001
 21
1.0
 31
0.0
 73
     1
 44
1.0
1001
ACAD
1000
MTEXTBEGIN
1070
    73
1070
     1
1070
    44
1040
1.0
1070
    74
1070
     0
1000
MTEXTEND
  0
POINT
  5
81E
330
721
100
AcDbEntity
  8
Defpoints
  6
Continuous
 62
     0
100
AcDbPoint
 10
95.81963452690956
 20
250.7849857016008
 30
0.0
  0
POINT
  5
81F
330
721
100
AcDbEntity
  8
Defpoints
  6
Continuous
 62
     0
100
AcDbPoint
 10
95.81963452690956
 20
254.2849857016008
 30
0.0
  0
POINT
  5
820
330
721
100
AcDbEntity
  8
Defpoints
  6
Continuous
 62
     0
100
AcDbPoint
 10
82.65521020417263
 20
254.2849857016008
 30
0.0
  0
ENDBLK
  5
723
330
721
100
AcDbEntity
  8
0
100
AcDbBlockEnd
  0
ENDSEC
  0
SECTION
  2
ENTITIES
  0
INSERT
  5
150
330
71
100
AcDbEntity
  8
0
100
AcDbBlockReference
  2
Ränder Bopla-A3-Rahmen
 10
0.0
 20
0.0
 30
0.0
  0
INSERT
  5
1AA
330
71
100
AcDbEntity
  8
0
100
AcDbBlockReference
 66
     1
  2
Schriftfelder Katalogzeichnung
 10
7.515839529740802
 20
-6.306728845381716
 30
0.0
  0
ATTRIB
  5
1AC
102
{ACAD_XDICTIONARY
360
88C
102
}
330
1AA
100
AcDbEntity
  8
Sichtbar schmal (ISO)
 62
     1
100
AcDbText
 10
332.000000394102
 20
32.75
 30
0.0
 40
2.000000029802322
  1

 41
1.400000095367431
  7
Textstil144
 11
332.000000394102
 21
34.75000002980233
 31
0.0
100
AcDbAttribute
  2
14-Datum_-5-
 70
     0
 74
     3
  0
ATTRIB
  5
1AD
102
{ACAD_XDICTIONARY
360
88F
102
}
330
1AA
100
AcDbEntity
  8
Sichtbar schmal (ISO)
 62
     1
100
AcDbText
 10
332.000000394102
 20
25.25
 30
0.0
 40
2.000000029802322
  1

 41
1.400000095367431
  7
Textstil144
 11
332.000000394102
 21
27.25000002980233
 31
0.0
100
AcDbAttribute
  2
11-Datum_-2-
 70
     0
 74
     3
  0
ATTRIB
  5
1AE
102
{ACAD_XDICTIONARY
360
892
102
}
330
1AA
100
AcDbEntity
  8
Sichtbar schmal (ISO)
 62
     1
100
AcDbText
 10
332.000000394102
 20
27.75
 30
0.0
 40
2.000000029802322
  1

 41
1.400000095367431
  7
Textstil144
 11
332.000000394102
 21
29.75000002980232
 31
0.0
100
AcDbAttribute
  2
12-Datum_-3-
 70
     0
 74
     3
  0
ATTRIB
  5
1AF
102
{ACAD_XDICTIONARY
360
895
102
}
330
1AA
100
AcDbEntity
  8
Sichtbar schmal (ISO)
 62
     1
100
AcDbText
 10
332.000000394102
 20
30.25
 30
0.0
 40
2.000000029802322
  1

 41
1.400000095367431
  7
Textstil144
 11
332.000000394102
 21
32.25000002980233
 31
0.0
100
AcDbAttribute
  2
13-Datum_-4-
 70
     0
 74
     3
  0
ATTRIB
  5
1B0
102
{ACAD_XDICTIONARY
360
898
102
}
330
1AA
100
AcDbEntity
  8
Sichtbar schmal (ISO)
 62
     1
100
AcDbText
 10
332.000000394102
 20
22.75
 30
0.0
 40
2.000000029802322
  1

 41
1.400000095367431
  7
Textstil144
 11
332.000000394102
 21
24.75000002980233
 31
0.0
100
AcDbAttribute
  2
10-Datum_-1-
 70
     0
 74
     3
  0
ATTRIB
  5
1B1
102
{ACAD_XDICTIONARY
360
89B
102
}
330
1AA
100
AcDbEntity
  8
Sichtbar schmal (ISO)
 62
     1
100
AcDbText
 10
332.000000394102
 20
37.75
 30
0.0
 40
2.000000029802322
  1

 41
1.400000095367431
  7
Textstil144
 11
332.000000394102
 21
39.75000002980232
 31
0.0
100
AcDbAttribute
  2
16-Datum_-7-
 70
     0
 74
     3
  0
ATTRIB
  5
1B2
102
{ACAD_XDICTIONARY
360
89E
102
}
330
1AA
100
AcDbEntity
  8
Sichtbar schmal (ISO)
 62
     1
100
AcDbText
 10
332.000000394102
 20
40.25
 30
0.0
 40
2.000000029802322
  1

 41
1.400000095367431
  7
Textstil144
 11
332.000000394102
 21
42.25000002980232
 31
0.0
100
AcDbAttribute
  2
17-Datum_-8-
 70
     0
 74
     3
  0
ATTRIB
  5
1B3
102
{ACAD_XDICTIONARY
360
8A1
102
}
330
1AA
100
AcDbEntity
  8
Sichtbar schmal (ISO)
 62
     1
100
AcDbText
 10
332.000000394102
 20
35.25
 30
0.0
 40
2.000000029802322
  1

 41
1.400000095367431
  7
Textstil144
 11
332.000000394102
 21
37.25000002980233
 31
0.0
100
AcDbAttribute
  2
15-Datum_-6-
 70
     0
 74
     3
  0
ATTRIB
  5
1B4
102
{ACAD_XDICTIONARY
360
8A4
102
}
330
1AA
100
AcDbEntity
  8
Sichtbar schmal (ISO)
 62
     1
100
AcDbText
 10
317.000000394102
 20
32.75
 30
0.0
 40
2.000000029802322
  1

 41
1.400000095367431
  7
Textstil144
 11
317.000000394102
 21
34.75000002980233
 31
0.0
100
AcDbAttribute
  2
14-Ä-Nr._-5-
 70
     0
 74
     3
  0
ATTRIB
  5
1B5
102
{ACAD_XDICTIONARY
360
8A7
102
}
330
1AA
100
AcDbEntity
  8
Sichtbar schmal (ISO)
 62
     1
100
AcDbText
 10
317.000000394102
 20
25.25
 30
0.0
 40
2.000000029802322
  1

 41
1.400000095367431
  7
Textstil144
 11
317.000000394102
 21
27.25000002980233
 31
0.0
100
AcDbAttribute
  2
11-Ä-Nr._-2-
 70
     0
 74
     3
  0
ATTRIB
  5
1B6
102
{ACAD_XDICTIONARY
360
8AA
102
}
330
1AA
100
AcDbEntity
  8
Sichtbar schmal (ISO)
 62
     1
100
AcDbText
 10
317.0000003941019
 20
27.75
 30
0.0
 40
2.000000029802322
  1

 41
1.400000095367431
  7
Textstil144
 11
317.0000003941019
 21
29.75000002980232
 31
0.0
100
AcDbAttribute
  2
12-Ä-Nr._-3-
 70
     0
 74
     3
  0
ATTRIB
  5
1B7
102
{ACAD_XDICTIONARY
360
8AD
102
}
330
1AA
100
AcDbEntity
  8
Sichtbar schmal (ISO)
 62
     1
100
AcDbText
 10
317.000000394102
 20
30.25
 30
0.0
 40
2.000000029802322
  1

 41
1.400000095367431
  7
Textstil144
 11
317.000000394102
 21
32.25000002980233
 31
0.0
100
AcDbAttribute
  2
13-Ä-Nr._-4-
 70
     0
 74
     3
  0
ATTRIB
  5
1B8
102
{ACAD_XDICTIONARY
360
8B0
102
}
330
1AA
100
AcDbEntity
  8
Sichtbar schmal (ISO)
 62
     1
100
AcDbText
 10
317.000000394102
 20
22.75
 30
0.0
 40
2.000000029802322
  1

 41
1.400000095367431
  7
Textstil144
 11
317.000000394102
 21
24.75000002980233
 31
0.0
100
AcDbAttribute
  2
10-Ä-Nr._-1-
 70
     0
 74
     3
  0
ATTRIB
  5
1B9
102
{ACAD_XDICTIONARY
360
8B3
102
}
330
1AA
100
AcDbEntity
  8
Sichtbar schmal (ISO)
 62
     1
100
AcDbText
 10
317.000000394102
 20
37.75
 30
0.0
 40
2.000000029802322
  1

 41
1.400000095367431
  7
Textstil144
 11
317.000000394102
 21
39.75000002980232
 31
0.0
100
AcDbAttribute
  2
16-Ä-Nr._-7-
 70
     0
 74
     3
  0
ATTRIB
  5
1BA
102
{ACAD_XDICTIONARY
360
8B6
102
}
330
1AA
100
AcDbEntity
  8
Sichtbar schmal (ISO)
 62
     1
100
AcDbText
 10
317.000000394102
 20
40.25
 30
0.0
 40
2.000000029802322
  1

 41
1.400000095367431
  7
Textstil144
 11
317.000000394102
 21
42.25000002980232
 31
0.0
100
AcDbAttribute
  2
17-Ä-Nr._-8-
 70
     0
 74
     3
  0
ATTRIB
  5
1BB
102
{ACAD_XDICTIONARY
360
8B9
102
}
330
1AA
100
AcDbEntity
  8
Sichtbar schmal (ISO)
 62
     1
100
AcDbText
 10
317.000000394102
 20
35.25
 30
0.0
 40
2.000000029802322
  1

 41
1.400000095367431
  7
Textstil144
 11
317.000000394102
 21
37.25000002980233
 31
0.0
100
AcDbAttribute
  2
15-Ä-Nr._-6-
 70
     0
 74
     3
  0
ATTRIB
  5
1BC
102
{ACAD_XDICTIONARY
360
8BC
102
}
330
1AA
100
AcDbEntity
  8
0
 62
     5
100
AcDbText
 10
341.7000004036015
 20
10.49999999999999
 30
0.0
 40
2.5
  1
2503397.idw
 41
1.199999999999999
  7
Textstil68
100
AcDbAttribute
  2
DATEINAME_001
 70
     0
  0
ATTRIB
  5
1BD
102
{ACAD_XDICTIONARY
360
8BF
102
}
330
1AA
100
AcDbEntity
  8
0
 62
     5
100
AcDbText
 10
341.7000004036015
 20
6.249999999999996
 30
0.0
 40
2.5
  1
13.07.2012
 41
1.199999999999999
  7
Textstil68
100
AcDbAttribute
  2
ERSTELLUNGSDATUM_001
 70
     0
  0
ATTRIB
  5
1BE
102
{ACAD_XDICTIONARY
360
8C2
102
}
330
1AA
100
AcDbEntity
  8
Sichtbar schmal (ISO)
 62
     1
100
AcDbText
 10
332.000000394102
 20
45.25
 30
0.0
 40
2.000000029802322
  1

 41
1.400000095367431
  7
Textstil144
 11
332.000000394102
 21
47.25000002980232
 31
0.0
100
AcDbAttribute
  2
19-Datum_-10-
 70
     0
 74
     3
  0
ATTRIB
  5
1BF
102
{ACAD_XDICTIONARY
360
8C5
102
}
330
1AA
100
AcDbEntity
  8
Sichtbar schmal (ISO)
 62
     1
100
AcDbText
 10
332.000000394102
 20
42.75
 30
0.0
 40
2.000000029802322
  1

 41
1.400000095367431
  7
Textstil144
 11
332.000000394102
 21
44.75000002980232
 31
0.0
100
AcDbAttribute
  2
18-Datum_-9-
 70
     0
 74
     3
  0
ATTRIB
  5
1C0
102
{ACAD_XDICTIONARY
360
8C8
102
}
330
1AA
100
AcDbEntity
  8
Sichtbar schmal (ISO)
 62
     1
100
AcDbText
 10
317.000000394102
 20
45.25
 30
0.0
 40
2.000000029802322
  1

 41
1.400000095367431
  7
Textstil144
 11
317.000000394102
 21
47.25000002980232
 31
0.0
100
AcDbAttribute
  2
19-Ä-Nr._-10-
 70
     0
 74
     3
  0
ATTRIB
  5
1C1
102
{ACAD_XDICTIONARY
360
8CB
102
}
330
1AA
100
AcDbEntity
  8
Sichtbar schmal (ISO)
 62
     1
100
AcDbText
 10
317.000000394102
 20
42.75
 30
0.0
 40
2.000000029802322
  1

 41
1.400000095367431
  7
Textstil144
 11
317.000000394102
 21
44.75000002980232
 31
0.0
100
AcDbAttribute
  2
18-Ä-Nr._-9-
 70
     0
 74
     3
  0
ATTRIB
  5
1C2
102
{ACAD_XDICTIONARY
360
8CE
102
}
330
1AA
100
AcDbEntity
  8
Titel (ISO)
 62
     7
100
AcDbText
 10
316.9421323781193
 20
65.50000000000503
 30
0.0
 40
3.98477166891098
  1
BOCUBE
 41
1.399999999999999
  7
Textstil243
100
AcDbAttribute
  2
07-Artikel-Modell_001
 70
     0
  0
ATTRIB
  5
1C3
102
{ACAD_XDICTIONARY
360
8D1
102
}
330
1AA
100
AcDbEntity
  8
Titel (ISO)
 62
     7
100
AcDbText
 10
339.4400004034897
 20
82.00000000000004
 30
0.0
 40
4.000000059604644
  1
3K 5390.064.01
 41
1.399999999999999
  7
Textstil143
100
AcDbAttribute
  2
03-Zchn.Nr._001
 70
     0
  0
ATTRIB
  5
1C4
102
{ACAD_XDICTIONARY
360
8D4
102
}
330
1AA
100
AcDbEntity
  8
0
 62
     5
100
AcDbText
 10
361.7000004036014
 20
6.249999999999996
 30
0.0
 40
2.5
  1
KH
 41
1.199999999999999
  7
Textstil68
100
AcDbAttribute
  2
50-Namenskürzel_001
 70
     0
  0
ATTRIB
  5
1C5
102
{ACAD_XDICTIONARY
360
8D7
102
}
330
1AA
100
AcDbEntity
  8
Titel (ISO)
 62
     7
100
AcDbText
 10
339.5200004021485
 20
97.5
 30
0.0
 40
4.000000059604644
  1
1:1
 41
1.199999999999999
  7
Textstil242
100
AcDbAttribute
  2
02-Maßstab_001
 70
     0
  0
ATTRIB
  5
1C6
102
{ACAD_XDICTIONARY
360
8DA
102
}
330
1AA
100
AcDbEntity
  8
Titel (ISO)
 62
     7
100
AcDbText
 10
316.9400004034896
 20
58.50000000000502
 30
0.0
 40
4.000000059604644
  1
B M 1413
 41
1.399999999999999
  7
Textstil143
100
AcDbAttribute
  2
08-Artikel-Benennung_001
 70
     0
  0
ATTRIB
  5
1C7
102
{ACAD_XDICTIONARY
360
8DD
102
}
330
1AA
100
AcDbEntity
  8
Titel (ISO)
 62
     7
100
AcDbText
 10
316.9421323781193
 20
51.50000000000503
 30
0.0
 40
3.98477166891098
  1
Katalogzg./Catalogue draw.
 41
1.399999999999999
  7
Textstil243
100
AcDbAttribute
  2
09-Artikel-Benennung_(2.Zeile)_001
 70
     0
  0
SEQEND
  5
1AB
330
1AA
100
AcDbEntity
  8
0
  0
CIRCLE
  5
1C8
330
71
100
AcDbEntity
  8
Sichtbar (ISO)
100
AcDbCircle
 10
95.81963452690956
 20
252.5349857016008
 30
0.0
 40
1.75
  0
CIRCLE
  5
1C9
330
71
100
AcDbEntity
  8
Sichtbar (ISO)
100
AcDbCircle
 10
95.81963452690956
 20
237.5349857016008
 30
0.0
 40
1.75
  0
CIRCLE
  5
1CA
330
71
100
AcDbEntity
  8
Sichtbar (ISO)
100
AcDbCircle
 10
95.81963452690956
 20
162.5349857016008
 30
0.0
 40
1.75
  0
CIRCLE
  5
1CB
330
71
100
AcDbEntity
  8
Sichtbar (ISO)
100
AcDbCircle
 10
95.81963452690956
 20
147.5349857016008
 30
0.0
 40
1.75
  0
CIRCLE
  5
1CC
330
71
100
AcDbEntity
  8
Sichtbar (ISO)
100
AcDbCircle
 10
195.8196345269096
 20
147.5349857016008
 30
0.0
 40
1.75
  0
CIRCLE
  5
1CD
330
71
100
AcDbEntity
  8
Sichtbar (ISO)
100
AcDbCircle
 10
195.8196345269096
 20
162.5349857016008
 30
0.0
 40
1.75
  0
CIRCLE
  5
1CE
330
71
100
AcDbEntity
  8
Sichtbar (ISO)
100
AcDbCircle
 10
195.8196345269096
 20
252.5349857016008
 30
0.0
 40
1.75
  0
CIRCLE
  5
1CF
330
71
100
AcDbEntity
  8
Sichtbar (ISO)
100
AcDbCircle
 10
195.8196345269096
 20
237.5349857016008
 30
0.0
 40
1.75
  0
LINE
  5
1D0
330
71
100
AcDbEntity
  8
Sichtbar (ISO)
100
AcDbLine
 10
201.0696345269096
 20
142.0349857016008
 30
0.0
 11
90.56963452690956
 21
142.0349857016008
 31
0.0
  0
LINE
  5
1D1
330
71
100
AcDbEntity
  8
Sichtbar (ISO)
100
AcDbLine
 10
90.56963452690956
 20
142.0349857016008
 30
0.0
 11
90.56963452690956
 21
258.0349857016008
 31
0.0
  0
LINE
  5
1D2
330
71
100
AcDbEntity
  8
Sichtbar (ISO)
100
AcDbLine
 10
90.56963452690956
 20
258.0349857016008
 30
0.0
 11
201.0696345269096
 21
258.0349857016008
 31
0.0
  0
LINE
  5
1D3
330
71
100
AcDbEntity
  8
Sichtbar (ISO)
100
AcDbLine
 10
201.0696345269096
 20
258.0349857016008
 30
0.0
 11
201.0696345269096
 21
142.0349857016008
 31
0.0
  0
LINE
  5
1D4
330
71
100
AcDbEntity
  8
Mittellinie (ISO)
  6
CHAIN
 48
23.99096870422363
100
AcDbLine
 10
145.8196345269096
 20
260.5349857016008
 30
0.0
 11
145.8196345269096
 21
139.5349857016008
 31
0.0
  0
LINE
  5
1D5
330
71
100
AcDbEntity
  8
Mittellinie (ISO)
  6
CHAIN
 48
23.99096870422363
100
AcDbLine
 10
88.06963452690956
 20
200.0349857016008
 30
0.0
 11
203.5696345269096
 21
200.0349857016008
 31
0.0
  0
LINE
  5
1D6
330
71
100
AcDbEntity
  8
Sichtbar (ISO)
100
AcDbLine
 10
255.155775268717
 20
142.0349857016008
 30
0.0
 11
257.155775268717
 21
142.0349857016008
 31
0.0
  0
LINE
  5
1D7
330
71
100
AcDbEntity
  8
Sichtbar (ISO)
100
AcDbLine
 10
257.155775268717
 20
142.0349857016008
 30
0.0
 11
257.155775268717
 21
258.0349857016008
 31
0.0
  0
LINE
  5
1D8
330
71
100
AcDbEntity
  8
Sichtbar (ISO)
100
AcDbLine
 10
255.155775268717
 20
258.0349857016008
 30
0.0
 11
257.155775268717
 21
258.0349857016008
 31
0.0
  0
LINE
  5
1D9
330
71
100
AcDbEntity
  8
Sichtbar (ISO)
100
AcDbLine
 10
255.155775268717
 20
142.0349857016008
 30
0.0
 11
255.155775268717
 21
258.0349857016008
 31
0.0
  0
LINE
  5
1DA
330
71
100
AcDbEntity
  8
Verdeckt (ISO)
 48
3.809293270111083
100
AcDbLine
 10
255.1557752687185
 20
254.2849857016008
 30
0.0
 11
257.1557752687186
 21
254.2849857016008
 31
0.0
  0
LINE
  5
1DB
330
71
100
AcDbEntity
  8
Verdeckt (ISO)
 48
3.809293270111083
100
AcDbLine
 10
255.1557752687185
 20
250.7849857016008
 30
0.0
 11
257.1557752687186
 21
250.7849857016008
 31
0.0
  0
LINE
  5
1DC
330
71
100
AcDbEntity
  8
Verdeckt (ISO)
 48
3.809293270111083
100
AcDbLine
 10
255.1557752687185
 20
239.2849857016008
 30
0.0
 11
257.1557752687186
 21
239.2849857016008
 31
0.0
  0
LINE
  5
1DD
330
71
100
AcDbEntity
  8
Verdeckt (ISO)
 48
3.809293270111083
100
AcDbLine
 10
255.1557752687185
 20
235.7849857016008
 30
0.0
 11
257.1557752687186
 21
235.7849857016008
 31
0.0
  0
LINE
  5
1DE
330
71
100
AcDbEntity
  8
Verdeckt (ISO)
 48
3.809293270111083
100
AcDbLine
 10
255.1557752687185
 20
164.2849857016008
 30
0.0
 11
257.1557752687186
 21
164.2849857016008
 31
0.0
  0
LINE
  5
1DF
330
71
100
AcDbEntity
  8
Verdeckt (ISO)
 48
3.809293270111083
100
AcDbLine
 10
255.1557752687185
 20
160.7849857016008
 30
0.0
 11
257.1557752687186
 21
160.7849857016008
 31
0.0
  0
LINE
  5
1E0
330
71
100
AcDbEntity
  8
Verdeckt (ISO)
 48
3.809293270111083
100
AcDbLine
 10
255.1557752687185
 20
149.2849857016008
 30
0.0
 11
257.1557752687186
 21
149.2849857016008
 31
0.0
  0
LINE
  5
1E1
330
71
100
AcDbEntity
  8
Verdeckt (ISO)
 48
3.809293270111083
100
AcDbLine
 10
255.1557752687185
 20
145.7849857016008
 30
0.0
 11
257.1557752687186
 21
145.7849857016008
 31
0.0
  0
LINE
  5
1E2
330
71
100
AcDbEntity
  8
Mittellinie (ISO)
  6
CHAIN
 48
7.778351783752441
100
AcDbLine
 10
252.655775268717
 20
200.0349857016008
 30
0.0
 11
259.6557752687171
 21
200.0349857016008
 31
0.0
  0
DIMENSION
  5
1E3
330
71
100
AcDbEntity
  8
Bemaßung (ISO)
  6
Continuous
 62
     1
370
    25
100
AcDbDimension
  2
*D6
 10
201.0696345269096
 20
272.8940717189437
 30
0.0
 11
146.9712521494245
 21
272.8940717189437
 31
0.0
 70
   160
  1
<>
 71
     7
 42
110.5
  3
18-Bopla 3_5
100
AcDbAlignedDimension
 13
90.56963452690956
 23
258.0349857016008
 33
0.0
 14
201.0696345269096
 24
258.0349857016008
 34
0.0
100
AcDbRotatedDimension
1001
ACAD
1000
DSTYLE
1002
{
1070
   172
1070
     0
1070
   289
1070
     1
1070
   271
1070
     6
1070
   272
1070
     3
1070
    48
1040
0.0
1070
    47
1040
0.0
1002
}
  0
DIMENSION
  5
2BA
330
71
100
AcDbEntity
  8
Bemaßung (ISO)
  6
Continuous
 62
     1
370
    25
100
AcDbDimension
  2
*D7
 10
225.6362878299382
 20
142.0349857016008
 30
0.0
 11
225.6362878299382
 21
200.0349857016008
 31
0.0
 70
   160
  1
<>
 71
     7
 42
116.0
  3
18-Bopla 3_5
100
AcDbAlignedDimension
 13
201.0696345269096
 23
258.0349857016008
 33
0.0
 14
201.0696345269096
 24
142.0349857016008
 34
0.0
 50
270.0
100
AcDbRotatedDimension
1001
ACAD
1000
DSTYLE
1002
{
1070
   172
1070
     0
1070
   289
1070
     1
1070
   271
1070
     6
1070
   272
1070
     3
1070
    48
1040
0.0
1070
    47
1040
0.0
1002
}
  0
DIMENSION
  5
390
330
71
100
AcDbEntity
  8
Bemaßung (ISO)
  6
Continuous
 62
     1
370
    25
100
AcDbDimension
  2
*D8
 10
257.155775268717
 20
265.0349857016008
 30
0.0
 11
263.7891150908339
 21
265.0349857016008
 31
0.0
 70
   160
  1
<>
 71
     7
 42
2.0
  3
18-Bopla 3_5
100
AcDbAlignedDimension
 13
255.155775268717
 23
258.0349857016008
 33
0.0
 14
257.155775268717
 24
258.0349857016008
 34
0.0
100
AcDbRotatedDimension
1001
ACAD
1000
DSTYLE
1002
{
1070
   172
1070
     1
1070
   289
1070
     1
1070
   271
1070
     6
1070
   272
1070
     3
1070
    48
1040
0.0
1070
    47
1040
0.0
1002
}
  0
LINE
  5
48E
330
71
100
AcDbEntity
  8
Mittelpunktmarkierung (ISO)
  6
CHAIN
 48
9.445162773132324
100
AcDbLine
 10
100.0696345269096
 20
252.5349857016008
 30
0.0
 11
91.56963452690957
 21
252.5349857016008
 31
0.0
  0
LINE
  5
48F
330
71
100
AcDbEntity
  8
Mittelpunktmarkierung (ISO)
  6
CHAIN
 48
9.445162773132324
100
AcDbLine
 10
95.81963452690956
 20
256.7849857016008
 30
0.0
 11
95.81963452690956
 21
248.2849857016008
 31
0.0
  0
LINE
  5
490
330
71
100
AcDbEntity
  8
Mittelpunktmarkierung (ISO)
  6
CHAIN
 48
9.445162773132324
100
AcDbLine
 10
100.0696345269096
 20
237.5349857016008
 30
0.0
 11
91.56963452690957
 21
237.5349857016008
 31
0.0
  0
LINE
  5
491
330
71
100
AcDbEntity
  8
Mittelpunktmarkierung (ISO)
  6
CHAIN
 48
9.445162773132324
100
AcDbLine
 10
95.81963452690956
 20
241.7849857016008
 30
0.0
 11
95.81963452690956
 21
233.2849857016008
 31
0.0
  0
LINE
  5
492
330
71
100
AcDbEntity
  8
Mittelpunktmarkierung (ISO)
  6
CHAIN
 48
9.445162773132324
100
AcDbLine
 10
100.0696345269096
 20
162.5349857016008
 30
0.0
 11
91.56963452690957
 21
162.5349857016008
 31
0.0
  0
LINE
  5
493
330
71
100
AcDbEntity
  8
Mittelpunktmarkierung (ISO)
  6
CHAIN
 48
9.445162773132324
100
AcDbLine
 10
95.81963452690956
 20
166.7849857016008
 30
0.0
 11
95.81963452690956
 21
158.2849857016008
 31
0.0
  0
LINE
  5
494
330
71
100
AcDbEntity
  8
Mittelpunktmarkierung (ISO)
  6
CHAIN
 48
9.445162773132324
100
AcDbLine
 10
100.0696345269096
 20
147.5349857016008
 30
0.0
 11
91.56963452690957
 21
147.5349857016008
 31
0.0
  0
LINE
  5
495
330
71
100
AcDbEntity
  8
Mittelpunktmarkierung (ISO)
  6
CHAIN
 48
9.445162773132324
100
AcDbLine
 10
95.81963452690956
 20
151.7849857016008
 30
0.0
 11
95.81963452690956
 21
143.2849857016008
 31
0.0
  0
LINE
  5
496
330
71
100
AcDbEntity
  8
Mittelpunktmarkierung (ISO)
  6
CHAIN
 48
9.445162773132324
100
AcDbLine
 10
200.0696345269096
 20
147.5349857016008
 30
0.0
 11
191.5696345269095
 21
147.5349857016008
 31
0.0
  0
LINE
  5
497
330
71
100
AcDbEntity
  8
Mittelpunktmarkierung (ISO)
  6
CHAIN
 48
9.445162773132324
100
AcDbLine
 10
195.8196345269096
 20
151.7849857016008
 30
0.0
 11
195.8196345269096
 21
143.2849857016008
 31
0.0
  0
LINE
  5
498
330
71
100
AcDbEntity
  8
Mittelpunktmarkierung (ISO)
  6
CHAIN
 48
9.445162773132324
100
AcDbLine
 10
200.0696345269096
 20
162.5349857016008
 30
0.0
 11
191.5696345269095
 21
162.5349857016008
 31
0.0
  0
LINE
  5
499
330
71
100
AcDbEntity
  8
Mittelpunktmarkierung (ISO)
  6
CHAIN
 48
9.445162773132324
100
AcDbLine
 10
195.8196345269096
 20
166.7849857016008
 30
0.0
 11
195.8196345269096
 21
158.2849857016008
 31
0.0
  0
LINE
  5
49A
330
71
100
AcDbEntity
  8
Mittelpunktmarkierung (ISO)
  6
CHAIN
 48
9.445162773132324
100
AcDbLine
 10
200.0696345269096
 20
237.5349857016008
 30
0.0
 11
191.5696345269095
 21
237.5349857016008
 31
0.0
  0
LINE
  5
49B
330
71
100
AcDbEntity
  8
Mittelpunktmarkierung (ISO)
  6
CHAIN
 48
9.445162773132324
100
AcDbLine
 10
195.8196345269096
 20
241.7849857016008
 30
0.0
 11
195.8196345269096
 21
233.2849857016008
 31
0.0
  0
LINE
  5
49C
330
71
100
AcDbEntity
  8
Mittelpunktmarkierung (ISO)
  6
CHAIN
 48
9.445162773132324
100
AcDbLine
 10
200.0696345269096
 20
252.5349857016008
 30
0.0
 11
191.5696345269095
 21
252.5349857016008
 31
0.0
  0
LINE
  5
49D
330
71
100
AcDbEntity
  8
Mittelpunktmarkierung (ISO)
  6
CHAIN
 48
9.445162773132324
100
AcDbLine
 10
195.8196345269096
 20
256.7849857016008
 30
0.0
 11
195.8196345269096
 21
248.2849857016008
 31
0.0
  0
DIMENSION
  5
49E
330
71
100
AcDbEntity
  8
Bemaßung (ISO)
  6
Continuous
 62
     1
370
    25
100
AcDbDimension
  2
*D9
 10
195.8196345269096
 20
264.7862435561419
 30
0.0
 11
145.8196345269096
 21
264.7862435561419
 31
0.0
 70
   160
  1
<>
 71
     7
 42
100.0
  3
18-Bopla 3_5
100
AcDbAlignedDimension
 13
95.81963452690956
 23
252.5349857016008
 33
0.0
 14
195.8196345269096
 24
252.5349857016008
 34
0.0
 50
180.0
100
AcDbRotatedDimension
1001
ACAD
1000
DSTYLE
1002
{
1070
   172
1070
     0
1070
   289
1070
     1
1070
   271
1070
     6
1070
   272
1070
     3
1070
    48
1040
0.0
1070
    47
1040
0.0
1002
}
  0
DIMENSION
  5
574
330
71
100
AcDbEntity
  8
Bemaßung (ISO)
  6
Continuous
 62
     1
370
    25
100
AcDbDimension
  2
*D10
 10
210.0709873094042
 20
162.5349857016008
 30
0.0
 11
210.0709873094041
 21
200.0349857016008
 31
0.0
 70
   160
  1
<>
 71
     7
 42
75.0
  3
18-Bopla 3_5
100
AcDbAlignedDimension
 13
195.8196345269096
 23
237.5349857016008
 33
0.0
 14
195.8196345269096
 24
162.5349857016008
 34
0.0
 50
90.0
100
AcDbRotatedDimension
1001
ACAD
1000
DSTYLE
1002
{
1070
   172
1070
     0
1070
   289
1070
     1
1070
   271
1070
     6
1070
   272
1070
     3
1070
    48
1040
0.0
1070
    47
1040
0.0
1002
}
  0
DIMENSION
  5
64A
330
71
100
AcDbEntity
  8
Bemaßung (ISO)
  6
Continuous
 62
     1
370
    25
100
AcDbDimension
  2
*D11
 10
217.8196345269096
 20
147.5349857016008
 30
0.0
 11
217.8196345269096
 21
200.0349857016008
 31
0.0
 70
   160
  1
<>
 71
     7
 42
105.0
  3
18-Bopla 3_5
100
AcDbAlignedDimension
 13
195.8196345269096
 23
252.5349857016008
 33
0.0
 14
195.8196345269096
 24
147.5349857016008
 34
0.0
 50
90.0
100
AcDbRotatedDimension
1001
ACAD
1000
DSTYLE
1002
{
1070
   172
1070
     0
1070
   289
1070
     1
1070
   271
1070
     6
1070
   272
1070
     3
1070
    48
1040
0.0
1070
    47
1040
0.0
1002
}
  0
DIMENSION
  5
720
330
71
100
AcDbEntity
  8
Bemaßung (ISO)
  6
Continuous
 62
     1
370
    25
100
AcDbDimension
  2
*D12
 10
82.65521020417263
 20
254.2849857016008
 30
0.0
 11
82.65521020417258
 21
240.3294321933142
 31
0.0
 70
   160
  1
\fAIGDT|b0|i0;\H3.5000;\ln\fISOCPEUR|b0|i0;\H3.5000;<>
 71
     7
 42
3.500000000000028
  3
18-Bopla 3_5
100
AcDbAlignedDimension
 13
95.81963452690956
 23
250.7849857016008
 33
0.0
 14
95.81963452690956
 24
254.2849857016008
 34
0.0
 50
90.0
100
AcDbRotatedDimension
1001
ACAD
1000
DSTYLE
1002
{
1070
   172
1070
     1
1070
   289
1070
     1
1070
    77
1070
     0
1070
   271
1070
     6
1070
   272
1070
     3
1070
    48
1040
0.0
1070
    47
1040
0.0
1002
}
  0
ENDSEC
  0
SECTION
  2
OBJECTS
  0
DICTIONARY
  5
C
330
0
100
AcDbDictionary
281
     1
  3
ACAD_CIP_PREVIOUS_PRODUCT_INFO
350
821
  3
ACAD_COLOR
350
63
  3
ACAD_DETAILVIEWSTYLE
350
6B
  3
ACAD_GROUP
350
D
  3
ACAD_LAYOUT
350
62
  3
ACAD_MATERIAL
350
10
  3
ACAD_MLEADERSTYLE
350
66
  3
ACAD_MLINESTYLE
350
5F
  3
ACAD_PLOTSETTINGS
350
61
  3
ACAD_PLOTSTYLENAME
350
E
  3
ACAD_SCALELIST
350
42
  3
ACAD_SECTIONVIEWSTYLE
350
68
  3
ACAD_TABLESTYLE
350
64
  3
ACAD_VISUALSTYLE
350
29
  3
ACDB_RECOMPOSE_DATA
350
8E0
  3
AcDbVariableDictionary
350
822
  3
DWGPROPS
350
8E1
  0
DICTIONARY
  5
833
330
135
100
AcDbDictionary
280
     1
281
     1
  3
ACAD_MLATT
360
835
  3
ACAD_XREC_ROUNDTRIP
360
834
  0
DICTIONARY
  5
838
330
18B
100
AcDbDictionary
280
     1
281
     1
  3
ACAD_MLATT
360
83A
  3
ACAD_XREC_ROUNDTRIP
360
839
  0
DICTIONARY
  5
83B
330
18C
100
AcDbDictionary
280
     1
281
     1
  3
ACAD_MLATT
360
83D
  3
ACAD_XREC_ROUNDTRIP
360
83C
  0
DICTIONARY
  5
83E
330
18D
100
AcDbDictionary
280
     1
281
     1
  3
ACAD_MLATT
360
840
  3
ACAD_XREC_ROUNDTRIP
360
83F
  0
DICTIONARY
  5
841
330
18E
100
AcDbDictionary
280
     1
281
     1
  3
ACAD_MLATT
360
843
  3
ACAD_XREC_ROUNDTRIP
360
842
  0
DICTIONARY
  5
844
330
18F
100
AcDbDictionary
280
     1
281
     1
  3
ACAD_MLATT
360
846
  3
ACAD_XREC_ROUNDTRIP
360
845
  0
DICTIONARY
  5
847
330
190
100
AcDbDictionary
280
     1
281
     1
  3
ACAD_MLATT
360
849
  3
ACAD_XREC_ROUNDTRIP
360
848
  0
DICTIONARY
  5
84A
330
191
100
AcDbDictionary
280
     1
281
     1
  3
ACAD_MLATT
360
84C
  3
ACAD_XREC_ROUNDTRIP
360
84B
  0
DICTIONARY
  5
84D
330
192
100
AcDbDictionary
280
     1
281
     1
  3
ACAD_MLATT
360
84F
  3
ACAD_XREC_ROUNDTRIP
360
84E
  0
DICTIONARY
  5
850
330
193
100
AcDbDictionary
280
     1
281
     1
  3
ACAD_MLATT
360
852
  3
ACAD_XREC_ROUNDTRIP
360
851
  0
DICTIONARY
  5
853
330
194
100
AcDbDictionary
280
     1
281
     1
  3
ACAD_MLATT
360
855
  3
ACAD_XREC_ROUNDTRIP
360
854
  0
DICTIONARY
  5
856
330
195
100
AcDbDictionary
280
     1
281
     1
  3
ACAD_MLATT
360
858
  3
ACAD_XREC_ROUNDTRIP
360
857
  0
DICTIONARY
  5
859
330
196
100
AcDbDictionary
280
     1
281
     1
  3
ACAD_MLATT
360
85B
  3
ACAD_XREC_ROUNDTRIP
360
85A
  0
DICTIONARY
  5
85C
330
197
100
AcDbDictionary
280
     1
281
     1
  3
ACAD_MLATT
360
85E
  3
ACAD_XREC_ROUNDTRIP
360
85D
  0
DICTIONARY
  5
85F
330
198
100
AcDbDictionary
280
     1
281
     1
  3
ACAD_MLATT
360
861
  3
ACAD_XREC_ROUNDTRIP
360
860
  0
DICTIONARY
  5
862
330
199
100
AcDbDictionary
280
     1
281
     1
  3
ACAD_MLATT
360
864
  3
ACAD_XREC_ROUNDTRIP
360
863
  0
DICTIONARY
  5
865
330
19A
100
AcDbDictionary
280
     1
281
     1
  3
ACAD_MLATT
360
867
  3
ACAD_XREC_ROUNDTRIP
360
866
  0
DICTIONARY
  5
868
330
19B
100
AcDbDictionary
280
     1
281
     1
  3
ACAD_MLATT
360
86A
  3
ACAD_XREC_ROUNDTRIP
360
869
  0
DICTIONARY
  5
86B
330
19C
100
AcDbDictionary
280
     1
281
     1
  3
ACAD_MLATT
360
86D
  3
ACAD_XREC_ROUNDTRIP
360
86C
  0
DICTIONARY
  5
86E
330
19D
100
AcDbDictionary
280
     1
281
     1
  3
ACAD_MLATT
360
870
  3
ACAD_XREC_ROUNDTRIP
360
86F
  0
DICTIONARY
  5
871
330
19E
100
AcDbDictionary
280
     1
281
     1
  3
ACAD_MLATT
360
873
  3
ACAD_XREC_ROUNDTRIP
360
872
  0
DICTIONARY
  5
874
330
19F
100
AcDbDictionary
280
     1
281
     1
  3
ACAD_MLATT
360
876
  3
ACAD_XREC_ROUNDTRIP
360
875
  0
DICTIONARY
  5
877
330
1A0
100
AcDbDictionary
280
     1
281
     1
  3
ACAD_MLATT
360
879
  3
ACAD_XREC_ROUNDTRIP
360
878
  0
DICTIONARY
  5
87A
330
1A2
100
AcDbDictionary
280
     1
281
     1
  3
ACAD_MLATT
360
87C
  3
ACAD_XREC_ROUNDTRIP
360
87B
  0
DICTIONARY
  5
87D
330
1A4
100
AcDbDictionary
280
     1
281
     1
  3
ACAD_MLATT
360
87F
  3
ACAD_XREC_ROUNDTRIP
360
87E
  0
DICTIONARY
  5
880
330
1A5
100
AcDbDictionary
280
     1
281
     1
  3
ACAD_MLATT
360
882
  3
ACAD_XREC_ROUNDTRIP
360
881
  0
DICTIONARY
  5
883
330
1A7
100
AcDbDictionary
280
     1
281
     1
  3
ACAD_MLATT
360
885
  3
ACAD_XREC_ROUNDTRIP
360
884
  0
DICTIONARY
  5
886
330
1A8
100
AcDbDictionary
280
     1
281
     1
  3
ACAD_MLATT
360
888
  3
ACAD_XREC_ROUNDTRIP
360
887
  0
DICTIONARY
  5
889
330
1A9
100
AcDbDictionary
280
     1
281
     1
  3
ACAD_MLATT
360
88B
  3
ACAD_XREC_ROUNDTRIP
360
88A
  0
DICTIONARY
  5
88C
330
1AC
100
AcDbDictionary
280
     1
281
     1
  3
ACAD_MLATT
360
88E
  3
ACAD_XREC_ROUNDTRIP
360
88D
  0
DICTIONARY
  5
88F
330
1AD
100
AcDbDictionary
280
     1
281
     1
  3
ACAD_MLATT
360
891
  3
ACAD_XREC_ROUNDTRIP
360
890
  0
DICTIONARY
  5
892
330
1AE
100
AcDbDictionary
280
     1
281
     1
  3
ACAD_MLATT
360
894
  3
ACAD_XREC_ROUNDTRIP
360
893
  0
DICTIONARY
  5
895
330
1AF
100
AcDbDictionary
280
     1
281
     1
  3
ACAD_MLATT
360
897
  3
ACAD_XREC_ROUNDTRIP
360
896
  0
DICTIONARY
  5
898
330
1B0
100
AcDbDictionary
280
     1
281
     1
  3
ACAD_MLATT
360
89A
  3
ACAD_XREC_ROUNDTRIP
360
899
  0
DICTIONARY
  5
89B
330
1B1
100
AcDbDictionary
280
     1
281
     1
  3
ACAD_MLATT
360
89D
  3
ACAD_XREC_ROUNDTRIP
360
89C
  0
DICTIONARY
  5
89E
330
1B2
100
AcDbDictionary
280
     1
281
     1
  3
ACAD_MLATT
360
8A0
  3
ACAD_XREC_ROUNDTRIP
360
89F
  0
DICTIONARY
  5
8A1
330
1B3
100
AcDbDictionary
280
     1
281
     1
  3
ACAD_MLATT
360
8A3
  3
ACAD_XREC_ROUNDTRIP
360
8A2
  0
DICTIONARY
  5
8A4
330
1B4
100
AcDbDictionary
280
     1
281
     1
  3
ACAD_MLATT
360
8A6
  3
ACAD_XREC_ROUNDTRIP
360
8A5
  0
DICTIONARY
  5
8A7
330
1B5
100
AcDbDictionary
280
     1
281
     1
  3
ACAD_MLATT
360
8A9
  3
ACAD_XREC_ROUNDTRIP
360
8A8
  0
DICTIONARY
  5
8AA
330
1B6
100
AcDbDictionary
280
     1
281
     1
  3
ACAD_MLATT
360
8AC
  3
ACAD_XREC_ROUNDTRIP
360
8AB
  0
DICTIONARY
  5
8AD
330
1B7
100
AcDbDictionary
280
     1
281
     1
  3
ACAD_MLATT
360
8AF
  3
ACAD_XREC_ROUNDTRIP
360
8AE
  0
DICTIONARY
  5
8B0
330
1B8
100
AcDbDictionary
280
     1
281
     1
  3
ACAD_MLATT
360
8B2
  3
ACAD_XREC_ROUNDTRIP
360
8B1
  0
DICTIONARY
  5
8B3
330
1B9
100
AcDbDictionary
280
     1
281
     1
  3
ACAD_MLATT
360
8B5
  3
ACAD_XREC_ROUNDTRIP
360
8B4
  0
DICTIONARY
  5
8B6
330
1BA
100
AcDbDictionary
280
     1
281
     1
  3
ACAD_MLATT
360
8B8
  3
ACAD_XREC_ROUNDTRIP
360
8B7
  0
DICTIONARY
  5
8B9
330
1BB
100
AcDbDictionary
280
     1
281
     1
  3
ACAD_MLATT
360
8BB
  3
ACAD_XREC_ROUNDTRIP
360
8BA
  0
DICTIONARY
  5
8BC
330
1BC
100
AcDbDictionary
280
     1
281
     1
  3
ACAD_MLATT
360
8BE
  3
ACAD_XREC_ROUNDTRIP
360
8BD
  0
DICTIONARY
  5
8BF
330
1BD
100
AcDbDictionary
280
     1
281
     1
  3
ACAD_MLATT
360
8C1
  3
ACAD_XREC_ROUNDTRIP
360
8C0
  0
DICTIONARY
  5
8C2
330
1BE
100
AcDbDictionary
280
     1
281
     1
  3
ACAD_MLATT
360
8C4
  3
ACAD_XREC_ROUNDTRIP
360
8C3
  0
DICTIONARY
  5
8C5
330
1BF
100
AcDbDictionary
280
     1
281
     1
  3
ACAD_MLATT
360
8C7
  3
ACAD_XREC_ROUNDTRIP
360
8C6
  0
DICTIONARY
  5
8C8
330
1C0
100
AcDbDictionary
280
     1
281
     1
  3
ACAD_MLATT
360
8CA
  3
ACAD_XREC_ROUNDTRIP
360
8C9
  0
DICTIONARY
  5
8CB
330
1C1
100
AcDbDictionary
280
     1
281
     1
  3
ACAD_MLATT
360
8CD
  3
ACAD_XREC_ROUNDTRIP
360
8CC
  0
DICTIONARY
  5
8CE
330
1C2
100
AcDbDictionary
280
     1
281
     1
  3
ACAD_MLATT
360
8D0
  3
ACAD_XREC_ROUNDTRIP
360
8CF
  0
DICTIONARY
  5
8D1
330
1C3
100
AcDbDictionary
280
     1
281
     1
  3
ACAD_MLATT
360
8D3
  3
ACAD_XREC_ROUNDTRIP
360
8D2
  0
DICTIONARY
  5
8D4
330
1C4
100
AcDbDictionary
280
     1
281
     1
  3
ACAD_MLATT
360
8D6
  3
ACAD_XREC_ROUNDTRIP
360
8D5
  0
DICTIONARY
  5
8D7
330
1C5
100
AcDbDictionary
280
     1
281
     1
  3
ACAD_MLATT
360
8D9
  3
ACAD_XREC_ROUNDTRIP
360
8D8
  0
DICTIONARY
  5
8DA
330
1C6
100
AcDbDictionary
280
     1
281
     1
  3
ACAD_MLATT
360
8DC
  3
ACAD_XREC_ROUNDTRIP
360
8DB
  0
DICTIONARY
  5
8DD
330
1C7
100
AcDbDictionary
280
     1
281
     1
  3
ACAD_MLATT
360
8DF
  3
ACAD_XREC_ROUNDTRIP
360
8DE
  0
XRECORD
  5
821
102
{ACAD_REACTORS
330
C
102
}
330
C
100
AcDbXrecord
280
     1
300
INVNTOR
300
2013
300
PDSP_F_S
  0
DICTIONARY
  5
63
102
{ACAD_REACTORS
330
C
102
}
330
C
100
AcDbDictionary
281
     1
  0
DICTIONARY
  5
6B
102
{ACAD_REACTORS
330
C
102
}
330
C
100
AcDbDictionary
281
     1
  3
Imperial24
350
6C
  0
DICTIONARY
  5
D
102
{ACAD_REACTORS
330
C
102
}
330
C
100
AcDbDictionary
281
     1
  0
DICTIONARY
  5
62
102
{ACAD_REACTORS
330
C
102
}
330
C
100
AcDbDictionary
281
     1
  3
Layout1
350
70
  3
Layout2
350
78
  3
Model
350
74
  0
DICTIONARY
  5
10
102
{ACAD_REACTORS
330
C
102
}
330
C
100
AcDbDictionary
281
     1
  3
ByBlock
350
19
  3
ByLayer
350
11
  3
Global
350
21
  0
DICTIONARY
  5
66
102
{ACAD_REACTORS
330
C
102
}
330
C
100
AcDbDictionary
281
     1
  3
Standard
350
67
  0
DICTIONARY
  5
5F
102
{ACAD_REACTORS
330
C
102
}
330
C
100
AcDbDictionary
281
     1
  3
Standard
350
60
  0
DICTIONARY
  5
61
102
{ACAD_REACTORS
330
C
102
}
330
C
100
AcDbDictionary
281
     1
  0
ACDBDICTIONARYWDFLT
  5
E
102
{ACAD_REACTORS
330
C
102
}
330
C
100
AcDbDictionary
281
     1
  3
Normal
350
F
100
AcDbDictionaryWithDefault
340
F
  0
DICTIONARY
  5
42
102
{ACAD_REACTORS
330
C
102
}
330
C
100
AcDbDictionary
281
     1
  3
A0
350
43
  3
A1
350
44
  3
A2
350
45
  3
A3
350
46
  3
A4
350
47
  3
A5
350
48
  3
A6
350
49
  3
A7
350
4A
  3
A8
350
4B
  3
A9
350
4C
  3
B0
350
4D
  3
B1
350
4E
  3
B2
350
4F
  3
B3
350
50
  3
B4
350
51
  3
B5
350
52
  3
B6
350
53
  0
DICTIONARY
  5
68
102
{ACAD_REACTORS
330
C
102
}
330
C
100
AcDbDictionary
281
     1
  3
Imperial24
350
6A
  0
DICTIONARY
  5
64
102
{ACAD_REACTORS
330
C
102
}
330
C
100
AcDbDictionary
281
     1
  3
Standard
350
65
  0
DICTIONARY
  5
29
102
{ACAD_REACTORS
330
C
102
}
330
C
100
AcDbDictionary
281
     1
  3
2dWireframe
350
2F
  3
Basic
350
2E
  3
Brighten
350
35
  3
ColorChange
350
39
  3
Conceptual
350
32
  3
Dim
350
34
  3
EdgeColorOff
350
41
  3
Facepattern
350
38
  3
Flat
350
2A
  3
FlatWithEdges
350
2B
  3
Gouraud
350
2C
  3
GouraudWithEdges
350
2D
  3
Hidden
350
31
  3
JitterOff
350
3F
  3
Linepattern
350
37
  3
OverhangOff
350
40
  3
Realistic
350
33
  3
Shaded
350
3E
  3
Shaded with edges
350
3D
  3
Shades of Gray
350
3A
  3
Sketchy
350
3B
  3
Thicken
350
36
  3
Wireframe
350
30
  3
X-Ray
350
3C
  0
XRECORD
  5
8E0
102
{ACAD_REACTORS
330
C
102
}
330
C
100
AcDbXrecord
280
     1
 90
        1
330
65
330
135
330
18B
330
18C
330
18D
330
18E
330
18F
330
190
330
191
330
192
330
193
330
194
330
195
330
196
330
197
330
198
330
199
330
19A
330
19B
330
19C
330
19D
330
19E
330
19F
330
1A0
330
1A2
330
1A4
330
1A5
330
1A7
330
1A8
330
1A9
330
1AC
330
1AD
330
1AE
330
1AF
330
1B0
330
1B1
330
1B2
330
1B3
330
1B4
330
1B5
330
1B6
330
1B7
330
1B8
330
1B9
330
1BA
330
1BB
330
1BC
330
1BD
330
1BE
330
1BF
330
1C0
330
1C1
330
1C2
330
1C3
330
1C4
330
1C5
330
1C6
330
1C7
  0
DICTIONARY
  5
822
102
{ACAD_REACTORS
330
C
102
}
330
C
100
AcDbDictionary
281
     1
  3
CANNOSCALE
350
828
  3
CMLEADERSTYLE
350
824
  3
CTABLESTYLE
350
823
  3
CVIEWDETAILSTYLE
350
825
  3
CVIEWSECTIONSTYLE
350
826
  3
DIMASSOC
350
82F
  3
HIDETEXT
350
82E
  3
INDEXCTL
350
82D
  3
LAYEREVAL
350
82A
  3
LAYERNOTIFY
350
82B
  3
LIGHTINGUNITS
350
829
  3
MSLTSCALE
350
827
  3
SORTENTS
350
82C
  3
XCLIPFRAME
350
830
  0
XRECORD
  5
8E1
102
{ACAD_REACTORS
330
C
102
}
330
C
100
AcDbXrecord
280
     1
  1
DWGPROPS COOKIE
  2

  3

  4
haertel
  6

  7

  8

  9
1
300
Manager=
301
Firma=
302
Kategorie=
303
Bauteilnummer=2503398
304
Bezeichnung=
305
Projekt=
306
Konstrukteur=haertel
307
Ingenieur=
308
Bevollmächtigter=
309
Kostenstelle=
 40
0.0000179513888889
 41
2456163.47755625
 42
2456163.47755625
  1

 90
       43
300
Zulieferer=
300
Benutzerstatus=
300
Konstruktionsstatus=InBearbeitung
300
Kontrolliert von=
300
Konstruktion genehmigt von=
300
Fertigung genehmigt von=
300
01-Material=
300
02-Maßstab=1:1
300
03-Zchn.Nr.=3K 5390.064.01
300
04-Zchn-Nr.(2.Zeile)=
300
05-Zus. Zchn=
300
06-Zus. Zchn (2.Zeile)=
300
10-Ä-Nr. -1-=
300
11-Ä-Nr. -2-=
300
30-Entwicklungsstand=07/13/2012
300
12-Ä-Nr. -3-=
300
13-Ä-Nr. -4-=
300
14-Ä-Nr. -5-=
300
15-Ä-Nr. -6-=
300
16-Ä-Nr. -7-=
300
17-Ä-Nr. -8-=
300
18-Ä-Nr. -9-=
300
19-Ä-Nr. -10-=
300
20-Ä-Nr. -11-=
300
21-Ä-Nr. -12-=
300
25-ges. Blattanzahl=1
300
40-Artikel-Nr.=
300
50-Namenskürzel=KH
300
01-Material (2.Zeile)=
300
07-Artikel-Modell=BOCUBE
300
08-Artikel-Benennung=B M 1413
300
09-Artikel-Benennung (2.Zeile)=Katalogzg./Catalogue draw.
300
055-Bem. erstellt n. Kd-Zchng.=
  0
XRECORD
  5
835
102
{ACAD_REACTORS
330
833
102
}
330
833
100
AcDbXrecord
280
     1
 70
     4
 70
     0
 70
     0
 40
1.0
  2
30-Entwicklungsstand
  1
Embedded Object
 10
-34.00000000000006
 20
10.49999994039535
 30
0.0
 40
3.499999940395355
 41
0.0
 46
0.0
 71
     1
 72
     5
  1
\W1.2500;13.07.2012
  7
Textstil159
 73
     1
 44
1.0
  0
XRECORD
  5
834
102
{ACAD_REACTORS
330
833
102
}
330
833
100
AcDbXrecord
280
     1
102
ACAD_MATT_HEIGHT
140
3.499999940395355
  0
XRECORD
  5
83A
102
{ACAD_REACTORS
330
838
102
}
330
838
100
AcDbXrecord
280
     1
 70
     4
 70
     0
 70
     0
 40
1.0
  2
14-Datum_-5-
  1
Embedded Object
 10
324.4841608643612
 20
41.05672887518403
 30
0.0
 40
2.000000029802322
 41
0.0
 46
0.0
 71
     1
 72
     5
  1
\W1.4000;
  7
Textstil144
 73
     1
 44
1.0
  0
XRECORD
  5
839
102
{ACAD_REACTORS
330
838
102
}
330
838
100
AcDbXrecord
280
     1
102
ACAD_MATT_HEIGHT
140
2.000000029802322
  0
XRECORD
  5
83D
102
{ACAD_REACTORS
330
83B
102
}
330
83B
100
AcDbXrecord
280
     1
 70
     4
 70
     0
 70
     0
 40
1.0
  2
11-Datum_-2-
  1
Embedded Object
 10
324.4841608643612
 20
33.55672887518404
 30
0.0
 40
2.000000029802322
 41
0.0
 46
0.0
 71
     1
 72
     5
  1
\W1.4000;
  7
Textstil144
 73
     1
 44
1.0
  0
XRECORD
  5
83C
102
{ACAD_REACTORS
330
83B
102
}
330
83B
100
AcDbXrecord
280
     1
102
ACAD_MATT_HEIGHT
140
2.000000029802322
  0
XRECORD
  5
840
102
{ACAD_REACTORS
330
83E
102
}
330
83E
100
AcDbXrecord
280
     1
 70
     4
 70
     0
 70
     0
 40
1.0
  2
12-Datum_-3-
  1
Embedded Object
 10
324.4841608643612
 20
36.05672887518404
 30
0.0
 40
2.000000029802322
 41
0.0
 46
0.0
 71
     1
 72
     5
  1
\W1.4000;
  7
Textstil144
 73
     1
 44
1.0
  0
XRECORD
  5
83F
102
{ACAD_REACTORS
330
83E
102
}
330
83E
100
AcDbXrecord
280
     1
102
ACAD_MATT_HEIGHT
140
2.000000029802322
  0
XRECORD
  5
843
102
{ACAD_REACTORS
330
841
102
}
330
841
100
AcDbXrecord
280
     1
 70
     4
 70
     0
 70
     0
 40
1.0
  2
13-Datum_-4-
  1
Embedded Object
 10
324.4841608643612
 20
38.55672887518404
 30
0.0
 40
2.000000029802322
 41
0.0
 46
0.0
 71
     1
 72
     5
  1
\W1.4000;
  7
Textstil144
 73
     1
 44
1.0
  0
XRECORD
  5
842
102
{ACAD_REACTORS
330
841
102
}
330
841
100
AcDbXrecord
280
     1
102
ACAD_MATT_HEIGHT
140
2.000000029802322
  0
XRECORD
  5
846
102
{ACAD_REACTORS
330
844
102
}
330
844
100
AcDbXrecord
280
     1
 70
     4
 70
     0
 70
     0
 40
1.0
  2
10-Datum_-1-
  1
Embedded Object
 10
324.4841608643612
 20
31.05672887518404
 30
0.0
 40
2.000000029802322
 41
0.0
 46
0.0
 71
     1
 72
     5
  1
\W1.4000;
  7
Textstil144
 73
     1
 44
1.0
  0
XRECORD
  5
845
102
{ACAD_REACTORS
330
844
102
}
330
844
100
AcDbXrecord
280
     1
102
ACAD_MATT_HEIGHT
140
2.000000029802322
  0
XRECORD
  5
849
102
{ACAD_REACTORS
330
847
102
}
330
847
100
AcDbXrecord
280
     1
 70
     4
 70
     0
 70
     0
 40
1.0
  2
16-Datum_-7-
  1
Embedded Object
 10
324.4841608643612
 20
46.05672887518403
 30
0.0
 40
2.000000029802322
 41
0.0
 46
0.0
 71
     1
 72
     5
  1
\W1.4000;
  7
Textstil144
 73
     1
 44
1.0
  0
XRECORD
  5
848
102
{ACAD_REACTORS
330
847
102
}
330
847
100
AcDbXrecord
280
     1
102
ACAD_MATT_HEIGHT
140
2.000000029802322
  0
XRECORD
  5
84C
102
{ACAD_REACTORS
330
84A
102
}
330
84A
100
AcDbXrecord
280
     1
 70
     4
 70
     0
 70
     0
 40
1.0
  2
17-Datum_-8-
  1
Embedded Object
 10
324.4841608643612
 20
48.55672887518403
 30
0.0
 40
2.000000029802322
 41
0.0
 46
0.0
 71
     1
 72
     5
  1
\W1.4000;
  7
Textstil144
 73
     1
 44
1.0
  0
XRECORD
  5
84B
102
{ACAD_REACTORS
330
84A
102
}
330
84A
100
AcDbXrecord
280
     1
102
ACAD_MATT_HEIGHT
140
2.000000029802322
  0
XRECORD
  5
84F
102
{ACAD_REACTORS
330
84D
102
}
330
84D
100
AcDbXrecord
280
     1
 70
     4
 70
     0
 70
     0
 40
1.0
  2
15-Datum_-6-
  1
Embedded Object
 10
324.4841608643612
 20
43.55672887518403
 30
0.0
 40
2.000000029802322
 41
0.0
 46
0.0
 71
     1
 72
     5
  1
\W1.4000;
  7
Textstil144
 73
     1
 44
1.0
  0
XRECORD
  5
84E
102
{ACAD_REACTORS
330
84D
102
}
330
84D
100
AcDbXrecord
280
     1
102
ACAD_MATT_HEIGHT
140
2.000000029802322
  0
XRECORD
  5
852
102
{ACAD_REACTORS
330
850
102
}
330
850
100
AcDbXrecord
280
     1
 70
     4
 70
     0
 70
     0
 40
1.0
  2
14-Ä-Nr._-5-
  1
Embedded Object
 10
309.4841608643612
 20
41.05672887518403
 30
0.0
 40
2.000000029802322
 41
0.0
 46
0.0
 71
     1
 72
     5
  1
\W1.4000;
  7
Textstil144
 73
     1
 44
1.0
  0
XRECORD
  5
851
102
{ACAD_REACTORS
330
850
102
}
330
850
100
AcDbXrecord
280
     1
102
ACAD_MATT_HEIGHT
140
2.000000029802322
  0
XRECORD
  5
855
102
{ACAD_REACTORS
330
853
102
}
330
853
100
AcDbXrecord
280
     1
 70
     4
 70
     0
 70
     0
 40
1.0
  2
11-Ä-Nr._-2-
  1
Embedded Object
 10
309.4841608643612
 20
33.55672887518404
 30
0.0
 40
2.000000029802322
 41
0.0
 46
0.0
 71
     1
 72
     5
  1
\W1.4000;
  7
Textstil144
 73
     1
 44
1.0
  0
XRECORD
  5
854
102
{ACAD_REACTORS
330
853
102
}
330
853
100
AcDbXrecord
280
     1
102
ACAD_MATT_HEIGHT
140
2.000000029802322
  0
XRECORD
  5
858
102
{ACAD_REACTORS
330
856
102
}
330
856
100
AcDbXrecord
280
     1
 70
     4
 70
     0
 70
     0
 40
1.0
  2
12-Ä-Nr._-3-
  1
Embedded Object
 10
309.4841608643611
 20
36.05672887518404
 30
0.0
 40
2.000000029802322
 41
0.0
 46
0.0
 71
     1
 72
     5
  1
\W1.4000;
  7
Textstil144
 73
     1
 44
1.0
  0
XRECORD
  5
857
102
{ACAD_REACTORS
330
856
102
}
330
856
100
AcDbXrecord
280
     1
102
ACAD_MATT_HEIGHT
140
2.000000029802322
  0
XRECORD
  5
85B
102
{ACAD_REACTORS
330
859
102
}
330
859
100
AcDbXrecord
280
     1
 70
     4
 70
     0
 70
     0
 40
1.0
  2
13-Ä-Nr._-4-
  1
Embedded Object
 10
309.4841608643612
 20
38.55672887518404
 30
0.0
 40
2.000000029802322
 41
0.0
 46
0.0
 71
     1
 72
     5
  1
\W1.4000;
  7
Textstil144
 73
     1
 44
1.0
  0
XRECORD
  5
85A
102
{ACAD_REACTORS
330
859
102
}
330
859
100
AcDbXrecord
280
     1
102
ACAD_MATT_HEIGHT
140
2.000000029802322
  0
XRECORD
  5
85E
102
{ACAD_REACTORS
330
85C
102
}
330
85C
100
AcDbXrecord
280
     1
 70
     4
 70
     0
 70
     0
 40
1.0
  2
10-Ä-Nr._-1-
  1
Embedded Object
 10
309.4841608643612
 20
31.05672887518404
 30
0.0
 40
2.000000029802322
 41
0.0
 46
0.0
 71
     1
 72
     5
  1
\W1.4000;
  7
Textstil144
 73
     1
 44
1.0
  0
XRECORD
  5
85D
102
{ACAD_REACTORS
330
85C
102
}
330
85C
100
AcDbXrecord
280
     1
102
ACAD_MATT_HEIGHT
140
2.000000029802322
  0
XRECORD
  5
861
102
{ACAD_REACTORS
330
85F
102
}
330
85F
100
AcDbXrecord
280
     1
 70
     4
 70
     0
 70
     0
 40
1.0
  2
16-Ä-Nr._-7-
  1
Embedded Object
 10
309.4841608643612
 20
46.05672887518403
 30
0.0
 40
2.000000029802322
 41
0.0
 46
0.0
 71
     1
 72
     5
  1
\W1.4000;
  7
Textstil144
 73
     1
 44
1.0
  0
XRECORD
  5
860
102
{ACAD_REACTORS
330
85F
102
}
330
85F
100
AcDbXrecord
280
     1
102
ACAD_MATT_HEIGHT
140
2.000000029802322
  0
XRECORD
  5
864
102
{ACAD_REACTORS
330
862
102
}
330
862
100
AcDbXrecord
280
     1
 70
     4
 70
     0
 70
     0
 40
1.0
  2
17-Ä-Nr._-8-
  1
Embedded Object
 10
309.4841608643612
 20
48.55672887518403
 30
0.0
 40
2.000000029802322
 41
0.0
 46
0.0
 71
     1
 72
     5
  1
\W1.4000;
  7
Textstil144
 73
     1
 44
1.0
  0
XRECORD
  5
863
102
{ACAD_REACTORS
330
862
102
}
330
862
100
AcDbXrecord
280
     1
102
ACAD_MATT_HEIGHT
140
2.000000029802322
  0
XRECORD
  5
867
102
{ACAD_REACTORS
330
865
102
}
330
865
100
AcDbXrecord
280
     1
 70
     4
 70
     0
 70
     0
 40
1.0
  2
15-Ä-Nr._-6-
  1
Embedded Object
 10
309.4841608643612
 20
43.55672887518403
 30
0.0
 40
2.000000029802322
 41
0.0
 46
0.0
 71
     1
 72
     5
  1
\W1.4000;
  7
Textstil144
 73
     1
 44
1.0
  0
XRECORD
  5
866
102
{ACAD_REACTORS
330
865
102
}
330
865
100
AcDbXrecord
280
     1
102
ACAD_MATT_HEIGHT
140
2.000000029802322
  0
XRECORD
  5
86A
102
{ACAD_REACTORS
330
868
102
}
330
868
100
AcDbXrecord
280
     1
 70
     4
 70
     0
 70
     0
 40
1.0
  2
DATEINAME
  1
Embedded Object
 10
334.4841608643612
 20
19.30672884538171
 30
0.0
 40
2.5
 41
0.0
 46
0.0
 71
     1
 72
     5
  1
\W1.2000;2503397.idw
  7
Textstil68
 73
     1
 44
1.0
  0
XRECORD
  5
869
102
{ACAD_REACTORS
330
868
102
}
330
868
100
AcDbXrecord
280
     1
102
ACAD_MATT_HEIGHT
140
2.5
  0
XRECORD
  5
86D
102
{ACAD_REACTORS
330
86B
102
}
330
86B
100
AcDbXrecord
280
     1
 70
     4
 70
     0
 70
     0
 40
1.0
  2
ERSTELLUNGSDATUM
  1
Embedded Object
 10
334.4841608643612
 20
15.05672884538171
 30
0.0
 40
2.5
 41
0.0
 46
0.0
 71
     1
 72
     5
  1
\W1.2000;13.07.2012
  7
Textstil68
 73
     1
 44
1.0
  0
XRECORD
  5
86C
102
{ACAD_REACTORS
330
86B
102
}
330
86B
100
AcDbXrecord
280
     1
102
ACAD_MATT_HEIGHT
140
2.5
  0
XRECORD
  5
870
102
{ACAD_REACTORS
330
86E
102
}
330
86E
100
AcDbXrecord
280
     1
 70
     4
 70
     0
 70
     0
 40
1.0
  2
19-Datum_-10-
  1
Embedded Object
 10
324.4841608643612
 20
53.55672887518403
 30
0.0
 40
2.000000029802322
 41
0.0
 46
0.0
 71
     1
 72
     5
  1
\W1.4000;
  7
Textstil144
 73
     1
 44
1.0
  0
XRECORD
  5
86F
102
{ACAD_REACTORS
330
86E
102
}
330
86E
100
AcDbXrecord
280
     1
102
ACAD_MATT_HEIGHT
140
2.000000029802322
  0
XRECORD
  5
873
102
{ACAD_REACTORS
330
871
102
}
330
871
100
AcDbXrecord
280
     1
 70
     4
 70
     0
 70
     0
 40
1.0
  2
18-Datum_-9-
  1
Embedded Object
 10
324.4841608643612
 20
51.05672887518403
 30
0.0
 40
2.000000029802322
 41
0.0
 46
0.0
 71
     1
 72
     5
  1
\W1.4000;
  7
Textstil144
 73
     1
 44
1.0
  0
XRECORD
  5
872
102
{ACAD_REACTORS
330
871
102
}
330
871
100
AcDbXrecord
280
     1
102
ACAD_MATT_HEIGHT
140
2.000000029802322
  0
XRECORD
  5
876
102
{ACAD_REACTORS
330
874
102
}
330
874
100
AcDbXrecord
280
     1
 70
     4
 70
     0
 70
     0
 40
1.0
  2
19-Ä-Nr._-10-
  1
Embedded Object
 10
309.4841608643612
 20
53.55672887518403
 30
0.0
 40
2.000000029802322
 41
0.0
 46
0.0
 71
     1
 72
     5
  1
\W1.4000;
  7
Textstil144
 73
     1
 44
1.0
  0
XRECORD
  5
875
102
{ACAD_REACTORS
330
874
102
}
330
874
100
AcDbXrecord
280
     1
102
ACAD_MATT_HEIGHT
140
2.000000029802322
  0
XRECORD
  5
879
102
{ACAD_REACTORS
330
877
102
}
330
877
100
AcDbXrecord
280
     1
 70
     4
 70
     0
 70
     0
 40
1.0
  2
18-Ä-Nr._-9-
  1
Embedded Object
 10
309.4841608643612
 20
51.05672887518403
 30
0.0
 40
2.000000029802322
 41
0.0
 46
0.0
 71
     1
 72
     5
  1
\W1.4000;
  7
Textstil144
 73
     1
 44
1.0
  0
XRECORD
  5
878
102
{ACAD_REACTORS
330
877
102
}
330
877
100
AcDbXrecord
280
     1
102
ACAD_MATT_HEIGHT
140
2.000000029802322
  0
XRECORD
  5
87C
102
{ACAD_REACTORS
330
87A
102
}
330
87A
100
AcDbXrecord
280
     1
 70
     4
 70
     0
 70
     0
 40
1.0
  2
07-Artikel-Modell
  1
Embedded Object
 10
309.9841608643611
 20
75.79150051429772
 30
0.0
 40
3.98477166891098
 41
0.0
 46
0.0
 71
     1
 72
     5
  1
\W1.4000;BOCUBE
  7
Textstil243
 73
     1
 44
1.0
  0
XRECORD
  5
87B
102
{ACAD_REACTORS
330
87A
102
}
330
87A
100
AcDbXrecord
280
     1
102
ACAD_MATT_HEIGHT
140
3.98477166891098
  0
XRECORD
  5
87F
102
{ACAD_REACTORS
330
87D
102
}
330
87D
100
AcDbXrecord
280
     1
 70
     4
 70
     0
 70
     0
 40
1.0
  2
03-Zchn.Nr.
  1
Embedded Object
 10
332.4841608643612
 20
92.3067289049864
 30
0.0
 40
4.000000059604644
 41
0.0
 46
0.0
 71
     1
 72
     5
  1
\W1.4000;3K 5390.064.01
  7
Textstil143
 73
     1
 44
1.0
  0
XRECORD
  5
87E
102
{ACAD_REACTORS
330
87D
102
}
330
87D
100
AcDbXrecord
280
     1
102
ACAD_MATT_HEIGHT
140
4.000000059604644
  0
XRECORD
  5
882
102
{ACAD_REACTORS
330
880
102
}
330
880
100
AcDbXrecord
280
     1
 70
     4
 70
     0
 70
     0
 40
1.0
  2
50-Namenskürzel
  1
Embedded Object
 10
354.4841608643611
 20
15.05672884538171
 30
0.0
 40
2.5
 41
0.0
 46
0.0
 71
     1
 72
     5
  1
\W1.2000;KH
  7
Textstil68
 73
     1
 44
1.0
  0
XRECORD
  5
881
102
{ACAD_REACTORS
330
880
102
}
330
880
100
AcDbXrecord
280
     1
102
ACAD_MATT_HEIGHT
140
2.5
  0
XRECORD
  5
885
102
{ACAD_REACTORS
330
883
102
}
330
883
100
AcDbXrecord
280
     1
 70
     4
 70
     0
 70
     0
 40
1.0
  2
02-Maßstab
  1
Embedded Object
 10
332.4841608643611
 20
107.8067289049863
 30
0.0
 40
4.000000059604644
 41
41.21706962585449
 46
0.0
 71
     1
 72
     5
  1
\W1.2000;1:1
  7
Textstil242
 73
     1
 44
1.0
  0
XRECORD
  5
884
102
{ACAD_REACTORS
330
883
102
}
330
883
100
AcDbXrecord
280
     1
102
ACAD_MATT_HEIGHT
140
4.000000059604644
  0
XRECORD
  5
888
102
{ACAD_REACTORS
330
886
102
}
330
886
100
AcDbXrecord
280
     1
 70
     4
 70
     0
 70
     0
 40
1.0
  2
08-Artikel-Benennung
  1
Embedded Object
 10
309.9841608643611
 20
68.80672890499138
 30
0.0
 40
4.000000059604644
 41
0.0
 46
0.0
 71
     1
 72
     5
  1
\W1.4000;B M 1413
  7
Textstil143
 73
     1
 44
1.0
  0
XRECORD
  5
887
102
{ACAD_REACTORS
330
886
102
}
330
886
100
AcDbXrecord
280
     1
102
ACAD_MATT_HEIGHT
140
4.000000059604644
  0
XRECORD
  5
88B
102
{ACAD_REACTORS
330
889
102
}
330
889
100
AcDbXrecord
280
     1
 70
     4
 70
     0
 70
     0
 40
1.0
  2
09-Artikel-Benennung_(2.Zeile)
  1
Embedded Object
 10
309.9841608643611
 20
61.79150051429772
 30
0.0
 40
3.98477166891098
 41
0.0
 46
0.0
 71
     1
 72
     5
  1
\W1.4000;Katalogzg./Catalogue draw.
  7
Textstil243
 73
     1
 44
1.0
  0
XRECORD
  5
88A
102
{ACAD_REACTORS
330
889
102
}
330
889
100
AcDbXrecord
280
     1
102
ACAD_MATT_HEIGHT
140
3.98477166891098
  0
XRECORD
  5
88E
102
{ACAD_REACTORS
330
88C
102
}
330
88C
100
AcDbXrecord
280
     1
 70
     2
 70
     0
 70
     0
 40
1.0
  2
14-Datum_-5-
  1
Embedded Object
 10
332.000000394102
 20
34.75000002980233
 30
0.0
 40
2.000000029802322
 41
0.0
 46
0.0
 71
     1
 72
     5
  1
\W1.4000;
  7
Textstil144
 73
     1
 44
1.0
  0
XRECORD
  5
88D
102
{ACAD_REACTORS
330
88C
102
}
330
88C
100
AcDbXrecord
280
     1
102
ACAD_MATT_HEIGHT
140
2.000000029802322
  0
XRECORD
  5
891
102
{ACAD_REACTORS
330
88F
102
}
330
88F
100
AcDbXrecord
280
     1
 70
     2
 70
     0
 70
     0
 40
1.0
  2
11-Datum_-2-
  1
Embedded Object
 10
332.000000394102
 20
27.25000002980233
 30
0.0
 40
2.000000029802322
 41
0.0
 46
0.0
 71
     1
 72
     5
  1
\W1.4000;
  7
Textstil144
 73
     1
 44
1.0
  0
XRECORD
  5
890
102
{ACAD_REACTORS
330
88F
102
}
330
88F
100
AcDbXrecord
280
     1
102
ACAD_MATT_HEIGHT
140
2.000000029802322
  0
XRECORD
  5
894
102
{ACAD_REACTORS
330
892
102
}
330
892
100
AcDbXrecord
280
     1
 70
     2
 70
     0
 70
     0
 40
1.0
  2
12-Datum_-3-
  1
Embedded Object
 10
332.000000394102
 20
29.75000002980232
 30
0.0
 40
2.000000029802322
 41
0.0
 46
0.0
 71
     1
 72
     5
  1
\W1.4000;
  7
Textstil144
 73
     1
 44
1.0
  0
XRECORD
  5
893
102
{ACAD_REACTORS
330
892
102
}
330
892
100
AcDbXrecord
280
     1
102
ACAD_MATT_HEIGHT
140
2.000000029802322
  0
XRECORD
  5
897
102
{ACAD_REACTORS
330
895
102
}
330
895
100
AcDbXrecord
280
     1
 70
     2
 70
     0
 70
     0
 40
1.0
  2
13-Datum_-4-
  1
Embedded Object
 10
332.000000394102
 20
32.25000002980233
 30
0.0
 40
2.000000029802322
 41
0.0
 46
0.0
 71
     1
 72
     5
  1
\W1.4000;
  7
Textstil144
 73
     1
 44
1.0
  0
XRECORD
  5
896
102
{ACAD_REACTORS
330
895
102
}
330
895
100
AcDbXrecord
280
     1
102
ACAD_MATT_HEIGHT
140
2.000000029802322
  0
XRECORD
  5
89A
102
{ACAD_REACTORS
330
898
102
}
330
898
100
AcDbXrecord
280
     1
 70
     2
 70
     0
 70
     0
 40
1.0
  2
10-Datum_-1-
  1
Embedded Object
 10
332.000000394102
 20
24.75000002980233
 30
0.0
 40
2.000000029802322
 41
0.0
 46
0.0
 71
     1
 72
     5
  1
\W1.4000;
  7
Textstil144
 73
     1
 44
1.0
  0
XRECORD
  5
899
102
{ACAD_REACTORS
330
898
102
}
330
898
100
AcDbXrecord
280
     1
102
ACAD_MATT_HEIGHT
140
2.000000029802322
  0
XRECORD
  5
89D
102
{ACAD_REACTORS
330
89B
102
}
330
89B
100
AcDbXrecord
280
     1
 70
     2
 70
     0
 70
     0
 40
1.0
  2
16-Datum_-7-
  1
Embedded Object
 10
332.000000394102
 20
39.75000002980232
 30
0.0
 40
2.000000029802322
 41
0.0
 46
0.0
 71
     1
 72
     5
  1
\W1.4000;
  7
Textstil144
 73
     1
 44
1.0
  0
XRECORD
  5
89C
102
{ACAD_REACTORS
330
89B
102
}
330
89B
100
AcDbXrecord
280
     1
102
ACAD_MATT_HEIGHT
140
2.000000029802322
  0
XRECORD
  5
8A0
102
{ACAD_REACTORS
330
89E
102
}
330
89E
100
AcDbXrecord
280
     1
 70
     2
 70
     0
 70
     0
 40
1.0
  2
17-Datum_-8-
  1
Embedded Object
 10
332.000000394102
 20
42.25000002980232
 30
0.0
 40
2.000000029802322
 41
0.0
 46
0.0
 71
     1
 72
     5
  1
\W1.4000;
  7
Textstil144
 73
     1
 44
1.0
  0
XRECORD
  5
89F
102
{ACAD_REACTORS
330
89E
102
}
330
89E
100
AcDbXrecord
280
     1
102
ACAD_MATT_HEIGHT
140
2.000000029802322
  0
XRECORD
  5
8A3
102
{ACAD_REACTORS
330
8A1
102
}
330
8A1
100
AcDbXrecord
280
     1
 70
     2
 70
     0
 70
     0
 40
1.0
  2
15-Datum_-6-
  1
Embedded Object
 10
332.000000394102
 20
37.25000002980233
 30
0.0
 40
2.000000029802322
 41
0.0
 46
0.0
 71
     1
 72
     5
  1
\W1.4000;
  7
Textstil144
 73
     1
 44
1.0
  0
XRECORD
  5
8A2
102
{ACAD_REACTORS
330
8A1
102
}
330
8A1
100
AcDbXrecord
280
     1
102
ACAD_MATT_HEIGHT
140
2.000000029802322
  0
XRECORD
  5
8A6
102
{ACAD_REACTORS
330
8A4
102
}
330
8A4
100
AcDbXrecord
280
     1
 70
     2
 70
     0
 70
     0
 40
1.0
  2
14-Ä-Nr._-5-
  1
Embedded Object
 10
317.000000394102
 20
34.75000002980233
 30
0.0
 40
2.000000029802322
 41
0.0
 46
0.0
 71
     1
 72
     5
  1
\W1.4000;
  7
Textstil144
 73
     1
 44
1.0
  0
XRECORD
  5
8A5
102
{ACAD_REACTORS
330
8A4
102
}
330
8A4
100
AcDbXrecord
280
     1
102
ACAD_MATT_HEIGHT
140
2.000000029802322
  0
XRECORD
  5
8A9
102
{ACAD_REACTORS
330
8A7
102
}
330
8A7
100
AcDbXrecord
280
     1
 70
     2
 70
     0
 70
     0
 40
1.0
  2
11-Ä-Nr._-2-
  1
Embedded Object
 10
317.000000394102
 20
27.25000002980233
 30
0.0
 40
2.000000029802322
 41
0.0
 46
0.0
 71
     1
 72
     5
  1
\W1.4000;
  7
Textstil144
 73
     1
 44
1.0
  0
XRECORD
  5
8A8
102
{ACAD_REACTORS
330
8A7
102
}
330
8A7
100
AcDbXrecord
280
     1
102
ACAD_MATT_HEIGHT
140
2.000000029802322
  0
XRECORD
  5
8AC
102
{ACAD_REACTORS
330
8AA
102
}
330
8AA
100
AcDbXrecord
280
     1
 70
     2
 70
     0
 70
     0
 40
1.0
  2
12-Ä-Nr._-3-
  1
Embedded Object
 10
317.0000003941019
 20
29.75000002980232
 30
0.0
 40
2.000000029802322
 41
0.0
 46
0.0
 71
     1
 72
     5
  1
\W1.4000;
  7
Textstil144
 73
     1
 44
1.0
  0
XRECORD
  5
8AB
102
{ACAD_REACTORS
330
8AA
102
}
330
8AA
100
AcDbXrecord
280
     1
102
ACAD_MATT_HEIGHT
140
2.000000029802322
  0
XRECORD
  5
8AF
102
{ACAD_REACTORS
330
8AD
102
}
330
8AD
100
AcDbXrecord
280
     1
 70
     2
 70
     0
 70
     0
 40
1.0
  2
13-Ä-Nr._-4-
  1
Embedded Object
 10
317.000000394102
 20
32.25000002980233
 30
0.0
 40
2.000000029802322
 41
0.0
 46
0.0
 71
     1
 72
     5
  1
\W1.4000;
  7
Textstil144
 73
     1
 44
1.0
  0
XRECORD
  5
8AE
102
{ACAD_REACTORS
330
8AD
102
}
330
8AD
100
AcDbXrecord
280
     1
102
ACAD_MATT_HEIGHT
140
2.000000029802322
  0
XRECORD
  5
8B2
102
{ACAD_REACTORS
330
8B0
102
}
330
8B0
100
AcDbXrecord
280
     1
 70
     2
 70
     0
 70
     0
 40
1.0
  2
10-Ä-Nr._-1-
  1
Embedded Object
 10
317.000000394102
 20
24.75000002980233
 30
0.0
 40
2.000000029802322
 41
0.0
 46
0.0
 71
     1
 72
     5
  1
\W1.4000;
  7
Textstil144
 73
     1
 44
1.0
  0
XRECORD
  5
8B1
102
{ACAD_REACTORS
330
8B0
102
}
330
8B0
100
AcDbXrecord
280
     1
102
ACAD_MATT_HEIGHT
140
2.000000029802322
  0
XRECORD
  5
8B5
102
{ACAD_REACTORS
330
8B3
102
}
330
8B3
100
AcDbXrecord
280
     1
 70
     2
 70
     0
 70
     0
 40
1.0
  2
16-Ä-Nr._-7-
  1
Embedded Object
 10
317.000000394102
 20
39.75000002980232
 30
0.0
 40
2.000000029802322
 41
0.0
 46
0.0
 71
     1
 72
     5
  1
\W1.4000;
  7
Textstil144
 73
     1
 44
1.0
  0
XRECORD
  5
8B4
102
{ACAD_REACTORS
330
8B3
102
}
330
8B3
100
AcDbXrecord
280
     1
102
ACAD_MATT_HEIGHT
140
2.000000029802322
  0
XRECORD
  5
8B8
102
{ACAD_REACTORS
330
8B6
102
}
330
8B6
100
AcDbXrecord
280
     1
 70
     2
 70
     0
 70
     0
 40
1.0
  2
17-Ä-Nr._-8-
  1
Embedded Object
 10
317.000000394102
 20
42.25000002980232
 30
0.0
 40
2.000000029802322
 41
0.0
 46
0.0
 71
     1
 72
     5
  1
\W1.4000;
  7
Textstil144
 73
     1
 44
1.0
  0
XRECORD
  5
8B7
102
{ACAD_REACTORS
330
8B6
102
}
330
8B6
100
AcDbXrecord
280
     1
102
ACAD_MATT_HEIGHT
140
2.000000029802322
  0
XRECORD
  5
8BB
102
{ACAD_REACTORS
330
8B9
102
}
330
8B9
100
AcDbXrecord
280
     1
 70
     2
 70
     0
 70
     0
 40
1.0
  2
15-Ä-Nr._-6-
  1
Embedded Object
 10
317.000000394102
 20
37.25000002980233
 30
0.0
 40
2.000000029802322
 41
0.0
 46
0.0
 71
     1
 72
     5
  1
\W1.4000;
  7
Textstil144
 73
     1
 44
1.0
  0
XRECORD
  5
8BA
102
{ACAD_REACTORS
330
8B9
102
}
330
8B9
100
AcDbXrecord
280
     1
102
ACAD_MATT_HEIGHT
140
2.000000029802322
  0
XRECORD
  5
8BE
102
{ACAD_REACTORS
330
8BC
102
}
330
8BC
100
AcDbXrecord
280
     1
 70
     2
 70
     0
 70
     0
 40
1.0
  2
DATEINAME
  1
Embedded Object
 10
342.000000394102
 20
12.99999999999999
 30
0.0
 40
2.5
 41
0.0
 46
0.0
 71
     1
 72
     5
  1
\W1.2000;2503397.idw
  7
Textstil68
 73
     1
 44
1.0
  0
XRECORD
  5
8BD
102
{ACAD_REACTORS
330
8BC
102
}
330
8BC
100
AcDbXrecord
280
     1
102
ACAD_MATT_HEIGHT
140
2.5
  0
XRECORD
  5
8C1
102
{ACAD_REACTORS
330
8BF
102
}
330
8BF
100
AcDbXrecord
280
     1
 70
     2
 70
     0
 70
     0
 40
1.0
  2
ERSTELLUNGSDATUM
  1
Embedded Object
 10
342.000000394102
 20
8.749999999999996
 30
0.0
 40
2.5
 41
0.0
 46
0.0
 71
     1
 72
     5
  1
\W1.2000;13.07.2012
  7
Textstil68
 73
     1
 44
1.0
  0
XRECORD
  5
8C0
102
{ACAD_REACTORS
330
8BF
102
}
330
8BF
100
AcDbXrecord
280
     1
102
ACAD_MATT_HEIGHT
140
2.5
  0
XRECORD
  5
8C4
102
{ACAD_REACTORS
330
8C2
102
}
330
8C2
100
AcDbXrecord
280
     1
 70
     2
 70
     0
 70
     0
 40
1.0
  2
19-Datum_-10-
  1
Embedded Object
 10
332.000000394102
 20
47.25000002980232
 30
0.0
 40
2.000000029802322
 41
0.0
 46
0.0
 71
     1
 72
     5
  1
\W1.4000;
  7
Textstil144
 73
     1
 44
1.0
  0
XRECORD
  5
8C3
102
{ACAD_REACTORS
330
8C2
102
}
330
8C2
100
AcDbXrecord
280
     1
102
ACAD_MATT_HEIGHT
140
2.000000029802322
  0
XRECORD
  5
8C7
102
{ACAD_REACTORS
330
8C5
102
}
330
8C5
100
AcDbXrecord
280
     1
 70
     2
 70
     0
 70
     0
 40
1.0
  2
18-Datum_-9-
  1
Embedded Object
 10
332.000000394102
 20
44.75000002980232
 30
0.0
 40
2.000000029802322
 41
0.0
 46
0.0
 71
     1
 72
     5
  1
\W1.4000;
  7
Textstil144
 73
     1
 44
1.0
  0
XRECORD
  5
8C6
102
{ACAD_REACTORS
330
8C5
102
}
330
8C5
100
AcDbXrecord
280
     1
102
ACAD_MATT_HEIGHT
140
2.000000029802322
  0
XRECORD
  5
8CA
102
{ACAD_REACTORS
330
8C8
102
}
330
8C8
100
AcDbXrecord
280
     1
 70
     2
 70
     0
 70
     0
 40
1.0
  2
19-Ä-Nr._-10-
  1
Embedded Object
 10
317.000000394102
 20
47.25000002980232
 30
0.0
 40
2.000000029802322
 41
0.0
 46
0.0
 71
     1
 72
     5
  1
\W1.4000;
  7
Textstil144
 73
     1
 44
1.0
  0
XRECORD
  5
8C9
102
{ACAD_REACTORS
330
8C8
102
}
330
8C8
100
AcDbXrecord
280
     1
102
ACAD_MATT_HEIGHT
140
2.000000029802322
  0
XRECORD
  5
8CD
102
{ACAD_REACTORS
330
8CB
102
}
330
8CB
100
AcDbXrecord
280
     1
 70
     2
 70
     0
 70
     0
 40
1.0
  2
18-Ä-Nr._-9-
  1
Embedded Object
 10
317.000000394102
 20
44.75000002980232
 30
0.0
 40
2.000000029802322
 41
0.0
 46
0.0
 71
     1
 72
     5
  1
\W1.4000;
  7
Textstil144
 73
     1
 44
1.0
  0
XRECORD
  5
8CC
102
{ACAD_REACTORS
330
8CB
102
}
330
8CB
100
AcDbXrecord
280
     1
102
ACAD_MATT_HEIGHT
140
2.000000029802322
  0
XRECORD
  5
8D0
102
{ACAD_REACTORS
330
8CE
102
}
330
8CE
100
AcDbXrecord
280
     1
 70
     2
 70
     0
 70
     0
 40
1.0
  2
07-Artikel-Modell
  1
Embedded Object
 10
317.5000003941019
 20
69.48477166891601
 30
0.0
 40
3.98477166891098
 41
0.0
 46
0.0
 71
     1
 72
     5
  1
\W1.4000;BOCUBE
  7
Textstil243
 73
     1
 44
1.0
  0
XRECORD
  5
8CF
102
{ACAD_REACTORS
330
8CE
102
}
330
8CE
100
AcDbXrecord
280
     1
102
ACAD_MATT_HEIGHT
140
3.98477166891098
  0
XRECORD
  5
8D3
102
{ACAD_REACTORS
330
8D1
102
}
330
8D1
100
AcDbXrecord
280
     1
 70
     2
 70
     0
 70
     0
 40
1.0
  2
03-Zchn.Nr.
  1
Embedded Object
 10
340.000000394102
 20
86.00000005960469
 30
0.0
 40
4.000000059604644
 41
0.0
 46
0.0
 71
     1
 72
     5
  1
\W1.4000;3K 5390.064.01
  7
Textstil143
 73
     1
 44
1.0
  0
XRECORD
  5
8D2
102
{ACAD_REACTORS
330
8D1
102
}
330
8D1
100
AcDbXrecord
280
     1
102
ACAD_MATT_HEIGHT
140
4.000000059604644
  0
XRECORD
  5
8D6
102
{ACAD_REACTORS
330
8D4
102
}
330
8D4
100
AcDbXrecord
280
     1
 70
     2
 70
     0
 70
     0
 40
1.0
  2
50-Namenskürzel
  1
Embedded Object
 10
362.0000003941019
 20
8.749999999999996
 30
0.0
 40
2.5
 41
0.0
 46
0.0
 71
     1
 72
     5
  1
\W1.2000;KH
  7
Textstil68
 73
     1
 44
1.0
  0
XRECORD
  5
8D5
102
{ACAD_REACTORS
330
8D4
102
}
330
8D4
100
AcDbXrecord
280
     1
102
ACAD_MATT_HEIGHT
140
2.5
  0
XRECORD
  5
8D9
102
{ACAD_REACTORS
330
8D7
102
}
330
8D7
100
AcDbXrecord
280
     1
 70
     2
 70
     0
 70
     0
 40
1.0
  2
02-Maßstab
  1
Embedded Object
 10
340.0000003941019
 20
101.5000000596046
 30
0.0
 40
4.000000059604644
 41
41.21706962585449
 46
0.0
 71
     1
 72
     5
  1
\W1.2000;1:1
  7
Textstil242
 73
     1
 44
1.0
  0
XRECORD
  5
8D8
102
{ACAD_REACTORS
330
8D7
102
}
330
8D7
100
AcDbXrecord
280
     1
102
ACAD_MATT_HEIGHT
140
4.000000059604644
  0
XRECORD
  5
8DC
102
{ACAD_REACTORS
330
8DA
102
}
330
8DA
100
AcDbXrecord
280
     1
 70
     2
 70
     0
 70
     0
 40
1.0
  2
08-Artikel-Benennung
  1
Embedded Object
 10
317.5000003941019
 20
62.50000005960966
 30
0.0
 40
4.000000059604644
 41
0.0
 46
0.0
 71
     1
 72
     5
  1
\W1.4000;B M 1413
  7
Textstil143
 73
     1
 44
1.0
  0
XRECORD
  5
8DB
102
{ACAD_REACTORS
330
8DA
102
}
330
8DA
100
AcDbXrecord
280
     1
102
ACAD_MATT_HEIGHT
140
4.000000059604644
  0
XRECORD
  5
8DF
102
{ACAD_REACTORS
330
8DD
102
}
330
8DD
100
AcDbXrecord
280
     1
 70
     2
 70
     0
 70
     0
 40
1.0
  2
09-Artikel-Benennung_(2.Zeile)
  1
Embedded Object
 10
317.5000003941019
 20
55.48477166891601
 30
0.0
 40
3.98477166891098
 41
0.0
 46
0.0
 71
     1
 72
     5
  1
\W1.4000;Katalogzg./Catalogue draw.
  7
Textstil243
 73
     1
 44
1.0
  0
XRECORD
  5
8DE
102
{ACAD_REACTORS
330
8DD
102
}
330
8DD
100
AcDbXrecord
280
     1
102
ACAD_MATT_HEIGHT
140
3.98477166891098
  0
ACDBDETAILVIEWSTYLE
  5
6C
102
{ACAD_REACTORS
330
6B
102
}
330
6B
100
AcDbModelDocViewStyle
 70
     0
  3
Imperial24
290
     0
100
AcDbDetailViewStyle
 70
     0
 71
     0
 90
        3
 71
     1
340
55
 40
0.24
340
0
 40
0.24
300

 40
0.36
280
     3
 71
     2
340
5D
 90
       25
 71
     3
340
55
 40
0.24
 90
        1
 40
0.75
 90
        1
300
%<\AcVar ViewType \f "%tc1">% %<\AcVar ViewDetailId>%\PVARIA %<\AcVar ViewScale \f "%sn">%
 71
     4
340
5D
 90
       25
340
5D
 90
       25
280
     0
  0
LAYOUT
  5
70
102
{ACAD_XDICTIONARY
360
919
102
}
102
{ACAD_REACTORS
330
62
102
}
330
62
100
AcDbPlotSettings
  1

  2

  4

  6

 40
0.0
 41
0.0
 42
0.0
 43
0.0
 44
0.0
 45
0.0
 46
0.0
 47
0.0
 48
0.0
 49
0.0
140
0.0
141
0.0
142
1.0
143
1.0
 70
   688
 72
     0
 73
     0
 74
     5
  7

 75
    16
147
1.0
148
0.0
149
0.0
100
AcDbLayout
  1
Layout1
 70
     1
 71
     1
 10
0.0
 20
0.0
 11
12.0
 21
9.0
 12
0.0
 22
0.0
 32
0.0
 14
0.0
 24
0.0
 34
0.0
 15
0.0
 25
0.0
 35
0.0
146
0.0
 13
0.0
 23
0.0
 33
0.0
 16
1.0
 26
0.0
 36
0.0
 17
0.0
 27
1.0
 37
0.0
 76
     0
330
6D
  0
LAYOUT
  5
78
102
{ACAD_XDICTIONARY
360
91D
102
}
102
{ACAD_REACTORS
330
62
102
}
330
62
100
AcDbPlotSettings
  1

  2

  4

  6

 40
0.0
 41
0.0
 42
0.0
 43
0.0
 44
0.0
 45
0.0
 46
0.0
 47
0.0
 48
0.0
 49
0.0
140
0.0
141
0.0
142
1.0
143
1.0
 70
   688
 72
     0
 73
     0
 74
     5
  7

 75
    16
147
1.0
148
0.0
149
0.0
100
AcDbLayout
  1
Layout2
 70
     1
 71
     2
 10
0.0
 20
0.0
 11
12.0
 21
9.0
 12
0.0
 22
0.0
 32
0.0
 14
0.0
 24
0.0
 34
0.0
 15
0.0
 25
0.0
 35
0.0
146
0.0
 13
0.0
 23
0.0
 33
0.0
 16
1.0
 26
0.0
 36
0.0
 17
0.0
 27
1.0
 37
0.0
 76
     0
330
75
  0
LAYOUT
  5
74
102
{ACAD_XDICTIONARY
360
91B
102
}
102
{ACAD_REACTORS
330
62
102
}
330
62
100
AcDbPlotSettings
  1

  2

  4

  6

 40
0.0
 41
0.0
 42
0.0
 43
0.0
 44
0.0
 45
0.0
 46
0.0
 47
0.0
 48
0.0
 49
0.0
140
0.0
141
0.0
142
1.0
143
1.0
 70
  1712
 72
     0
 73
     0
 74
     0
  7

 75
     0
147
1.0
148
0.0
149
0.0
100
AcDbLayout
  1
Model
 70
     1
 71
     0
 10
0.0
 20
0.0
 11
12.0
 21
9.0
 12
0.0
 22
0.0
 32
0.0
 14
0.0
 24
0.0
 34
0.0
 15
0.0
 25
0.0
 35
0.0
146
0.0
 13
0.0
 23
0.0
 33
0.0
 16
1.0
 26
0.0
 36
0.0
 17
0.0
 27
1.0
 37
0.0
 76
     0
330
71
  0
MATERIAL
  5
19
102
{ACAD_XDICTIONARY
360
1A
102
}
102
{ACAD_REACTORS
330
10
102
}
330
10
100
AcDbMaterial
  1
ByBlock
 72
     0
 43
0.0208333333333333
 43
0.0
 43
0.0
 43
0.0
 43
0.0
 43
0.0208333333333333
 43
0.0
 43
0.0
 43
0.0
 43
0.0
 43
1.0
 43
0.0
 43
0.0
 43
0.0
 43
0.0
 43
1.0
 77
     0
 47
0.0208333333333333
 47
0.0
 47
0.0
 47
0.0
 47
0.0
 47
0.0208333333333333
 47
0.0
 47
0.0
 47
0.0
 47
0.0
 47
1.0
 47
0.0
 47
0.0
 47
0.0
 47
0.0
 47
1.0
171
     0
 49
0.0208333333333333
 49
0.0
 49
0.0
 49
0.0
 49
0.0
 49
0.0208333333333333
 49
0.0
 49
0.0
 49
0.0
 49
0.0
 49
1.0
 49
0.0
 49
0.0
 49
0.0
 49
0.0
 49
1.0
175
     0
142
0.0208333333333333
142
0.0
142
0.0
142
0.0
142
0.0
142
0.0208333333333333
142
0.0
142
0.0
142
0.0
142
0.0
142
1.0
142
0.0
142
0.0
142
0.0
142
0.0
142
1.0
179
     0
144
0.0208333333333333
144
0.0
144
0.0
144
0.0
144
0.0
144
0.0208333333333333
144
0.0
144
0.0
144
0.0
144
0.0
144
1.0
144
0.0
144
0.0
144
0.0
144
0.0
144
1.0
147
0.0208333333333333
147
0.0
147
0.0
147
0.0
147
0.0
147
0.0208333333333333
147
0.0
147
0.0
147
0.0
147
0.0
147
1.0
147
0.0
147
0.0
147
0.0
147
0.0
147
1.0
  0
MATERIAL
  5
11
102
{ACAD_XDICTIONARY
360
12
102
}
102
{ACAD_REACTORS
330
10
102
}
330
10
100
AcDbMaterial
  1
ByLayer
 72
     0
 43
0.0208333333333333
 43
0.0
 43
0.0
 43
0.0
 43
0.0
 43
0.0208333333333333
 43
0.0
 43
0.0
 43
0.0
 43
0.0
 43
1.0
 43
0.0
 43
0.0
 43
0.0
 43
0.0
 43
1.0
 77
     0
 47
0.0208333333333333
 47
0.0
 47
0.0
 47
0.0
 47
0.0
 47
0.0208333333333333
 47
0.0
 47
0.0
 47
0.0
 47
0.0
 47
1.0
 47
0.0
 47
0.0
 47
0.0
 47
0.0
 47
1.0
171
     0
 49
0.0208333333333333
 49
0.0
 49
0.0
 49
0.0
 49
0.0
 49
0.0208333333333333
 49
0.0
 49
0.0
 49
0.0
 49
0.0
 49
1.0
 49
0.0
 49
0.0
 49
0.0
 49
0.0
 49
1.0
175
     0
142
0.0208333333333333
142
0.0
142
0.0
142
0.0
142
0.0
142
0.0208333333333333
142
0.0
142
0.0
142
0.0
142
0.0
142
1.0
142
0.0
142
0.0
142
0.0
142
0.0
142
1.0
179
     0
144
0.0208333333333333
144
0.0
144
0.0
144
0.0
144
0.0
144
0.0208333333333333
144
0.0
144
0.0
144
0.0
144
0.0
144
1.0
144
0.0
144
0.0
144
0.0
144
0.0
144
1.0
147
0.0208333333333333
147
0.0
147
0.0
147
0.0
147
0.0
147
0.0208333333333333
147
0.0
147
0.0
147
0.0
147
0.0
147
1.0
147
0.0
147
0.0
147
0.0
147
0.0
147
1.0
  0
MATERIAL
  5
21
102
{ACAD_XDICTIONARY
360
22
102
}
102
{ACAD_REACTORS
330
10
102
}
330
10
100
AcDbMaterial
  1
Global
 72
     0
 43
0.0208333333333333
 43
0.0
 43
0.0
 43
0.0
 43
0.0
 43
0.0208333333333333
 43
0.0
 43
0.0
 43
0.0
 43
0.0
 43
1.0
 43
0.0
 43
0.0
 43
0.0
 43
0.0
 43
1.0
 77
     0
 47
0.0208333333333333
 47
0.0
 47
0.0
 47
0.0
 47
0.0
 47
0.0208333333333333
 47
0.0
 47
0.0
 47
0.0
 47
0.0
 47
1.0
 47
0.0
 47
0.0
 47
0.0
 47
0.0
 47
1.0
171
     0
 49
0.0208333333333333
 49
0.0
 49
0.0
 49
0.0
 49
0.0
 49
0.0208333333333333
 49
0.0
 49
0.0
 49
0.0
 49
0.0
 49
1.0
 49
0.0
 49
0.0
 49
0.0
 49
0.0
 49
1.0
175
     0
142
0.0208333333333333
142
0.0
142
0.0
142
0.0
142
0.0
142
0.0208333333333333
142
0.0
142
0.0
142
0.0
142
0.0
142
1.0
142
0.0
142
0.0
142
0.0
142
0.0
142
1.0
179
     0
144
0.0208333333333333
144
0.0
144
0.0
144
0.0
144
0.0
144
0.0208333333333333
144
0.0
144
0.0
144
0.0
144
0.0
144
1.0
144
0.0
144
0.0
144
0.0
144
0.0
144
1.0
147
0.0208333333333333
147
0.0
147
0.0
147
0.0
147
0.0
147
0.0208333333333333
147
0.0
147
0.0
147
0.0
147
0.0
147
1.0
147
0.0
147
0.0
147
0.0
147
0.0
147
1.0
  0
MLEADERSTYLE
  5
67
102
{ACAD_XDICTIONARY
360
917
102
}
102
{ACAD_REACTORS
330
66
102
}
330
66
100
AcDbMLeaderStyle
170
     2
171
     1
172
     0
 90
        2
 40
0.0
 41
0.0
173
     1
 91
-1056964608
340
5B
 92
       -2
290
     1
 42
0.09
291
     1
 43
0.36
  3
Standard
 44
0.18
300

342
55
174
     1
178
     6
175
     1
176
     0
 93
-1056964608
 45
0.18
292
     0
297
     0
 46
0.18
 94
-1056964608
 47
1.0
 49
1.0
140
1.0
293
     1
141
0.0
294
     1
177
     0
142
1.0
295
     0
296
     0
143
0.125
1001
ACAD_MLEADERVER
1070
     2
  0
MLINESTYLE
  5
60
102
{ACAD_REACTORS
330
5F
102
}
330
5F
100
AcDbMlineStyle
  2
STANDARD
 70
     0
  3

 62
   256
 51
90.0
 52
90.0
 71
     2
 49
0.5
 62
   256
  6
BYLAYER
 49
-0.5
 62
   256
  6
BYLAYER
  0
ACDBPLACEHOLDER
  5
F
102
{ACAD_REACTORS
330
E
102
}
330
E
  0
SCALE
  5
43
102
{ACAD_REACTORS
330
42
102
}
330
42
100
AcDbScale
 70
     0
300
1:1
140
1.0
141
1.0
290
     1
  0
SCALE
  5
44
102
{ACAD_REACTORS
330
42
102
}
330
42
100
AcDbScale
 70
     0
300
1/128" = 1'-0"
140
0.0078125
141
12.0
290
     0
  0
SCALE
  5
45
102
{ACAD_REACTORS
330
42
102
}
330
42
100
AcDbScale
 70
     0
300
1/64" = 1'-0"
140
0.015625
141
12.0
290
     0
  0
SCALE
  5
46
102
{ACAD_REACTORS
330
42
102
}
330
42
100
AcDbScale
 70
     0
300
1/32" = 1'-0"
140
0.03125
141
12.0
290
     0
  0
SCALE
  5
47
102
{ACAD_REACTORS
330
42
102
}
330
42
100
AcDbScale
 70
     0
300
1/16" = 1'-0"
140
0.0625
141
12.0
290
     0
  0
SCALE
  5
48
102
{ACAD_REACTORS
330
42
102
}
330
42
100
AcDbScale
 70
     0
300
3/32" = 1'-0"
140
0.09375
141
12.0
290
     0
  0
SCALE
  5
49
102
{ACAD_REACTORS
330
42
102
}
330
42
100
AcDbScale
 70
     0
300
1/8" = 1'-0"
140
0.125
141
12.0
290
     0
  0
SCALE
  5
4A
102
{ACAD_REACTORS
330
42
102
}
330
42
100
AcDbScale
 70
     0
300
3/16" = 1'-0"
140
0.1875
141
12.0
290
     0
  0
SCALE
  5
4B
102
{ACAD_REACTORS
330
42
102
}
330
42
100
AcDbScale
 70
     0
300
1/4" = 1'-0"
140
0.25
141
12.0
290
     0
  0
SCALE
  5
4C
102
{ACAD_REACTORS
330
42
102
}
330
42
100
AcDbScale
 70
     0
300
3/8" = 1'-0"
140
0.375
141
12.0
290
     0
  0
SCALE
  5
4D
102
{ACAD_REACTORS
330
42
102
}
330
42
100
AcDbScale
 70
     0
300
1/2" = 1'-0"
140
0.5
141
12.0
290
     0
  0
SCALE
  5
4E
102
{ACAD_REACTORS
330
42
102
}
330
42
100
AcDbScale
 70
     0
300
3/4" = 1'-0"
140
0.75
141
12.0
290
     0
  0
SCALE
  5
4F
102
{ACAD_REACTORS
330
42
102
}
330
42
100
AcDbScale
 70
     0
300
1" = 1'-0"
140
1.0
141
12.0
290
     0
  0
SCALE
  5
50
102
{ACAD_REACTORS
330
42
102
}
330
42
100
AcDbScale
 70
     0
300
1-1/2" = 1'-0"
140
1.5
141
12.0
290
     0
  0
SCALE
  5
51
102
{ACAD_REACTORS
330
42
102
}
330
42
100
AcDbScale
 70
     0
300
3" = 1'-0"
140
3.0
141
12.0
290
     0
  0
SCALE
  5
52
102
{ACAD_REACTORS
330
42
102
}
330
42
100
AcDbScale
 70
     0
300
6" = 1'-0"
140
6.0
141
12.0
290
     0
  0
SCALE
  5
53
102
{ACAD_REACTORS
330
42
102
}
330
42
100
AcDbScale
 70
     0
300
1'-0" = 1'-0"
140
12.0
141
12.0
290
     0
  0
ACDBSECTIONVIEWSTYLE
  5
6A
102
{ACAD_REACTORS
330
68
102
}
330
68
100
AcDbModelDocViewStyle
 70
     0
  3
Imperial24
290
     0
100
AcDbSectionViewStyle
 70
     0
 71
     0
 90
       78
 71
     1
340
55
 40
0.24
340
0
340
0
 40
0.24
300
I, O, Q, S, X, Z
 40
0.48
 90
        3
 40
0.18
 90
        1
 71
     2
340
69
 90
       25
340
5D
 90
       50
 40
0.24
 40
0.0
 40
0.24
 71
     3
340
55
 40
0.24
 90
        1
 40
0.75
 90
        1
300
%<\AcVar ViewType \f "%tc1">% %<\AcVar ViewSectionStartId>%-%<\AcVar ViewSectionEndId>%\PVARIA %<\AcVar ViewScale \f "%sn">%
 71
     4
300
ANSI31
 40
1.0
 90
        0
290
     0
290
     0
 90
        6
 40
0.0
 40
1.570796326794896
 40
0.2617993877991494
 40
1.308996938995747
 40
-0.2617993877991494
 40
1.832595714594046
  0
TABLESTYLE
  5
65
102
{ACAD_XDICTIONARY
360
831
102
}
102
{ACAD_REACTORS
330
64
102
}
330
64
100
AcDbTableStyle
  3
Standard
 70
     0
 71
     0
 40
0.06
 41
0.06
280
     0
281
     0
  7
Standard
140
0.18
170
     2
 62
     0
 63
     7
283
     0
274
    -2
284
     1
 64
     0
275
    -2
285
     1
 65
     0
276
    -2
286
     1
 66
     0
277
    -2
287
     1
 67
     0
278
    -2
288
     1
 68
     0
279
    -2
289
     1
 69
     0
  7
Standard
140
0.25
170
     5
 62
     0
 63
     7
283
     0
274
    -2
284
     1
 64
     0
275
    -2
285
     1
 65
     0
276
    -2
286
     1
 66
     0
277
    -2
287
     1
 67
     0
278
    -2
288
     1
 68
     0
279
    -2
289
     1
 69
     0
  7
Standard
140
0.18
170
     5
 62
     0
 63
     7
283
     0
274
    -2
284
     1
 64
     0
275
    -2
285
     1
 65
     0
276
    -2
286
     1
 66
     0
277
    -2
287
     1
 67
     0
278
    -2
288
     1
 68
     0
279
    -2
289
     1
 69
     0
  0
VISUALSTYLE
  5
2F
102
{ACAD_XDICTIONARY
360
8EF
102
}
102
{ACAD_REACTORS
330
29
102
}
330
29
100
AcDbVisualStyle
  2
2dWireframe
 70
     4
 71
     0
 72
     2
 73
     0
 90
        0
 40
-0.6
 41
-30.0
 62
     5
 63
     7
 74
     1
 91
        4
 64
     7
 65
   257
 75
     1
175
     1
 42
1.0
 92
        0
 66
   257
 43
1.0
 76
     1
 77
     6
 78
     2
 67
     7
 79
     5
170
     0
171
     0
290
     0
174
     0
 93
        1
 44
0.0
173
     0
291
     0
 45
0.0
1001
ACAD
1000
AcDbSavedByObjectVersion
1070
     0
  0
VISUALSTYLE
  5
2E
102
{ACAD_XDICTIONARY
360
8ED
102
}
102
{ACAD_REACTORS
330
29
102
}
330
29
100
AcDbVisualStyle
  2
Basic
 70
     7
 71
     1
 72
     0
 73
     1
 90
        0
 40
-0.6
 41
-30.0
 62
     5
 63
     7
 74
     0
 91
        4
 64
     7
 65
   257
 75
     1
175
     1
 42
1.0
 92
        8
 66
     7
 43
1.0
 76
     1
 77
     6
 78
     2
 67
     7
 79
     5
170
     0
171
     0
290
     0
174
     0
 93
        1
 44
0.0
173
     0
291
     1
 45
0.0
1001
ACAD
1000
AcDbSavedByObjectVersion
1070
     0
  0
VISUALSTYLE
  5
35
102
{ACAD_XDICTIONARY
360
8FB
102
}
102
{ACAD_REACTORS
330
29
102
}
330
29
100
AcDbVisualStyle
  2
Brighten
 70
    12
 71
     2
 72
     2
 73
     0
 90
        0
 40
-0.6
 41
-30.0
 62
     5
 63
     7
 74
     1
 91
        4
 64
     7
 65
   257
 75
     1
175
     1
 42
1.0
 92
        8
 66
     7
 43
1.0
 76
     1
 77
     6
 78
     2
 67
     7
 79
     5
170
     0
171
     0
290
     0
174
     0
 93
        1
 44
50.0
173
     0
291
     1
 45
0.0
1001
ACAD
1000
AcDbSavedByObjectVersion
1070
     0
  0
VISUALSTYLE
  5
39
102
{ACAD_XDICTIONARY
360
903
102
}
102
{ACAD_REACTORS
330
29
102
}
330
29
100
AcDbVisualStyle
  2
ColorChange
 70
    16
 71
     2
 72
     2
 73
     3
 90
        0
 40
-0.6
 41
-30.0
 62
     5
 63
     8
 74
     1
 91
        4
 64
     7
 65
   257
 75
     1
175
     1
 42
1.0
 92
        8
 66
     8
 43
1.0
 76
     1
 77
     6
 78
     2
 67
     7
 79
     5
170
     0
171
     0
290
     0
174
     0
 93
        1
 44
0.0
173
     0
291
     1
 45
0.0
1001
ACAD
1000
AcDbSavedByObjectVersion
1070
     0
  0
VISUALSTYLE
  5
32
102
{ACAD_XDICTIONARY
360
8F5
102
}
102
{ACAD_REACTORS
330
29
102
}
330
29
100
AcDbVisualStyle
  2
Conceptual
 70
     9
 71
     3
 72
     2
 73
     0
 90
        0
 40
-0.6
 41
-30.0
 62
     5
 63
     7
 74
     2
 91
        2
 64
     7
 65
   257
 75
     1
175
     1
 42
179.0
 92
        8
 66
     7
 43
1.0
 76
     1
 77
     6
 78
     2
 67
     7
 79
     3
170
     0
171
     0
290
     0
174
     0
 93
        1
 44
0.0
173
     0
291
     0
 45
0.0
1001
ACAD
1000
AcDbSavedByObjectVersion
1070
     0
  0
VISUALSTYLE
  5
34
102
{ACAD_XDICTIONARY
360
8F9
102
}
102
{ACAD_REACTORS
330
29
102
}
330
29
100
AcDbVisualStyle
  2
Dim
 70
    11
 71
     2
 72
     2
 73
     0
 90
        0
 40
-0.6
 41
-30.0
 62
     5
 63
     7
 74
     1
 91
        4
 64
     7
 65
   257
 75
     1
175
     1
 42
1.0
 92
        8
 66
     7
 43
1.0
 76
     1
 77
     6
 78
     2
 67
     7
 79
     5
170
     0
171
     0
290
     0
174
     0
 93
        1
 44
-50.0
173
     0
291
     1
 45
0.0
1001
ACAD
1000
AcDbSavedByObjectVersion
1070
     0
  0
VISUALSTYLE
  5
41
102
{ACAD_XDICTIONARY
360
913
102
}
102
{ACAD_REACTORS
330
29
102
}
330
29
100
AcDbVisualStyle
  2
EdgeColorOff
 70
    22
 71
     2
 72
     2
 73
     0
 90
        0
 40
-0.6
 41
-30.0
 62
     5
 63
     7
 74
     1
 91
        4
 64
     7
 65
   257
 75
     1
175
     1
 42
1.0
 92
        8
 66
     7
 43
1.0
 76
     1
 77
     6
 78
     2
 67
     7
 79
     5
170
     0
171
     0
290
     0
174
     0
 93
        1
 44
0.0
173
     0
291
     1
 45
0.0
1001
ACAD
1000
AcDbSavedByObjectVersion
1070
     0
  0
VISUALSTYLE
  5
38
102
{ACAD_XDICTIONARY
360
901
102
}
102
{ACAD_REACTORS
330
29
102
}
330
29
100
AcDbVisualStyle
  2
Facepattern
 70
    15
 71
     2
 72
     2
 73
     0
 90
        0
 40
-0.6
 41
-30.0
 62
     5
 63
     7
 74
     1
 91
        4
 64
     7
 65
   257
 75
     1
175
     1
 42
1.0
 92
        8
 66
     7
 43
1.0
 76
     1
 77
     6
 78
     2
 67
     7
 79
     5
170
     0
171
     0
290
     0
174
     0
 93
        1
 44
0.0
173
     0
291
     1
 45
0.0
1001
ACAD
1000
AcDbSavedByObjectVersion
1070
     0
  0
VISUALSTYLE
  5
2A
102
{ACAD_XDICTIONARY
360
8E5
102
}
102
{ACAD_REACTORS
330
29
102
}
330
29
100
AcDbVisualStyle
  2
Flat
 70
     0
 71
     2
 72
     1
 73
     1
 90
        2
 40
-0.6
 41
30.0
 62
     5
 63
     7
 74
     0
 91
        0
 64
     7
 65
   257
 75
     1
175
     1
 42
1.0
 92
        8
 66
     7
 43
1.0
 76
     1
 77
     6
 78
     2
 67
     7
 79
     5
170
     0
171
     0
290
     0
174
     0
 93
       13
 44
0.0
173
     0
291
     1
 45
0.0
1001
ACAD
1000
AcDbSavedByObjectVersion
1070
     0
  0
VISUALSTYLE
  5
2B
102
{ACAD_XDICTIONARY
360
8E7
102
}
102
{ACAD_REACTORS
330
29
102
}
330
29
100
AcDbVisualStyle
  2
FlatWithEdges
 70
     1
 71
     2
 72
     1
 73
     1
 90
        2
 40
-0.6
 41
30.0
 62
     5
 63
     7
 74
     1
 91
        0
 64
     7
 65
   257
 75
     1
175
     1
 42
1.0
 92
        0
 66
   257
 43
1.0
 76
     1
 77
     6
 78
     2
 67
     7
 79
     5
170
     0
171
     0
290
     0
174
     0
 93
       13
 44
0.0
173
     0
291
     1
 45
0.0
1001
ACAD
1000
AcDbSavedByObjectVersion
1070
     0
  0
VISUALSTYLE
  5
2C
102
{ACAD_XDICTIONARY
360
8E9
102
}
102
{ACAD_REACTORS
330
29
102
}
330
29
100
AcDbVisualStyle
  2
Gouraud
 70
     2
 71
     2
 72
     2
 73
     1
 90
        2
 40
-0.6
 41
30.0
 62
     5
 63
     7
 74
     0
 91
        0
 64
     7
 65
   257
 75
     1
175
     1
 42
1.0
 92
        0
 66
     7
 43
1.0
 76
     1
 77
     6
 78
     2
 67
     7
 79
     5
170
     0
171
     0
290
     0
174
     0
 93
       13
 44
0.0
173
     0
291
     1
 45
0.0
1001
ACAD
1000
AcDbSavedByObjectVersion
1070
     0
  0
VISUALSTYLE
  5
2D
102
{ACAD_XDICTIONARY
360
8EB
102
}
102
{ACAD_REACTORS
330
29
102
}
330
29
100
AcDbVisualStyle
  2
GouraudWithEdges
 70
     3
 71
     2
 72
     2
 73
     1
 90
        2
 40
-0.6
 41
30.0
 62
     5
 63
     7
 74
     1
 91
        0
 64
     7
 65
   257
 75
     1
175
     1
 42
1.0
 92
        0
 66
   257
 43
1.0
 76
     1
 77
     6
 78
     2
 67
     7
 79
     5
170
     0
171
     0
290
     0
174
     0
 93
       13
 44
0.0
173
     0
291
     1
 45
0.0
1001
ACAD
1000
AcDbSavedByObjectVersion
1070
     0
  0
VISUALSTYLE
  5
31
102
{ACAD_XDICTIONARY
360
8F3
102
}
102
{ACAD_REACTORS
330
29
102
}
330
29
100
AcDbVisualStyle
  2
Hidden
 70
     6
 71
     1
 72
     2
 73
     2
 90
        0
 40
-0.6
 41
-30.0
 62
     5
 63
     7
 74
     2
 91
        2
 64
     7
 65
   257
 75
     2
175
     1
 42
40.0
 92
        0
 66
   257
 43
1.0
 76
     1
 77
     6
 78
     2
 67
     7
 79
     3
170
     0
171
     0
290
     0
174
     0
 93
        1
 44
0.0
173
     0
291
     0
 45
0.0
1001
ACAD
1000
AcDbSavedByObjectVersion
1070
     0
  0
VISUALSTYLE
  5
3F
102
{ACAD_XDICTIONARY
360
90F
102
}
102
{ACAD_REACTORS
330
29
102
}
330
29
100
AcDbVisualStyle
  2
JitterOff
 70
    20
 71
     2
 72
     2
 73
     0
 90
        0
 40
-0.6
 41
-30.0
 62
     5
 63
     7
 74
     1
 91
        4
 64
     7
 65
   257
 75
     1
175
     1
 42
1.0
 92
       10
 66
     7
 43
1.0
 76
     1
 77
     6
 78
     2
 67
     7
 79
     5
170
     0
171
     0
290
     0
174
     0
 93
        1
 44
0.0
173
     0
291
     1
 45
0.0
1001
ACAD
1000
AcDbSavedByObjectVersion
1070
     0
  0
VISUALSTYLE
  5
37
102
{ACAD_XDICTIONARY
360
8FF
102
}
102
{ACAD_REACTORS
330
29
102
}
330
29
100
AcDbVisualStyle
  2
Linepattern
 70
    14
 71
     2
 72
     2
 73
     0
 90
        0
 40
-0.6
 41
-30.0
 62
     5
 63
     7
 74
     1
 91
        4
 64
     7
 65
   257
 75
     7
175
     7
 42
1.0
 92
        8
 66
     7
 43
1.0
 76
     1
 77
     6
 78
     2
 67
     7
 79
     5
170
     0
171
     0
290
     0
174
     0
 93
        1
 44
0.0
173
     0
291
     1
 45
0.0
1001
ACAD
1000
AcDbSavedByObjectVersion
1070
     0
  0
VISUALSTYLE
  5
40
102
{ACAD_XDICTIONARY
360
911
102
}
102
{ACAD_REACTORS
330
29
102
}
330
29
100
AcDbVisualStyle
  2
OverhangOff
 70
    21
 71
     2
 72
     2
 73
     0
 90
        0
 40
-0.6
 41
-30.0
 62
     5
 63
     7
 74
     1
 91
        4
 64
     7
 65
   257
 75
     1
175
     1
 42
1.0
 92
        9
 66
     7
 43
1.0
 76
     1
 77
     6
 78
     2
 67
     7
 79
     5
170
     0
171
     0
290
     0
174
     0
 93
        1
 44
0.0
173
     0
291
     1
 45
0.0
1001
ACAD
1000
AcDbSavedByObjectVersion
1070
     0
  0
VISUALSTYLE
  5
33
102
{ACAD_XDICTIONARY
360
8F7
102
}
102
{ACAD_REACTORS
330
29
102
}
330
29
100
AcDbVisualStyle
  2
Realistic
 70
     8
 71
     2
 72
     3
 73
     0
 90
        2
 40
-0.6
 41
30.0
 62
     5
 63
     7
 74
     0
 91
        0
 64
     7
 65
   257
 75
     1
175
     1
 42
1.0
 92
        8
 66
   257
 43
1.0
 76
     1
 77
     6
 78
     2
 67
     7
 79
     3
170
     0
171
     0
290
     0
174
     0
 93
       13
 44
0.0
173
     0
291
     0
 45
0.0
1001
ACAD
1000
AcDbSavedByObjectVersion
1070
     0
  0
VISUALSTYLE
  5
3E
102
{ACAD_XDICTIONARY
360
90D
102
}
102
{ACAD_REACTORS
330
29
102
}
330
29
100
AcDbVisualStyle
  2
Shaded
 70
    27
 71
     2
 72
     2
 73
     1
 90
        2
 40
-0.6
 41
30.0
 62
     5
 63
     7
 74
     0
 91
        4
 64
     7
 65
   257
 75
     1
175
     1
 42
1.0
 92
        8
 66
   257
 43
1.0
 76
     1
 77
     6
 78
     2
 67
     8
 79
     3
170
     0
171
     0
290
     0
174
     0
 93
        5
 44
0.0
173
     0
291
     0
 45
0.0
1001
ACAD
1000
AcDbSavedByObjectVersion
1070
     0
  0
VISUALSTYLE
  5
3D
102
{ACAD_XDICTIONARY
360
90B
102
}
102
{ACAD_REACTORS
330
29
102
}
330
29
100
AcDbVisualStyle
  2
Shaded with edges
 70
    26
 71
     2
 72
     2
 73
     1
 90
        2
 40
-0.6
 41
30.0
 62
     5
 63
     7
 74
     1
 91
       10
 64
     7
 65
   257
 75
     2
175
     1
 42
1.0
 92
        8
 66
   257
 43
1.0
 76
     1
 77
     6
 78
     2
 67
     7
 79
     3
170
     0
171
     0
290
     0
174
     0
 93
        5
 44
0.0
173
     0
291
     0
 45
0.0
1001
ACAD
1000
AcDbSavedByObjectVersion
1070
     0
  0
VISUALSTYLE
  5
3A
102
{ACAD_XDICTIONARY
360
905
102
}
102
{ACAD_REACTORS
330
29
102
}
330
29
100
AcDbVisualStyle
  2
Shades of Gray
 70
    23
 71
     2
 72
     2
 73
     3
 90
        0
 40
-0.6
 41
-30.0
 62
     5
 63
     7
 74
     2
 91
        2
 64
     7
 65
     7
 75
     1
175
     1
 42
40.0
 92
        8
 66
     7
 43
1.0
 76
     1
 77
     6
 78
     2
 67
     7
 79
     3
170
     0
171
     0
290
     0
174
     0
 93
        1
 44
0.0
173
     0
291
     0
 45
0.0
1001
ACAD
1000
AcDbSavedByObjectVersion
1070
     0
  0
VISUALSTYLE
  5
3B
102
{ACAD_XDICTIONARY
360
907
102
}
102
{ACAD_REACTORS
330
29
102
}
330
29
100
AcDbVisualStyle
  2
Sketchy
 70
    24
 71
     1
 72
     2
 73
     2
 90
        0
 40
-0.6
 41
-30.0
 62
     5
 63
     7
 74
     2
 91
        2
 64
     7
 65
     7
 75
     1
175
     1
 42
40.0
 92
       11
 66
     7
 43
1.0
 76
     1
 77
     6
 78
     2
 67
     7
 79
     6
170
     0
171
     0
290
     0
174
     0
 93
        1
 44
0.0
173
     0
291
     0
 45
0.0
1001
ACAD
1000
AcDbSavedByObjectVersion
1070
     0
  0
VISUALSTYLE
  5
36
102
{ACAD_XDICTIONARY
360
8FD
102
}
102
{ACAD_REACTORS
330
29
102
}
330
29
100
AcDbVisualStyle
  2
Thicken
 70
    13
 71
     2
 72
     2
 73
     0
 90
        0
 40
-0.6
 41
-30.0
 62
     5
 63
     7
 74
     1
 91
        4
 64
     7
 65
   257
 75
     1
175
     1
 42
1.0
 92
       12
 66
     7
 43
1.0
 76
     1
 77
     6
 78
     2
 67
     7
 79
     5
170
     0
171
     0
290
     0
174
     0
 93
        1
 44
0.0
173
     0
291
     1
 45
0.0
1001
ACAD
1000
AcDbSavedByObjectVersion
1070
     0
  0
VISUALSTYLE
  5
30
102
{ACAD_XDICTIONARY
360
8F1
102
}
102
{ACAD_REACTORS
330
29
102
}
330
29
100
AcDbVisualStyle
  2
Wireframe
 70
     5
 71
     0
 72
     2
 73
     0
 90
        0
 40
-0.6
 41
-30.0
 62
     5
 63
     7
 74
     1
 91
        4
 64
     7
 65
   257
 75
     1
175
     1
 42
1.0
 92
        0
 66
   257
 43
1.0
 76
     1
 77
     6
 78
     2
 67
     7
 79
     3
170
     0
171
     0
290
     0
174
     0
 93
        1
 44
0.0
173
     0
291
     0
 45
0.0
1001
ACAD
1000
AcDbSavedByObjectVersion
1070
     0
  0
VISUALSTYLE
  5
3C
102
{ACAD_XDICTIONARY
360
909
102
}
102
{ACAD_REACTORS
330
29
102
}
330
29
100
AcDbVisualStyle
  2
X-Ray
 70
    25
 71
     2
 72
     2
 73
     1
 90
        1
 40
0.5
 41
-30.0
 62
     5
 63
     7
 74
     1
 91
        0
 64
     7
 65
   257
 75
     1
175
     1
 42
1.0
 92
        8
 66
     7
 43
1.0
 76
     1
 77
     6
 78
     2
 67
     7
 79
     3
170
     0
171
     0
290
     0
174
     0
 93
       13
 44
0.0
173
     0
291
     0
 45
0.0
1001
ACAD
1000
AcDbSavedByObjectVersion
1070
     0
  0
DICTIONARYVAR
  5
828
102
{ACAD_REACTORS
330
822
102
}
330
822
100
DictionaryVariables
280
     0
  1
1:1
  0
DICTIONARYVAR
  5
824
102
{ACAD_REACTORS
330
822
102
}
330
822
100
DictionaryVariables
280
     0
  1
STANDARD
  0
DICTIONARYVAR
  5
823
102
{ACAD_REACTORS
330
822
102
}
330
822
100
DictionaryVariables
280
     0
  1
STANDARD
  0
DICTIONARYVAR
  5
825
102
{ACAD_REACTORS
330
822
102
}
330
822
100
DictionaryVariables
280
     0
  1
Imperial24
  0
DICTIONARYVAR
  5
826
102
{ACAD_REACTORS
330
822
102
}
330
822
100
DictionaryVariables
280
     0
  1
Imperial24
  0
DICTIONARYVAR
  5
82F
102
{ACAD_REACTORS
330
822
102
}
330
822
100
DictionaryVariables
280
     0
  1
1
  0
DICTIONARYVAR
  5
82E
102
{ACAD_REACTORS
330
822
102
}
330
822
100
DictionaryVariables
280
     0
  1
1
  0
DICTIONARYVAR
  5
82D
102
{ACAD_REACTORS
330
822
102
}
330
822
100
DictionaryVariables
280
     0
  1
0
  0
DICTIONARYVAR
  5
82A
102
{ACAD_REACTORS
330
822
102
}
330
822
100
DictionaryVariables
280
     0
  1
0
  0
DICTIONARYVAR
  5
82B
102
{ACAD_REACTORS
330
822
102
}
330
822
100
DictionaryVariables
280
     0
  1
0
  0
DICTIONARYVAR
  5
829
102
{ACAD_REACTORS
330
822
102
}
330
822
100
DictionaryVariables
280
     0
  1
2
  0
DICTIONARYVAR
  5
827
102
{ACAD_REACTORS
330
822
102
}
330
822
100
DictionaryVariables
280
     0
  1
1
  0
DICTIONARYVAR
  5
82C
102
{ACAD_REACTORS
330
822
102
}
330
822
100
DictionaryVariables
280
     0
  1
127
  0
DICTIONARYVAR
  5
830
102
{ACAD_REACTORS
330
822
102
}
330
822
100
DictionaryVariables
280
     0
  1
2
  0
DICTIONARY
  5
919
330
70
100
AcDbDictionary
280
     1
281
     1
  3
ACAD_XREC_ROUNDTRIP
360
91A
  0
DICTIONARY
  5
91D
330
78
100
AcDbDictionary
280
     1
281
     1
  3
ACAD_XREC_ROUNDTRIP
360
91E
  0
DICTIONARY
  5
91B
330
74
100
AcDbDictionary
280
     1
281
     1
  3
ACAD_XREC_ROUNDTRIP
360
91C
  0
DICTIONARY
  5
1A
330
19
100
AcDbDictionary
280
     1
281
     1
  3
ACAD_XREC_ROUNDTRIP
360
8E3
  3
BUMPTILE
360
1C
  3
DIFFUSETILE
360
1B
  3
OPACITYTILE
360
1F
  3
REFLECTIONTILE
360
1E
  3
REFRACTIONTILE
360
20
  3
SPECULARTILE
360
1D
  0
DICTIONARY
  5
12
330
11
100
AcDbDictionary
280
     1
281
     1
  3
ACAD_XREC_ROUNDTRIP
360
8E2
  3
BUMPTILE
360
14
  3
DIFFUSETILE
360
13
  3
FBXASSET
360
109
  3
OPACITYTILE
360
17
  3
REFLECTIONTILE
360
16
  3
REFRACTIONTILE
360
18
  3
SPECULARTILE
360
15
  0
DICTIONARY
  5
22
330
21
100
AcDbDictionary
280
     1
281
     1
  3
ACAD_XREC_ROUNDTRIP
360
8E4
  3
BUMPTILE
360
24
  3
DIFFUSETILE
360
23
  3
OPACITYTILE
360
27
  3
REFLECTIONTILE
360
26
  3
REFRACTIONTILE
360
28
  3
SPECULARTILE
360
25
  0
DICTIONARY
  5
917
330
67
100
AcDbDictionary
280
     1
281
     1
  3
ACAD_XREC_ROUNDTRIP
360
918
  0
DICTIONARY
  5
831
330
65
100
AcDbDictionary
280
     1
281
     1
  3
ACAD_ROUNDTRIP_2008_TABLESTYLE_CELLSTYLEMAP
360
832
  3
ACAD_XREC_ROUNDTRIP
360
915
  0
DICTIONARY
  5
8EF
330
2F
100
AcDbDictionary
280
     1
281
     1
  3
ACAD_XREC_ROUNDTRIP
360
8F0
  0
DICTIONARY
  5
8ED
330
2E
100
AcDbDictionary
280
     1
281
     1
  3
ACAD_XREC_ROUNDTRIP
360
8EE
  0
DICTIONARY
  5
8FB
330
35
100
AcDbDictionary
280
     1
281
     1
  3
ACAD_XREC_ROUNDTRIP
360
8FC
  0
DICTIONARY
  5
903
330
39
100
AcDbDictionary
280
     1
281
     1
  3
ACAD_XREC_ROUNDTRIP
360
904
  0
DICTIONARY
  5
8F5
330
32
100
AcDbDictionary
280
     1
281
     1
  3
ACAD_XREC_ROUNDTRIP
360
8F6
  0
DICTIONARY
  5
8F9
330
34
100
AcDbDictionary
280
     1
281
     1
  3
ACAD_XREC_ROUNDTRIP
360
8FA
  0
DICTIONARY
  5
913
330
41
100
AcDbDictionary
280
     1
281
     1
  3
ACAD_XREC_ROUNDTRIP
360
914
  0
DICTIONARY
  5
901
330
38
100
AcDbDictionary
280
     1
281
     1
  3
ACAD_XREC_ROUNDTRIP
360
902
  0
DICTIONARY
  5
8E5
330
2A
100
AcDbDictionary
280
     1
281
     1
  3
ACAD_XREC_ROUNDTRIP
360
8E6
  0
DICTIONARY
  5
8E7
330
2B
100
AcDbDictionary
280
     1
281
     1
  3
ACAD_XREC_ROUNDTRIP
360
8E8
  0
DICTIONARY
  5
8E9
330
2C
100
AcDbDictionary
280
     1
281
     1
  3
ACAD_XREC_ROUNDTRIP
360
8EA
  0
DICTIONARY
  5
8EB
330
2D
100
AcDbDictionary
280
     1
281
     1
  3
ACAD_XREC_ROUNDTRIP
360
8EC
  0
DICTIONARY
  5
8F3
330
31
100
AcDbDictionary
280
     1
281
     1
  3
ACAD_XREC_ROUNDTRIP
360
8F4
  0
DICTIONARY
  5
90F
330
3F
100
AcDbDictionary
280
     1
281
     1
  3
ACAD_XREC_ROUNDTRIP
360
910
  0
DICTIONARY
  5
8FF
330
37
100
AcDbDictionary
280
     1
281
     1
  3
ACAD_XREC_ROUNDTRIP
360
900
  0
DICTIONARY
  5
911
330
40
100
AcDbDictionary
280
     1
281
     1
  3
ACAD_XREC_ROUNDTRIP
360
912
  0
DICTIONARY
  5
8F7
330
33
100
AcDbDictionary
280
     1
281
     1
  3
ACAD_XREC_ROUNDTRIP
360
8F8
  0
DICTIONARY
  5
90D
330
3E
100
AcDbDictionary
280
     1
281
     1
  3
ACAD_XREC_ROUNDTRIP
360
90E
  0
DICTIONARY
  5
90B
330
3D
100
AcDbDictionary
280
     1
281
     1
  3
ACAD_XREC_ROUNDTRIP
360
90C
  0
DICTIONARY
  5
905
330
3A
100
AcDbDictionary
280
     1
281
     1
  3
ACAD_XREC_ROUNDTRIP
360
906
  0
DICTIONARY
  5
907
330
3B
100
AcDbDictionary
280
     1
281
     1
  3
ACAD_XREC_ROUNDTRIP
360
908
  0
DICTIONARY
  5
8FD
330
36
100
AcDbDictionary
280
     1
281
     1
  3
ACAD_XREC_ROUNDTRIP
360
8FE
  0
DICTIONARY
  5
8F1
330
30
100
AcDbDictionary
280
     1
281
     1
  3
ACAD_XREC_ROUNDTRIP
360
8F2
  0
DICTIONARY
  5
909
330
3C
100
AcDbDictionary
280
     1
281
     1
  3
ACAD_XREC_ROUNDTRIP
360
90A
  0
XRECORD
  5
91A
102
{ACAD_REACTORS
330
919
102
}
330
919
100
AcDbXrecord
280
     1
102
SHADEPLOT
 70
     0
102
SHADEPLOTRESLEVEL
 70
     2
102
SHADEPLOTCUSTOMDPI
 70
   300
  0
XRECORD
  5
91E
102
{ACAD_REACTORS
330
91D
102
}
330
91D
100
AcDbXrecord
280
     1
102
SHADEPLOT
 70
     0
102
SHADEPLOTRESLEVEL
 70
     2
102
SHADEPLOTCUSTOMDPI
 70
   300
  0
XRECORD
  5
91C
102
{ACAD_REACTORS
330
91B
102
}
330
91B
100
AcDbXrecord
280
     1
102
SHADEPLOT
 70
     0
102
SHADEPLOTRESLEVEL
 70
     2
102
SHADEPLOTCUSTOMDPI
 70
   300
  0
XRECORD
  5
8E3
102
{ACAD_REACTORS
330
1A
102
}
330
1A
100
AcDbXrecord
280
     1
102
MATERIAL
148
0.0
149
0.0
149
0.0
 93
        0
 94
      127
282
     0
 72
     0
 77
     0
171
     0
175
     0
179
     0
273
     0
  0
XRECORD
  5
1C
102
{ACAD_REACTORS
330
1A
102
}
330
1A
100
AcDbXrecord
280
     1
270
     1
271
     1
  0
XRECORD
  5
1B
102
{ACAD_REACTORS
330
1A
102
}
330
1A
100
AcDbXrecord
280
     1
270
     1
271
     1
  0
XRECORD
  5
1F
102
{ACAD_REACTORS
330
1A
102
}
330
1A
100
AcDbXrecord
280
     1
270
     1
271
     1
  0
XRECORD
  5
1E
102
{ACAD_REACTORS
330
1A
102
}
330
1A
100
AcDbXrecord
280
     1
270
     1
271
     1
  0
XRECORD
  5
20
102
{ACAD_REACTORS
330
1A
102
}
330
1A
100
AcDbXrecord
280
     1
270
     1
271
     1
  0
XRECORD
  5
1D
102
{ACAD_REACTORS
330
1A
102
}
330
1A
100
AcDbXrecord
280
     1
270
     1
271
     1
  0
XRECORD
  5
8E2
102
{ACAD_REACTORS
330
12
102
}
330
12
100
AcDbXrecord
280
     1
102
MATERIAL
148
0.0
149
0.0
149
0.0
 93
        0
 94
      127
282
     0
 72
     0
 77
     0
171
     0
175
     0
179
     0
273
     0
  0
XRECORD
  5
14
102
{ACAD_REACTORS
330
12
102
}
330
12
100
AcDbXrecord
280
     1
270
     1
271
     1
  0
XRECORD
  5
13
102
{ACAD_REACTORS
330
12
102
}
330
12
100
AcDbXrecord
280
     1
270
     1
271
     1
  0
XRECORD
  5
109
102
{ACAD_REACTORS
330
12
102
}
330
12
100
AcDbXrecord
280
     1
 70
     1
 90
1959938040
 71
     1
  1
FD9FD26D-61F2-405D-9A55-8F29A964A0E1
311
504B03040A0000080000745B17413DEE336E79000000790000001B0000006175746F6465736B2D64657369676E2D7061636B6167652E786D6C3C3F786D6C2076657273696F6E3D22312E302220656E636F64696E673D227574662D3822203F3E3C666F726D6174733E3C666F726D61743E687474703A2F2F736368656D612E
311
6175746F6465736B2E636F6D2F64657369676E2D7061636B6167652F323030393C2F666F726D61743E3C2F666F726D6174733E504B0304140006080800745B1741FAA28935A700000035010000130000005B436F6E74656E745F54797065735D2E786D6CA58FC10E823010447FA5D93B143D1863281ED43FE0076ADD4223DD
311
36ED62F0EF2DE16ABC78DC9DC99B99F6BCF849BC30651748C1AE6E402099F070342898D9564710E7AEEDDF11B3285ECA0A46E67892329B11BDCE75884845B12179CDE54C838CDA3CF58072DF34076902311257BC32A06BAF68F53CB1B82DE5BDE5DE1D81B86CBEBED814E818276734975A321846AE3227D41EE4578023FB1F
311
A00CF80158D5122CD76EB9FB00504B0304140006080800745B1741DC7D0DB5F90000009701000008000000636F72652E786D6C8D905D6EC3201084AF8278ADB0C17153DBC244499D9CA01740401C94182C7EA21EBFEBC491DAB73EED6A988F1D0DDF7D4F377437215AEF7ACC0A8A9171CA6BEBC61EE774260D463BC183F7E9
311
970D232727D3E345C6828FC1E779959477C9B804AAF3DAACA28CD1248CD40D961E477531932C644EE088D76296EA2A4753B0D70670CE56A3E711ABE13F7BB626603134EDB63E1D07727CA77B520F9F7BD29CB6077268B70365B469EB86F27281054F767ADD57C1C8643416156515A10DA9365F8C75D54757B337CA3A0AD062
311
FF03E559FF13CAD6A54DB5C67D62110B06411E0F82C714A0D0D500252414E51DF29482974B4D301E1DC25C2A153F504B0304140006080800745B17419707A4997E0000009D00000007000000636E782E786D6C4DCCD10E82201886E15B61FF392965F4B3012E29EFC3253AA64223685D7EDA3CE8E8DB9E7D7B65FD5966F2B6
311
F1E58257C00E2510EB1FA1777E5490D3401148AD650C21FDDD80F86EB10A36062DC718F273A7DE0E5D9ED3AAB3F3D38E02CD89B7A6A58C950DADB8407ABD5D2ACA1B733778368847018596C5AFB4EE16D65F504B0304140006080800745B17418D6A5C542C0100001E0200002D00000039384333364643462D313130422D34
311
3639382D414437342D3642434543383543383832392F636F72652E786D6C8D51DB72C22014FC1586273B1D9210638C0EC1A969FD82FE00C2D1321AC870E9F8F9254DB4ED5B5F4266CFEE9E8565BB5B7F459FE0BCB6A6C5342B300223ADD2E6DCE2184EA4C168C799B336FCA26164440F2D1E61CCD9D9D938CC90B426800909
311
3556C10C0AEF216024AFE9A7C55E7E402F32114362F84B3608791167C86896C689C7990F2E0540D392F18BF9A6E996F5A13B104A8B3DA9EA4D435E5ED715A9F7DD5BD7ACBAA629372C9F849CC5A8D52CD72AC5D1270DEEBF26A398B3A0FB7B7CE94004509897052D49D19072F94EE9B65C6F2BFA5CD06D51B07CA4FF11C541
311
FD5314B509CB728E3BC93CE694E5D3803365E3F17A0F03B7C1BA80C67D0B0FF209E7E9BAC9A1AE66071FAC4BCFB9B81C1FB3873BF44750C80E21D58DF9EA67453EB6C559FE5D653AC766F917504B0304140006080800745B17416A77868595000000F50000002C00000039384333364643462D313130422D343639382D4144
311
37342D3642434543383543383832392F636E782E786D6C5D8E4B0EC2300C44AF12795F023B164E2A246EC00942E396887C503E88E313438550375EBC9979328EAFE0C5937271292A38ECF620284EC9BAB82868751E8E20468D39A5FA5703114D20058C41E392537BACC8D26C9AAF9D7A17EF2B3C9542F56CAAE99897C2A7C9
311
F82EA038B402FA97A3E458A3E4B146BEABE232DD2898DE456E6C0514AE642D5951BEB58D477E3EEC5A7E58BF01504B0304140006080800745B1741D0466460FD000000A00100003700000039384333364643462D313130422D343639382D414437342D3642434543383543383832392F4173736574446174612F636F72652E
311
786D6C8D50DD6E8320147E15736E1714AC736A90C6D6F609F60204A823AD6004963DFEA0BA64BBDB0D877C3FE77CF9E8F16B7E649F6A75DA9A1E488E21534658A9CDD443F037D440766474B5D6FF924166F8AC7A4830303AAD362C3B24ACF1CAF8881A2BD50E72E794874C3CE2A707273ED4CC731E7C54B87BBE7071E793CA
311
491EE9A863D4F93506C8B623E90536A41523F79C161BCB68085AEE1A2DE34D7DD36A0536366D5D5D2F677479C503AAC6F3809A6B7D42A7B61E31C14D5B359816C9CCA8D7F34F46B12AEE950456625222DCA0F2F04E4857BE751579C1A4C3D194E47F4C6191FF34056DFCA1DCE36E3607AC8E419E04A345EA2B8E679971A66E
311
D937504B0304140006080800745B1741BDF2EAFA77010000860500003600000039384333364643462D313130422D343639382D414437342D3642434543383543383832392F4173736574446174612F636E782E786D6CD5544D6B032110FD2BE2B5EC575A6808AEA1B4979C5268E8DDB8B3A9C4D545674BFBEFABBB860D949C
311
7268735119DF7B333EC661EBAF4E934F705E5953D32A2F2901236DA3CCA1A603B6D992923567CE5A3C8351624407358D61CAD9C1D9A14FA1065A31680C51ADCC31055FA0554661C8B1417002AD7B75B607870A3C25520BEF6BEAE50774221703DA06FC316F048ABCCA1D783B380941312625DA4AA1436E30D9E0299FA5C949
311
9BCCE2AC881CCE06A7483CD534AEE7AC1369E6E47B655811189C7974C188C4C4EF3E1421FA5E2B29E25B0A2B11300B20101D2BC21EC09CA1EA2051A40381D050BE28AB45562EB3C5FDAEAA568BC7D543755756ABB264458473B6B756279232C123DB1369C3C120E50114AF392BA2A59CC5356137C6A33012E6EAFFC4CEDF65
311
DC92894FDE03EEC45EC3B67D9E4CBFB62B4749326A926D4B4EAA97DA71848FE8B9825B72F00D43A377EFD31819DF71651B4E822429FAC9C94BEE4DE0841DB3E7CAB4FFFA0B17E3C80C3FDA85C1CA7F00504B0304140006080800745B17415207B95D84000000200100004F00000039384333364643462D313130422D343639
311
382D414437342D3642434543383543383832392F4173736574446174612F446566696E6974696F6E4974657261746F7250726F706572746965732E62696EEB60A861F90F050C40C008C40D0C8C0CBC40DA3D352FB5283339383923353791811D28E254E99358995A046242259980A220AE4B6A5A62694E09489B6F6671726A
311
4E4E625E6A7E69B120501EAA542137B104685E628E1E481327500226500C32211D621B23505C828101E424492093C137B1A438C61D2217930EA1F50AF2D2417274C000504B0304140006080800745B1741C1D521D9F4000000300200004500000039384333364643462D313130422D343639382D414437342D364243454338
311
3543383832392F4173736574446174612F496E7374616E636550726F706572746965732E62696EEB60F066FA0F050C40C008C40D0C8C0CBC40DA3D352FB52833393839233537510528E0E662E9E66264E6A26B66E866A46B6260EAA26BE9686AAA6BE16664E9686966E268E06AC80E5407D508D2626C68E2E26A646AA96B6A
311
6262AC6B626664A8EBE4E6E4A26B686E6CE06CE6EC6CE9E86A09B2934133A6FFD0578D2BF6509A09684C030303038C6F0F6403D1077BA0DB8034038380038300031CA83830E007408D10057006848B49C2158019CC40050D0C60F000EA061E300F9D00852142E603542DBA2A0686949D0E0C780176AD20E341E109D2FAC19E
311
05483102311F10079727962467E83A1525E6A5A4A680DC0B14A4190200504B0304140006080800745B1741168481F551000000570000004700000039384333364643462D313130422D343639382D414437342D3642434543383543383832392F4173736574446174612F41737365745461626C654F66436F6E74656E74732E
311
62696E536160607073B17473313273D135337433D235313075D1B5743435D5B57033B274B43433713470351402AACB4D2C492DCA4CCC492C28484D2C4ACC4B4E050A82112F90744FCD03CA26072767A4E6260200504B0304140006080800745B1741F865834058000000680000004500000039384333364643462D31313042
311
2D343639382D414437342D3642434543383543383832392F4173736574446174612F53747265616D56657273696F6E5461626C652E696E66558CBD0A80300C06F73E4B117FB66E451741D041DC5BF98480A492E4FDD18EAEC7DD4555D89EF28DF51A0B1BD8340C4DE7DD848B988C0ACF0649566493F2408C508DDEBB99D512
311
9FF8F1AF8CF5B9503E20FAE5A16B5AF702504B0304140006080800745B1741622074F4FD0000009E0100003500000039384333364643462D313130422D343639382D414437342D3642434543383543383832392F536368656D61732F636F72652E786D6C8D905D6E83301084AF82F6B532D8845240C65152920BB417B0B043
311
AD041BF9A7EAF16B0395DAB7BE78AD99F9B4A3A5C7AFF9917D4AEB94D13D901C4326F56884D2530FC1DF5003D991516B8CFF15834CF359F690646074B2262CBB341AEDA5F651D546C85DE4CE490FD9F8889F1EDCF821679EF3E063C2DDF3858F773EC99CE4D18E39469DB7B140B62D492FB0B71572B4D83C464350624F2811
311
37AA9B9216D8D0B47575BD0CE8F28C4FA81A5E4FA8B9D667746EEB0113DCB4558369916046BD9A7F1A8E56722F05B0129312E10695877742BAF2A5ABC813261D8E508AFF81C222FE0905A5FDA1DCEB6E9803466291D560B448D78A633D659CE9B2EC1B504B0304140006080800745B17413686B93127010000D30300003400
311
000039384333364643462D313130422D343639382D414437342D3642434543383543383832392F536368656D61732F636E782E786D6CD593CF4E032110C65F857035FB87D5C4A661E9C183272FD6174076DA92B2CC6600A36F2F6C39D4C4AB462F84197EC397F960E4EE7D76EC0D2858F423176DCF19788393F5C791A77868
311
369CED9424C4788571E6F50C232F69AEE491302D3535C141271773D6597FAEC9079C67F47B73825973669C0E61E4610D5B9D224E10CEEDA4A36E454B103091817C4311610E8D76590B7C930257FBB58A1DAC03D91540C944B6EA9498AB6BB536F727BB4C281922E5AE2A193F96ACA097C559A3636EBE5BC10BA364B43354D2
311
10E8081357432F86A6DF34C3ED8B10DBE17E7B276E7AB1ED7BD9155CC95744578BAC8F40B8308379E32357192AC74A76C51625CB5AD947F040D65C1AFB7977BEC8FD037B9EC14F404FF90DC86AF75B2E7DA7FA57CDEAD6F9CB5F8BF294AA4F504B0304140006080800745B17412F7B2A8D8D0100005E0600003D0000003938
311
4333364643462D313130422D343639382D414437342D3642434543383543383832392F536368656D61732F436F6D6D6F6E536368656D612E786D6CC5944D6EC2301085F79C22F20550BB4E90A0486D24D44551BA1FE201AC3A76E43841B97D9D716A151228B448CD2A9267BE37CF3F2F9E5715DA75BEC702669388BE384B97
311
510332614FBA28B4F2AB6C3689A76E2554ADAD116A17099EB00554D8574565BD91224FD81664852CE2B8154A58A1556AD180D566091612664DED569B4E85C89E16E0A9B2B84343744F7E4753390A3B1530085C2BD91E211F89D94302D46B10936CAFC4265D326F95451236E83C7F5BE91CFB9E3104743B67DBD2D938F13C3A
311
124D749E26750EF22A1A551EB9BD06ADA0F879D09BD159FA3AC6BD7CE837AB7C607BD0860F8E1EA4D487A296569412DD55AAB1FADA973B4F9083BB8EDAB4FF3802C72A37A2EC5ED2608A7BB8CDDE56F432ECBE2E360A841CA8FC7ABBDDD1248C2EA913094F69A1B5445024FA2238473550BCEC8BB05B8A99EEA5F6BCC0CF6A
311
C109DE27C7B30BAFDF28F8C11D2C90FB5C21787326969A2ED91EA8B72F1F6D37D888D158BBD0EF3691A49D9F10AE0363E733C8B58751DC3FA1E6BC019523FF2B329ECEBB54F4893D9B7C02504B0304140006080800745B17417229482E27050000001600003E00000039384333364643462D313130422D343639382D414437
311
342D3642434543383543383832392F536368656D61732F47656E65726963536368656D612E786D6CDD586D4FE33810FECEAFB0F27D4BCB1DAB5BA9456A41F4FA0171A2705F2D37718AEF9CA4B29D42EFD7DF783C3549CBB601F676B587549197F1CC3CF3F278E2E1D85AE9E6E9A32CC4C509C3BFE1C3EC8AAD851E2553594A
311
A3D2F03AB938199EC2AB2836115606B93B5966D2DC0807D24237C4BD4894779B15C9172429562B298C285389CABD40949E954E2EA5612A1B2541E39FD2585595095BD50BADD251920B6D65C28C145955EACD2871A686FBB5777D801A4949543A7746954BD4A9AB54686FF1A83E946C291FB7FD0E5ABF6AA414057875C4E97D
311
23147CC4B1636152555A8A1271A495AE0C5F6C78B5F84BA62E0919C94368B45848C8E3A59761930DBB0D323E93A4237A1D647CB49721EB3C53795EFB000BADABA7B42A4BD02F33E12BC68E120B91D4006C2DF4DD28E9F77E199CA3F169F366D2BC198F9241C29A3E2138B41CFDB8D69570886CC70FAE0AB1943C1799443B4D
311
6533FF8A5DFB57172754C68C0D27555D6696ADA44965E960F5368BAA4C8D2CE09955FF485454A852157501EE268CAE15204C756DD51A44426915E23948010EBADE970AD1F59623A85344156FF1AE85D1C85C4374D55AB90D178EF733B94CD8D1C0A3BB14D0BB860A8C2B5A7983CD2FDFC3E8525716E22AADED06AF771E2B66
311
FAB2D487B80D8FCAB915546579219DD0542E79AB277E57CB470D3F673158B4FE40B81C10955D0923CB74D3CDF7E8F97D73E9CF59A0AE01E1FFDE8946A40E361AAE60577BA6E219F4CECF623EA1D548066AE720DD50CD1DE29B5EDF9349A09F7D32614433A3041A81AEF7A57C3F04B28B05DC85720804C7E4EA1A4832DDF027
311
E9BBE23D154E1A8EC52450E9A190FC100A4E6B57D58E572B91020977C20F8923F2BDC4C5814A8E13D342A47FE722953CADF5EBEC34210976E925427A71CF8FF9452B2DBAB352E75C695D171C7EAAC4B92A8C03FD58BA731062332F0402BECA215BC3A3B5626115A94EFD2CC19D2C605715AE36921AE4F379FFC5CAA51762F7
311
0D210F015D8E00824C73E06858C9958661921762D5211177B883AF8586D10352021793ED93D6C8718D4A191A46D878151D42F75A115DD4C58A8B02A60898ABBA6CC6BDB32F3B7F31F0E3A0E608FBE7618F3AD01C9F06FD7EBF5B8304C130B2BC8733303CFB01E99C1470738D490917909470D14ACA0462FC4A32683F6E5917
311
15AF60FC079D71F6A7F61B170B05D31CBB4D716003295F6FA4232698BE0676755A51ACB4847904150F3EC794CDE9C58773063B478799F2EC1C4CBF89E2095004B85FC110B24C59D7A0825F23BC1BF1CCAEB62F7DBC70795446D1DB8D56061395D2DB68052EA72C3CC0F760A8996B5315ECD63DC2F7DB0D7DEB056E24A5D108
311
9A6C9930D06D595A19F8F2B4DC884CD560AB4BEF455C775E037439AAC0D2422BD126F9F075AB680D3F7F244C7B0E5808B848416712D5E57009B447A8275A96197B52EEB11362CA59DB3A8CEE3C932BF74816A04F483B8C1AF8615095CCE7EBDEC0B6C1AE50F4C3650956BA94A5177B0B8910C2186FBADF456C5A883F017113
311
E4DBB534466592017680EB37A96F85D85BF9819029937CE9BF6436DC12BF843D7A002C411100E024CAA628CAE624FA9D723E38FB0DB698FF22E9345A2F11D6C1086C533F45D19F3B0245150F2D1AFCEB1F7ADEA506890D532BEC15386B93397C17F806387A48B5F6875EC0B5F6741A8E6FB6FF1F66BDE742230DD66AD7C438
311
5BFBAD21FB36A65EB4BD6652F95DD69FB9080F0811CE5A8F6E600787B324015FD7470ECBF6C186B5780C146DAB96F608BDFDF8153F6EA7F377841B567DD8F21F46AE957C7A87755A89BBEF413786A7637F7E174E542F4EFE05504B0304140006080800745B17410A3355BE7401000017040000450000003938433336464346
311
2D313130422D343639382D414437342D3642434543383543383832392F536368656D61732F52656E6465724D6174657269616C536368656D612E786D6CAD93DF6AC23014C6EF7D8A90075895B1BB54D00EA430D968A7B725B6C73690269244C5B75FFED955866C0C7B9593F3E577724EBE9285D660CABA839ECE27C87F6493
311
BFA213E5292E4034A0D6D480629407159E4F486215837A4935047926FB5E8A91CCA5065D2E0CB4A0106B521C345B509A4981D1E1B8E3AC4EF19E720D1829A08D14FC9262A38E363EB9BBCC7CE10819A09BE2CD03F3FEC0A10761A8B1C4B55BF0825EFE86F6644BFA85FABE2A1FCAFB507062707E287305C2BE55FD4F666914
311
13AD1FA83E5353773F38FE29FCBC82761859D64956833F5A7B1B54654715349537180E068919ED331871BA03EBB2D286B6ACA546032244026E4BF9F186A9AD149A489BDE10ECB673E6E8E0F56EF771CCDAFBE03C2E4C64CE06663ECADD01932454BB16224B293950319EC22713A632B26DF9D5C8FB60F2D8BCCBDBCE4912CF
311
0EAC4C72197E963835A7AC6AB7EBEF5AA478FAF43C7BF1C16A1C2CC7C122C5DF3D3904CA3CC2B7E456A12049FC3B85FF723EF902504B010214000A0000080000745B17413DEE336E79000000790000001B00000000000000000000000000000000006175746F6465736B2D64657369676E2D7061636B6167652E786D6C504B
311
01021400140006080800745B1741FAA28935A7000000350100001300000000000000000000000000B20000005B436F6E74656E745F54797065735D2E786D6C504B01021400140006080800745B1741DC7D0DB5F90000009701000008000000000000000000000000008A010000636F72652E786D6C504B0102140014000608
311
0800745B17419707A4997E0000009D0000000700000000000000000000000000A9020000636E782E786D6C504B01021400140006080800745B17418D6A5C542C0100001E0200002D000000000000000000000000004C03000039384333364643462D313130422D343639382D414437342D3642434543383543383832392F63
311
6F72652E786D6C504B01021400140006080800745B17416A77868595000000F50000002C00000000000000000000000000C304000039384333364643462D313130422D343639382D414437342D3642434543383543383832392F636E782E786D6C504B01021400140006080800745B1741D0466460FD000000A00100003700
311
000000000000000000000000A205000039384333364643462D313130422D343639382D414437342D3642434543383543383832392F4173736574446174612F636F72652E786D6C504B01021400140006080800745B1741BDF2EAFA77010000860500003600000000000000000000000000F406000039384333364643462D31
311
3130422D343639382D414437342D3642434543383543383832392F4173736574446174612F636E782E786D6C504B01021400140006080800745B17415207B95D84000000200100004F00000000000000000000000000BF08000039384333364643462D313130422D343639382D414437342D3642434543383543383832392F
311
4173736574446174612F446566696E6974696F6E4974657261746F7250726F706572746965732E62696E504B01021400140006080800745B1741C1D521D9F4000000300200004500000000000000000000000000B009000039384333364643462D313130422D343639382D414437342D3642434543383543383832392F4173
311
736574446174612F496E7374616E636550726F706572746965732E62696E504B01021400140006080800745B1741168481F551000000570000004700000000000000000000000000070B000039384333364643462D313130422D343639382D414437342D3642434543383543383832392F4173736574446174612F41737365
311
745461626C654F66436F6E74656E74732E62696E504B01021400140006080800745B1741F865834058000000680000004500000000000000000000000000BD0B000039384333364643462D313130422D343639382D414437342D3642434543383543383832392F4173736574446174612F53747265616D56657273696F6E54
311
61626C652E696E66504B01021400140006080800745B1741622074F4FD0000009E0100003500000000000000000000000000780C000039384333364643462D313130422D343639382D414437342D3642434543383543383832392F536368656D61732F636F72652E786D6C504B01021400140006080800745B17413686B931
311
27010000D30300003400000000000000000000000000C80D000039384333364643462D313130422D343639382D414437342D3642434543383543383832392F536368656D61732F636E782E786D6C504B01021400140006080800745B17412F7B2A8D8D0100005E0600003D00000000000000000000000000410F0000393843
311
33364643462D313130422D343639382D414437342D3642434543383543383832392F536368656D61732F436F6D6D6F6E536368656D612E786D6C504B01021400140006080800745B17417229482E27050000001600003E000000000000000000000000002911000039384333364643462D313130422D343639382D41443734
311
2D3642434543383543383832392F536368656D61732F47656E65726963536368656D612E786D6C504B01021400140006080800745B17410A3355BE74010000170400004500000000000000000000000000AC16000039384333364643462D313130422D343639382D414437342D3642434543383543383832392F536368656D
311
61732F52656E6465724D6174657269616C536368656D612E786D6C504B050600000000110011005A060000831800000000
310
504B03040A0000080000745B17413DEE336E79000000790000001B0000006175746F6465736B2D64657369676E2D7061636B6167652E786D6C3C3F786D6C2076657273696F6E3D22312E302220656E636F64696E673D227574662D3822203F3E3C666F726D6174733E3C666F726D61743E687474703A2F2F736368656D612E
310
6175746F6465736B2E636F6D2F64657369676E2D7061636B6167652F323030393C2F666F726D61743E3C2F666F726D6174733E504B0304140006080800745B1741D486FD9CA0000000F4000000130000005B436F6E74656E745F54797065735D2E786D6C7D8EC10E82300C865F65E91D8A1E8C310C0EEA1BF002731658846E
310
D98AC1B77784ABF1D8FE5FBFBF75BBCE937A534CCEB38643598122B6FEE978D0B0485F9C41B54DDD7D022595594E1A469170414C76A4D9A4D207E29CF43ECE46F218070CC6BECC4078ACAA135ACF422C856C0E68EA1BF5669944DDD7BCDE7B1F8E415D77AECB980613C2E4AC91FC167A2B244592486606FC29C8FD7F045B9A
310
EF7053A7E60B504B0304140006080800745B1741632872A2E90000007C01000008000000636F72652E786D6C8D904D6EC3201085AF82D856D8409CF847982C5A73825E0001715062B00C543D7E2171A476D7D58CDEBC6F66F4D8F97BB9832FB305EBDD08498521304E796DDD3CC2142FA883E0CCD9E67DFC6583C0C9C58CB0
310
C890B379F369DD25E55D342E66D5796D765186602204EA9E9B110675358BAC648AD9116ED52AD54DCEA622AF2EC329590D9E47ACCEFBECC59A0D72DA8AFE484E04F5B417A8119340DD49F4A86DA6F78E4EE2F88109AB0BCC59B4CBEBBEDA8C8C46671E138A7087E8E1939081B64343DE3019306675B1FF81D2AAFF0925EBE2
310
81EEEF3EB1007979E431E0AC2E59E4F2082AD7921BFF01504B0304140006080800745B174155019EA25F0000007C00000007000000636E782E786D6C4DCB3B0E80201045D1AD90E915ED2CF8AC45050C11660C8261F98AB1B07AC9C97D42D718D865D3E909258CFD00CCE24AC6E326A164D74DC0B4128928FF326038472BA1
310
3128B1252AC747C6BAB984FC68F0B87FE8960A5C09FE86CFB69FBA01504B0304140006080800745B1741B2291D7C66010000020300000C0000006662782F636F72652E786D6C8D52ED8E8320107C15C2DF8B22D6B6DA20FD71579FE05E802AF548150C82E9E3DFFAD178BD344D63826466677776941D6F6D8306697B65748E
310
6918612475692AA5EB1C7B7709528C8E9C5963DC9F328CB468658E471873565BE3BB052A8D76523B40B5A9E4028ABE970EA3B2814B8EFBF247B62214DE41457F0D3B515E452D431A020D759CF5CE8201340F194FCC2FE71B2333CE99F7AA5A5855C1347551D2621EEF8B6C4B7734C8E2AC0892E25404E9AEC8827D72FA4CE3
310
53B1FD8A2823A39833A7DABBBBD24AE16405FA88C6419406F1E69BD243BC3F24F423A2872862642C7F10F9AE7A53E495769B78B13BCB7ACC472313F16F5B88C8A15E0CE0877046C610E13525FC18340402213B716EEE7B5C011A64E98C4D80A98C5FA941345EC2D4084D0F23330B9DA706B0D9D33EF18B3EAF7BC00714BA06
310
6BC2C1F5ECDD389DCD5397283A6983C1DD9036B615CD6A6EB6B89EEBA0A7F2D234C6BEA326CBAA6409938C7F2FFF05504B0304140006080800745B1741975533857D0000009D0000000B0000006662782F636E782E786D6C4DCCD10A83201886E15B91FFDC6533360535A4DC7D4459C84C87D3B1CB5F8D0E3AFAE0E1E315ED
310
77F5E863D3DBC520A1BE1040368C7172619150F28C19A0568914633EDD008561B5127606259614CBEBA0C9CE43F17953EFC2F3C0CEF09A3DEE374C48C77043598F393757DC534DB5360DD3C640A544F52F6DBB87D50F504B0304140006080800745B1741887EE0682C01000015020000310000006662782F43453931384637
310
362D303043382D343338442D393945322D4433413341414534384145452F636F72652E786D6C8D515B6EC32010BC0AE22B55651B8CE5D81126B212F704BD0031C44589C1E251E5F885DA91DABFFCB068766676B44B8F8FF90EBEA575CAE80EE21C4120F56884D2530783BF660D044746AD31FE0F0D02CD67D9C1044346276B
310
C2B241A3D15E6A1F516D84DC40EE9CF4108CF7F8E9A01BBFE4CC731E7C64B85BBEF0F1C62799E33CB6238F51E76D0C00D621E985EC34B4B8F9D8D71942A726AB4873CEDA7628B333E949DF0F55D30F032D5621A32128B1C9958871D45549FBAA491233EAD5FC8C3F5AC9BD1490950897196AB2927C627C28F7870ABF237C40
310
881689FE4F1416F1A22828ED49B9C55D650E324C8BB5C1A830E1727F86918FC5580FD2BC9D93E31B642847A8AA5B44DA9A162B376E209AD6D566EABCB171C3BBDB25D2C9E65C578C16E948B1FC5E30D67450F603504B0304140006080800745B17414753E9255601000033030000300000006662782F43453931384637362D
310
303043382D343338442D393945322D4433413341414534384145452F636E782E786D6CBD93CD6EC32010845F0571ADFC8363A5568489D4439FA0875E316C121A1B2CC055F3F65D1292E69243A5AA1764CD0E33AB4F986FBFA6917C820FC6D99EB2B2A604AC72DAD87D4F97B82B3A4AB6827BE7E29D8D122B27E86992A9E07B
310
EF96394B1A76721923AAA3B1C72C7A086EF10A02CAE926199D922306802D1614611A406BD0E466C4AF1D785C05C5E144E201C8EBCB3B71C307A81878955204AF5287E0E9CC4D77264AD42843E869500798642997E8348463A96594252BAF5D0F76FA4922E9C2B572F186A4F29EA6938ABC51891C798543C143F4482F9BE269
310
062AE43C8F46C98890ABB3F1E2117C3136AEDBEC3508DEA37BD5ACBB0EC3CE33C1A399203B9407194153D1D4AC29EAAE68566F8C6D9AE74DCB9E6AB6A96B5E25BBE0837363BE8431E0DD4C94B3116CA482F12A8D1FE1CB3EA28D47D6CE9F7E011201E4D60B9D5BC65FF261EB55DBFE239FEAFCBE1197C7BF407C03504B0304
310
140006080800745B174153F083974A0700004F1C0000340000006662782F43453931384637362D303043382D343338442D393945322D4433413341414534384145452F6F626A656374732E786D6CED595B739B4614FE2B0C7D691F84842EAED5C1646C29F6685227996892E983669815ACD0D60B6876175BEAAFEFD90B0890
310
7050E3BEE5C146C0EE77EE973D78EFF609B59E31E3244B6F6CD719D8164EC32C22697C63E762D3BBB6AD77BEC7B24C5496D9568A127C63CBC7B6EFC52CCB77E651843728A7A2F1F4FEEE2F8B8738C5B61552C4F98DCDC32D4E9083729145983F391112C889377BC775F4C23A6CCCD06EDB00DD218653019CC2F314502CCD94
310
5BBF1DD87DDFEBCBF7BE27FF9B55C34EAB46EDABFA4AEA3A9724E502A5E1094B0D9861279646EE78FE7E3899F626E3F1A837BE1ABABDBBFBBB79CFFD7D34985DCD66D3DBF753606F9D65D4C814E11D4E23B0DFC1F65DAF2FDF94A21B0D9CE33ACCD214874A91A02A25561390600EA42AEA1BD46F5D2951E5B592B0723F92EF
310
0D0B95C70D23B4ACEAA8881A2E0862C8151217D7AA7CD9FA6F109C77714AC6B1746A2E1858D7A8874154D8FEC0EBEBA7BEB73EDA82702B41023382A845C99A21064681A57289EFE90D0646060703284B4AA02CA75FD77D0B22F3FBA1738ECB4D4EA98C0CDB57811540F861C11567E41FCC8EDC5735033C818573928A6BC3A5
310
38ECB0ED4FBDBE7AE87BF2321A9A975A91D686A2181C05C4D46F1B82CE64E82FE6B6FFE17EBD5FCA74709EF88E653BCC84743A6947C51738B2B94A2D19B26E27CBC90D208C56AAD97954CA17D0FC47C81E4756C06E8CECC7FBB1592B184AF9266309D8C61A58BD01FC1B58AEFA2F7F577E79FD7273DD7A6DFA843095AABAFE
310
717DD66550BA32FC57D4E97BCFE0F0191B9957CB1051F0E747928282A4935834834790DA37EBBDED2F207142A2875D88FA2E880CEC3EC34FAF6F608E5629C2CB445D0A1A3534865D8C046A531E096CB4D8E901AA0723E1D14C5511DBD43B791377BD9D2F3F2C73B641217E34313DC71B92120155F33C43359DD724826A1732
310
B2935B6DDF0855A60AE78856DBF4840F2F198B403BA7465A568D9418FE3898481A4A5A2B2E34276F5A0884B02FCE648EF2BE4301249705BE82FF487888294529CEF2826E9912A5779769C2341AB63FD276190D1B7ECFF03391AD0844DA71454D13DF74AFF2F055E6911661BE2E3E82D7DA50EFE1F28A473F74500C7F4122DC
310
7E1F6BA9D6F5EE2057443832DA29B5B03E168630A3190BD68740E7CCB3C8DF6A8107E9545B4EA2402CAA082E9253AC650822B2D9E41C32F419FB7D5BCCAA3E327046EEC4AAFE6F84F518F2366401C44C043768042441310E36286A2357A556627305D902CDF086825CE499884380443088707C896A2E029FBE297A4C33CE49
310
8A3954BEB3CAAF6A63E0404AD2D62C5896566D289AF020C102D14B3420615A94AB0A98EA96436842BECF63E9BDAF59AC0AFA3F790443D095666940A0A9DD77D085EB4C869D78076F2BB09518348766243C042F98C45BD1815219928511F5B561C6100E37B908B21D0AC1AD3BC09EC48A346A03748DC22759898230A76FE520
310
1CD34D4028CD9300FE480A67982EA1DD4D0B15709DFB044EA0BD4322675D885C4D06277474F7D14C8115421B42A1F70E12B46BD17A2D21AACEC62A956FD05B82699D27BB0025599E76721467D4F44803DF34AB84EDC8AF6C3AA1012D800DA0EF41B75E96DA226783ABD3000E8662DBA2895A762A2015523BA0CCD410972AF3
310
1D028E921DD507C4937A5BAF646E199EAF136026F0DF964092752A58E386128ACEB6DA6F825665B6CF19316614DB3C59A7889C8FC85A397F4482AF1E74D95EC5FAEAECD2B8200BA0D01595C8D0E894BDE65913B6833F68F0AF0B07A63C2DF00B69BB04A702C98EF451FEA05FD0F932D14E49EF5BC8BEA033AD4F0FCB0BE581
310
1D9DD13FCB5612BF5C48C1EC9AC91EED8454E108E5551E72A0C904B7325E30FA79D4A9CE477E1E75E0580DF95F9F8120A855D633BE22FDF382A38E89E51F3CF1DC1DFE440739F3312DA8B2566D6E154AD7BFE87852D64DD9ACBCC5F1440D564AD4B2BA9D6DB1201117C5A273975864420DD8C6F17FEE26DAAAB32667AC1FEB
310
D41C5CD64DB8279D50ED6CAC8EC4E9490DAEA5EDFBF9F47E3EBC9AF7AEDCFB616F3C98CC7BD3DBC9A4777D3F9CDE4EAFC6B783F7A5EA35B8EF95094F9540B8D789AF782CEF8C58304AE61925114C13222BC6199C6260A6D061E6CF12CC5587724CA691F992D061F7B31ECE0AB4A6B8E0648B60AA4D39140010230F45FDB9F5
310
0BCC53E548F3C6864997F304FF8CA3D91614E01BFB590E2043CC9D35CCC6E4145281376218C207A5B1EC7DF4A6F2BEDC2575532B11E5922EA5C2C8A5F38711007AC41D8CEC6A1312C59B791F5E2478C18E8504FC5CE702FA382DCBF141298C227334BF968D92F4C990DE4334BE2E96EBA835358D741AEFBFEA041AB527108B
310
D5905E326658BA9D7FEEC370D05A7CB276348FC196DD917A0C8333E7B22F022F02AF30983B249BE9D91FABCF2C83EF5289754FC005AC5FF7D757BFAD66599264A97EB4BA850360045FB7ACE516BE55452B68FDB0FC22C057C3813B5AA949BCF93810AC11C70E8AF8133CF0FA3923A5A26BE607BF3CA91A66E6DA97A66878E8
310
626E99BC086DAD063A194CEB2F7316C490FC06242346C57921EDABC3F8BE5A0AAC3218A3FBFF02504B0304140006080000745B1741000000000000000000000000350000006662782F43453931384637362D303043382D343338442D393945322D4433413341414534384145452F76657274696365732E62696E504B030414
310
0006080800745B1741F270F1330600000004000000360000006662782F43453931384637362D303043382D343338442D393945322D4433413341414534384145452F747269616E676C65732E62696E636660600000504B0304140006080000745B1741000000000000000000000000370000006662782F4345393138463736
310
2D303043382D343338442D393945322D4433413341414534384145452F617474726962757465732E62696E504B0304140006080800745B1741B28BD8DE8F00000041010000360000006662782F43453931384637362D303043382D343338442D393945322D4433413341414534384145452F6469726563746F72792E786D6C
310
858F410EC2201045AF4266AF15DDB800BA74E7C21B903225242D6328188F2FA5C4183471359997F9FF81E89FF3C41E1816475E02DF1F80A11FC8386F25A438EECEC07A250251FC3803E6F58C12560C4AD840E95E91C151A72936F496F35732D860FE635F62C8F2DA16B505C545B74125BAA2FA9E05D7CC053D063734D5A766
310
5FD55B6B8D15D5F1BFEAFD8490FFA45E504B0304140006080800745B174170835C3AFC000000A00100003B0000006662782F43453931384637362D303043382D343338442D393945322D4433413341414534384145452F7265736F75726365732F636F72652E786D6C8D504B6EC32010BD8AC5B6C206E2C41F61B268ED13F4
310
02084F5C94182C3E558F5F885DA9DD7533337A1FCDD3E3D7AFF5517C82F3DA9A01D192A0028CB2B336CB8062B8E1161557C19DB5E1970C1546AE30A00C23C11767E37640CA9A002624D4D8190E507A0F0115EA918E0179F501AB2C650C49E1EFE526D55D2E50D232D14927B80F2E0528F6277922E1C0DBE814785EEDACE031
310
EAF9D0E839FDD4370D0E09D64CDD995E08EE5837E17A1A27DC5EA60E37F5F8DAB2713ABF11CAAB6C163CE8F527A3722003CCC94F28C3A4C5ECF44E69CF9ABEA62F84F684F02ACBFF98E236FFD314B5092776C4DD6D1E891CE449085EE5BED27A969976EE567C03504B010214000A0000080000745B17413DEE336E79000000
310
790000001B00000000000000000000000000000000006175746F6465736B2D64657369676E2D7061636B6167652E786D6C504B01021400140006080800745B1741D486FD9CA0000000F40000001300000000000000000000000000B20000005B436F6E74656E745F54797065735D2E786D6C504B0102140014000608080074
310
5B1741632872A2E90000007C010000080000000000000000000000000083010000636F72652E786D6C504B01021400140006080800745B174155019EA25F0000007C000000070000000000000000000000000092020000636E782E786D6C504B01021400140006080800745B1741B2291D7C66010000020300000C00000000
310
000000000000000000160300006662782F636F72652E786D6C504B01021400140006080800745B1741975533857D0000009D0000000B00000000000000000000000000A60400006662782F636E782E786D6C504B01021400140006080800745B1741887EE0682C0100001502000031000000000000000000000000004C0500
310
006662782F43453931384637362D303043382D343338442D393945322D4433413341414534384145452F636F72652E786D6C504B01021400140006080800745B17414753E92556010000330300003000000000000000000000000000C70600006662782F43453931384637362D303043382D343338442D393945322D443341
310
3341414534384145452F636E782E786D6C504B01021400140006080800745B174153F083974A0700004F1C000034000000000000000000000000006B0800006662782F43453931384637362D303043382D343338442D393945322D4433413341414534384145452F6F626A656374732E786D6C504B01021400140006080000
310
745B17410000000000000000000000003500000000000000000000000000071000006662782F43453931384637362D303043382D343338442D393945322D4433413341414534384145452F76657274696365732E62696E504B01021400140006080800745B1741F270F1330600000004000000360000000000000000000000
310
00005A1000006662782F43453931384637362D303043382D343338442D393945322D4433413341414534384145452F747269616E676C65732E62696E504B01021400140006080000745B17410000000000000000000000003700000000000000000000000000B41000006662782F43453931384637362D303043382D343338
310
442D393945322D4433413341414534384145452F617474726962757465732E62696E504B01021400140006080800745B1741B28BD8DE8F000000410100003600000000000000000000000000091100006662782F43453931384637362D303043382D343338442D393945322D4433413341414534384145452F646972656374
310
6F72792E786D6C504B01021400140006080800745B174170835C3AFC000000A00100003B00000000000000000000000000EC1100006662782F43453931384637362D303043382D343338442D393945322D4433413341414534384145452F7265736F75726365732F636F72652E786D6C504B0506000000000E000E00800400
310
00411300000000
  0
XRECORD
  5
17
102
{ACAD_REACTORS
330
12
102
}
330
12
100
AcDbXrecord
280
     1
270
     1
271
     1
  0
XRECORD
  5
16
102
{ACAD_REACTORS
330
12
102
}
330
12
100
AcDbXrecord
280
     1
270
     1
271
     1
  0
XRECORD
  5
18
102
{ACAD_REACTORS
330
12
102
}
330
12
100
AcDbXrecord
280
     1
270
     1
271
     1
  0
XRECORD
  5
15
102
{ACAD_REACTORS
330
12
102
}
330
12
100
AcDbXrecord
280
     1
270
     1
271
     1
  0
XRECORD
  5
8E4
102
{ACAD_REACTORS
330
22
102
}
330
22
100
AcDbXrecord
280
     1
102
MATERIAL
148
0.0
149
0.0
149
0.0
 93
        0
 94
      127
282
     0
 72
     0
 77
     0
171
     0
175
     0
179
     0
273
     0
  0
XRECORD
  5
24
102
{ACAD_REACTORS
330
22
102
}
330
22
100
AcDbXrecord
280
     1
270
     1
271
     1
  0
XRECORD
  5
23
102
{ACAD_REACTORS
330
22
102
}
330
22
100
AcDbXrecord
280
     1
270
     1
271
     1
  0
XRECORD
  5
27
102
{ACAD_REACTORS
330
22
102
}
330
22
100
AcDbXrecord
280
     1
270
     1
271
     1
  0
XRECORD
  5
26
102
{ACAD_REACTORS
330
22
102
}
330
22
100
AcDbXrecord
280
     1
270
     1
271
     1
  0
XRECORD
  5
28
102
{ACAD_REACTORS
330
22
102
}
330
22
100
AcDbXrecord
280
     1
270
     1
271
     1
  0
XRECORD
  5
25
102
{ACAD_REACTORS
330
22
102
}
330
22
100
AcDbXrecord
280
     1
270
     1
271
     1
  0
XRECORD
  5
918
102
{ACAD_REACTORS
330
917
102
}
330
917
100
AcDbXrecord
280
     1
102
ACAD_ROUNDTRIP_2012_MLEADER_STYLE
298
     1
  0
CELLSTYLEMAP
  5
832
102
{ACAD_REACTORS
330
831
102
}
330
831
100
AcDbCellStyleMap
 90
        3
300
CELLSTYLE
  1
TABLEFORMAT_BEGIN
 90
        5
170
     1
 91
        0
 92
    32768
 62
   257
 93
        1
300
CONTENTFORMAT
  1
CONTENTFORMAT_BEGIN
 90
        0
 91
        0
 92
      512
 93
        0
300

 40
0.0
140
1.0
 94
        5
 62
     0
340
55
144
0.25
309
CONTENTFORMAT_END
171
     0
 94
        0
309
TABLEFORMAT_END
  1
CELLSTYLE_BEGIN
 90
        1
 91
        1
300
_TITLE
309
CELLSTYLE_END
300
CELLSTYLE
  1
TABLEFORMAT_BEGIN
 90
        5
170
     1
 91
        0
 92
        0
 62
   257
 93
        1
300
CONTENTFORMAT
  1
CONTENTFORMAT_BEGIN
 90
        0
 91
        0
 92
      512
 93
        0
300

 40
0.0
140
1.0
 94
        5
 62
     0
340
55
144
0.18
309
CONTENTFORMAT_END
171
     0
 94
        0
309
TABLEFORMAT_END
  1
CELLSTYLE_BEGIN
 90
        2
 91
        1
300
_HEADER
309
CELLSTYLE_END
300
CELLSTYLE
  1
TABLEFORMAT_BEGIN
 90
        5
170
     1
 91
        0
 92
        0
 62
   257
 93
        1
300
CONTENTFORMAT
  1
CONTENTFORMAT_BEGIN
 90
        0
 91
        0
 92
      512
 93
        0
300

 40
0.0
140
1.0
 94
        2
 62
     0
340
55
144
0.18
309
CONTENTFORMAT_END
171
     0
 94
        0
309
TABLEFORMAT_END
  1
CELLSTYLE_BEGIN
 90
        3
 91
        2
300
_DATA
309
CELLSTYLE_END
  0
XRECORD
  5
915
102
{ACAD_REACTORS
330
831
102
}
330
831
100
AcDbXrecord
280
     1
102
ACAD_ROUNDTRIP_PRE2007_TABLESTYLE
 90
      512
 91
        0
  1

 92
      512
 93
        0
  2

 94
      512
 95
        0
  3

  0
XRECORD
  5
8F0
102
{ACAD_REACTORS
330
8EF
102
}
330
8EF
100
AcDbXrecord
280
     1
102
RTVSPost2010Prop28
280
     1
102
RTVSPost2010PropOp28
 70
     1
102
RTVSPost2010Prop29
280
     1
102
RTVSPost2010PropOp29
 70
     1
102
RTVSPost2010Prop30
280
     0
102
RTVSPost2010PropOp30
 70
     1
102
RTVSPost2010Prop31
280
     0
102
RTVSPost2010PropOp31
 70
     1
102
RTVSPost2010Prop32
280
     0
102
RTVSPost2010PropOp32
 70
     1
102
RTVSPost2010Prop33
280
     0
102
RTVSPost2010PropOp33
 70
     1
102
RTVSPost2010Prop34
280
     0
102
RTVSPost2010PropOp34
 70
     1
102
RTVSPost2010Prop35
280
     0
102
RTVSPost2010PropOp35
 70
     1
102
RTVSPost2010Prop36
280
     0
102
RTVSPost2010PropOp36
 70
     1
102
RTVSPost2010Prop37
 90
       50
102
RTVSPost2010PropOp37
 70
     1
102
RTVSPost2010Prop38
140
0.0
102
RTVSPost2010PropOp38
 70
     1
102
RTVSPost2010Prop39
140
1.0
102
RTVSPost2010PropOp39
 70
     1
102
RTVSPost2010Prop40
 90
        0
102
RTVSPost2010PropOp40
 70
     1
102
RTVSPost2010Prop41ColorIndex
 90
       18
102
RTVSPost2010Prop41ColorRGB
 90
        0
102
RTVSPost2010PropOp41
 70
     1
102
RTVSPost2010Prop42
 90
       50
102
RTVSPost2010PropOp42
 70
     1
102
RTVSPost2010Prop43
 90
        3
102
RTVSPost2010PropOp43
 70
     1
102
RTVSPost2010Prop44ColorIndex
 90
        5
102
RTVSPost2010Prop44ColorRGB
 90
      255
102
RTVSPost2010PropOp44
 70
     1
102
RTVSPost2010Prop45
280
     0
102
RTVSPost2010PropOp45
 70
     1
102
RTVSPost2010Prop46
 90
       50
102
RTVSPost2010PropOp46
 70
     1
102
RTVSPost2010Prop47
 90
       50
102
RTVSPost2010PropOp47
 70
     1
102
RTVSPost2010Prop48
 90
       50
102
RTVSPost2010PropOp48
 70
     1
102
RTVSPost2010Prop49
280
     0
102
RTVSPost2010PropOp49
 70
     1
102
RTVSPost2010Prop50
 90
       50
102
RTVSPost2010PropOp50
 70
     1
102
RTVSPost2010Prop51ColorIndex
 90
      256
102
RTVSPost2010Prop51ColorRGB
 90
-16777216
102
RTVSPost2010PropOp51
 70
     0
102
RTVSPost2010Prop52
140
1.0
102
RTVSPost2010PropOp52
 70
     0
102
RTVSPost2010Prop53
 90
        2
102
RTVSPost2010PropOp53
 70
     1
102
RTVSPost2010Prop54
  1
strokes_ogs.tif
102
RTVSPost2010PropOp54
 70
     1
102
RTVSPost2010Prop55
280
     0
102
RTVSPost2010PropOp55
 70
     1
102
RTVSPost2010Prop56
140
1.0
102
RTVSPost2010PropOp56
 70
     1
102
RTVSPost2010Prop57
140
1.0
102
RTVSPost2010PropOp57
 70
     1
102
RTVSPropertyOp0
 70
     1
102
RTVSPropertyOp1
 70
     1
102
RTVSPropertyOp2
 70
     1
102
RTVSPropertyOp3
 70
     1
102
RTVSPropertyOp4
 70
     1
102
RTVSPropertyOp5
 70
     1
102
RTVSPropertyOp6
 70
     1
102
RTVSPropertyOp7
 70
     1
102
RTVSPropertyOp8
 70
     1
102
RTVSPropertyOp9
 70
     1
102
RTVSPropertyOp10
 70
     1
102
RTVSPropertyOp11
 70
     1
102
RTVSPropertyOp12
 70
     1
102
RTVSPropertyOp13
 70
     1
102
RTVSPropertyOp14
 70
     1
102
RTVSPropertyOp15
 70
     1
102
RTVSPropertyOp16
 70
     1
102
RTVSPropertyOp17
 70
     1
102
RTVSPropertyOp18
 70
     1
102
RTVSPropertyOp19
 70
     1
102
RTVSPropertyOp20
 70
     1
102
RTVSPropertyOp21
 70
     1
102
RTVSPropertyOp22
 70
     1
102
RTVSPropertyOp23
 70
     1
102
RTVSPropertyOp24
 70
     1
102
RTVSPropertyOp25
 70
     1
102
RTVSPropertyOp26
 70
     1
102
RTVSPropertyOp27
 70
     1
102
RTVSPropertyOp28
 70
     1
102
RTVSPropertyOp29
 70
     1
102
RTVSPropertyOp30
 70
     1
102
RTVSPropertyOp31
 70
     1
102
RTVSPropertyOp32
 70
     1
102
RTVSPropertyOp33
 70
     1
102
RTVSPropertyOp34
 70
     1
102
RTVSPropertyOp35
 70
     1
102
RTVSPropertyOp36
 70
     1
102
RTVSPropertyOp37
 70
     1
102
RTVSPropertyOp38
 70
     1
102
RTVSPropertyOp39
 70
     1
102
RTVSPropertyOp40
 70
     1
102
RTVSPropertyOp41
 70
     1
102
RTVSPropertyOp42
 70
     1
102
RTVSPropertyOp43
 70
     1
102
RTVSPropertyOp44
 70
     1
102
RTVSPropertyOp45
 70
     1
102
RTVSPropertyOp46
 70
     1
102
RTVSPropertyOp47
 70
     1
102
RTVSPropertyOp48
 70
     1
102
RTVSPropertyOp49
 70
     1
102
RTVSPropertyOp50
 70
     1
102
RTVSPropertyOp51
 70
     0
102
RTVSPropertyOp52
 70
     0
102
RTVSPropertyOp53
 70
     1
102
RTVSPropertyOp54
 70
     1
102
RTVSPropertyOp55
 70
     1
102
RTVSPropertyOp56
 70
     1
102
RTVSPropertyOp57
 70
     1
102
RTVSPropertyOp58
 70
     1
102
RTVSPropertyOp59
 70
     1
102
RTVSPropertyOp60
 70
     1
102
RTVSPropertyOp61
 70
     1
102
RTVSPropertyOp62
 70
     1
  0
XRECORD
  5
8EE
102
{ACAD_REACTORS
330
8ED
102
}
330
8ED
100
AcDbXrecord
280
     1
102
RTVSPost2010Prop28
280
     0
102
RTVSPost2010PropOp28
 70
     1
102
RTVSPost2010Prop29
280
     1
102
RTVSPost2010PropOp29
 70
     1
102
RTVSPost2010Prop30
280
     1
102
RTVSPost2010PropOp30
 70
     1
102
RTVSPost2010Prop31
280
     0
102
RTVSPost2010PropOp31
 70
     1
102
RTVSPost2010Prop32
280
     0
102
RTVSPost2010PropOp32
 70
     1
102
RTVSPost2010Prop33
280
     0
102
RTVSPost2010PropOp33
 70
     1
102
RTVSPost2010Prop34
280
     0
102
RTVSPost2010PropOp34
 70
     1
102
RTVSPost2010Prop35
280
     0
102
RTVSPost2010PropOp35
 70
     1
102
RTVSPost2010Prop36
280
     0
102
RTVSPost2010PropOp36
 70
     1
102
RTVSPost2010Prop37
 90
       50
102
RTVSPost2010PropOp37
 70
     1
102
RTVSPost2010Prop38
140
0.0
102
RTVSPost2010PropOp38
 70
     1
102
RTVSPost2010Prop39
140
1.0
102
RTVSPost2010PropOp39
 70
     1
102
RTVSPost2010Prop40
 90
        0
102
RTVSPost2010PropOp40
 70
     1
102
RTVSPost2010Prop41ColorIndex
 90
       18
102
RTVSPost2010Prop41ColorRGB
 90
        0
102
RTVSPost2010PropOp41
 70
     1
102
RTVSPost2010Prop42
 90
       50
102
RTVSPost2010PropOp42
 70
     1
102
RTVSPost2010Prop43
 90
        3
102
RTVSPost2010PropOp43
 70
     1
102
RTVSPost2010Prop44ColorIndex
 90
        5
102
RTVSPost2010Prop44ColorRGB
 90
      255
102
RTVSPost2010PropOp44
 70
     1
102
RTVSPost2010Prop45
280
     0
102
RTVSPost2010PropOp45
 70
     1
102
RTVSPost2010Prop46
 90
       50
102
RTVSPost2010PropOp46
 70
     1
102
RTVSPost2010Prop47
 90
       50
102
RTVSPost2010PropOp47
 70
     1
102
RTVSPost2010Prop48
 90
       50
102
RTVSPost2010PropOp48
 70
     1
102
RTVSPost2010Prop49
280
     0
102
RTVSPost2010PropOp49
 70
     1
102
RTVSPost2010Prop50
 90
       50
102
RTVSPost2010PropOp50
 70
     1
102
RTVSPost2010Prop51ColorIndex
 90
      256
102
RTVSPost2010Prop51ColorRGB
 90
-16777216
102
RTVSPost2010PropOp51
 70
     0
102
RTVSPost2010Prop52
140
1.0
102
RTVSPost2010PropOp52
 70
     0
102
RTVSPost2010Prop53
 90
        2
102
RTVSPost2010PropOp53
 70
     1
102
RTVSPost2010Prop54
  1
strokes_ogs.tif
102
RTVSPost2010PropOp54
 70
     1
102
RTVSPost2010Prop55
280
     0
102
RTVSPost2010PropOp55
 70
     1
102
RTVSPost2010Prop56
140
1.0
102
RTVSPost2010PropOp56
 70
     1
102
RTVSPost2010Prop57
140
1.0
102
RTVSPost2010PropOp57
 70
     1
102
RTVSPropertyOp0
 70
     1
102
RTVSPropertyOp1
 70
     1
102
RTVSPropertyOp2
 70
     1
102
RTVSPropertyOp3
 70
     1
102
RTVSPropertyOp4
 70
     1
102
RTVSPropertyOp5
 70
     1
102
RTVSPropertyOp6
 70
     1
102
RTVSPropertyOp7
 70
     1
102
RTVSPropertyOp8
 70
     1
102
RTVSPropertyOp9
 70
     1
102
RTVSPropertyOp10
 70
     1
102
RTVSPropertyOp11
 70
     1
102
RTVSPropertyOp12
 70
     1
102
RTVSPropertyOp13
 70
     1
102
RTVSPropertyOp14
 70
     1
102
RTVSPropertyOp15
 70
     1
102
RTVSPropertyOp16
 70
     1
102
RTVSPropertyOp17
 70
     1
102
RTVSPropertyOp18
 70
     1
102
RTVSPropertyOp19
 70
     1
102
RTVSPropertyOp20
 70
     1
102
RTVSPropertyOp21
 70
     1
102
RTVSPropertyOp22
 70
     1
102
RTVSPropertyOp23
 70
     1
102
RTVSPropertyOp24
 70
     1
102
RTVSPropertyOp25
 70
     1
102
RTVSPropertyOp26
 70
     1
102
RTVSPropertyOp27
 70
     1
102
RTVSPropertyOp28
 70
     1
102
RTVSPropertyOp29
 70
     1
102
RTVSPropertyOp30
 70
     1
102
RTVSPropertyOp31
 70
     1
102
RTVSPropertyOp32
 70
     1
102
RTVSPropertyOp33
 70
     1
102
RTVSPropertyOp34
 70
     1
102
RTVSPropertyOp35
 70
     1
102
RTVSPropertyOp36
 70
     1
102
RTVSPropertyOp37
 70
     1
102
RTVSPropertyOp38
 70
     1
102
RTVSPropertyOp39
 70
     1
102
RTVSPropertyOp40
 70
     1
102
RTVSPropertyOp41
 70
     1
102
RTVSPropertyOp42
 70
     1
102
RTVSPropertyOp43
 70
     1
102
RTVSPropertyOp44
 70
     1
102
RTVSPropertyOp45
 70
     1
102
RTVSPropertyOp46
 70
     1
102
RTVSPropertyOp47
 70
     1
102
RTVSPropertyOp48
 70
     1
102
RTVSPropertyOp49
 70
     1
102
RTVSPropertyOp50
 70
     1
102
RTVSPropertyOp51
 70
     0
102
RTVSPropertyOp52
 70
     0
102
RTVSPropertyOp53
 70
     1
102
RTVSPropertyOp54
 70
     1
102
RTVSPropertyOp55
 70
     1
102
RTVSPropertyOp56
 70
     1
102
RTVSPropertyOp57
 70
     1
102
RTVSPropertyOp58
 70
     1
102
RTVSPropertyOp59
 70
     1
102
RTVSPropertyOp60
 70
     1
102
RTVSPropertyOp61
 70
     1
102
RTVSPropertyOp62
 70
     1
  0
XRECORD
  5
8FC
102
{ACAD_REACTORS
330
8FB
102
}
330
8FB
100
AcDbXrecord
280
     1
102
RTVSPost2010Prop28
280
     0
102
RTVSPost2010PropOp28
 70
     1
102
RTVSPost2010Prop29
280
     1
102
RTVSPost2010PropOp29
 70
     1
102
RTVSPost2010Prop30
280
     1
102
RTVSPost2010PropOp30
 70
     1
102
RTVSPost2010Prop31
280
     0
102
RTVSPost2010PropOp31
 70
     1
102
RTVSPost2010Prop32
280
     0
102
RTVSPost2010PropOp32
 70
     1
102
RTVSPost2010Prop33
280
     0
102
RTVSPost2010PropOp33
 70
     1
102
RTVSPost2010Prop34
280
     0
102
RTVSPost2010PropOp34
 70
     1
102
RTVSPost2010Prop35
280
     0
102
RTVSPost2010PropOp35
 70
     1
102
RTVSPost2010Prop36
280
     0
102
RTVSPost2010PropOp36
 70
     1
102
RTVSPost2010Prop37
 90
       50
102
RTVSPost2010PropOp37
 70
     1
102
RTVSPost2010Prop38
140
0.0
102
RTVSPost2010PropOp38
 70
     1
102
RTVSPost2010Prop39
140
1.0
102
RTVSPost2010PropOp39
 70
     1
102
RTVSPost2010Prop40
 90
        0
102
RTVSPost2010PropOp40
 70
     1
102
RTVSPost2010Prop41ColorIndex
 90
       18
102
RTVSPost2010Prop41ColorRGB
 90
        0
102
RTVSPost2010PropOp41
 70
     1
102
RTVSPost2010Prop42
 90
       50
102
RTVSPost2010PropOp42
 70
     1
102
RTVSPost2010Prop43
 90
        3
102
RTVSPost2010PropOp43
 70
     1
102
RTVSPost2010Prop44ColorIndex
 90
        5
102
RTVSPost2010Prop44ColorRGB
 90
      255
102
RTVSPost2010PropOp44
 70
     1
102
RTVSPost2010Prop45
280
     0
102
RTVSPost2010PropOp45
 70
     1
102
RTVSPost2010Prop46
 90
       50
102
RTVSPost2010PropOp46
 70
     1
102
RTVSPost2010Prop47
 90
       50
102
RTVSPost2010PropOp47
 70
     1
102
RTVSPost2010Prop48
 90
       50
102
RTVSPost2010PropOp48
 70
     1
102
RTVSPost2010Prop49
280
     0
102
RTVSPost2010PropOp49
 70
     1
102
RTVSPost2010Prop50
 90
       50
102
RTVSPost2010PropOp50
 70
     1
102
RTVSPost2010Prop51ColorIndex
 90
      256
102
RTVSPost2010Prop51ColorRGB
 90
-16777216
102
RTVSPost2010PropOp51
 70
     0
102
RTVSPost2010Prop52
140
1.0
102
RTVSPost2010PropOp52
 70
     0
102
RTVSPost2010Prop53
 90
        2
102
RTVSPost2010PropOp53
 70
     1
102
RTVSPost2010Prop54
  1
strokes_ogs.tif
102
RTVSPost2010PropOp54
 70
     1
102
RTVSPost2010Prop55
280
     0
102
RTVSPost2010PropOp55
 70
     1
102
RTVSPost2010Prop56
140
1.0
102
RTVSPost2010PropOp56
 70
     1
102
RTVSPost2010Prop57
140
1.0
102
RTVSPost2010PropOp57
 70
     1
102
RTVSPropertyOp0
 70
     1
102
RTVSPropertyOp1
 70
     1
102
RTVSPropertyOp2
 70
     1
102
RTVSPropertyOp3
 70
     1
102
RTVSPropertyOp4
 70
     1
102
RTVSPropertyOp5
 70
     1
102
RTVSPropertyOp6
 70
     1
102
RTVSPropertyOp7
 70
     1
102
RTVSPropertyOp8
 70
     1
102
RTVSPropertyOp9
 70
     1
102
RTVSPropertyOp10
 70
     1
102
RTVSPropertyOp11
 70
     1
102
RTVSPropertyOp12
 70
     1
102
RTVSPropertyOp13
 70
     1
102
RTVSPropertyOp14
 70
     1
102
RTVSPropertyOp15
 70
     1
102
RTVSPropertyOp16
 70
     1
102
RTVSPropertyOp17
 70
     1
102
RTVSPropertyOp18
 70
     1
102
RTVSPropertyOp19
 70
     1
102
RTVSPropertyOp20
 70
     1
102
RTVSPropertyOp21
 70
     1
102
RTVSPropertyOp22
 70
     1
102
RTVSPropertyOp23
 70
     1
102
RTVSPropertyOp24
 70
     1
102
RTVSPropertyOp25
 70
     1
102
RTVSPropertyOp26
 70
     1
102
RTVSPropertyOp27
 70
     1
102
RTVSPropertyOp28
 70
     1
102
RTVSPropertyOp29
 70
     1
102
RTVSPropertyOp30
 70
     1
102
RTVSPropertyOp31
 70
     1
102
RTVSPropertyOp32
 70
     1
102
RTVSPropertyOp33
 70
     1
102
RTVSPropertyOp34
 70
     1
102
RTVSPropertyOp35
 70
     1
102
RTVSPropertyOp36
 70
     1
102
RTVSPropertyOp37
 70
     1
102
RTVSPropertyOp38
 70
     1
102
RTVSPropertyOp39
 70
     1
102
RTVSPropertyOp40
 70
     1
102
RTVSPropertyOp41
 70
     1
102
RTVSPropertyOp42
 70
     1
102
RTVSPropertyOp43
 70
     1
102
RTVSPropertyOp44
 70
     1
102
RTVSPropertyOp45
 70
     1
102
RTVSPropertyOp46
 70
     1
102
RTVSPropertyOp47
 70
     1
102
RTVSPropertyOp48
 70
     1
102
RTVSPropertyOp49
 70
     1
102
RTVSPropertyOp50
 70
     1
102
RTVSPropertyOp51
 70
     0
102
RTVSPropertyOp52
 70
     0
102
RTVSPropertyOp53
 70
     1
102
RTVSPropertyOp54
 70
     1
102
RTVSPropertyOp55
 70
     1
102
RTVSPropertyOp56
 70
     1
102
RTVSPropertyOp57
 70
     1
102
RTVSPropertyOp58
 70
     1
102
RTVSPropertyOp59
 70
     1
102
RTVSPropertyOp60
 70
     1
102
RTVSPropertyOp61
 70
     1
102
RTVSPropertyOp62
 70
     1
  0
XRECORD
  5
904
102
{ACAD_REACTORS
330
903
102
}
330
903
100
AcDbXrecord
280
     1
102
RTVSPost2010Prop28
280
     0
102
RTVSPost2010PropOp28
 70
     1
102
RTVSPost2010Prop29
280
     1
102
RTVSPost2010PropOp29
 70
     1
102
RTVSPost2010Prop30
280
     1
102
RTVSPost2010PropOp30
 70
     1
102
RTVSPost2010Prop31
280
     0
102
RTVSPost2010PropOp31
 70
     1
102
RTVSPost2010Prop32
280
     0
102
RTVSPost2010PropOp32
 70
     1
102
RTVSPost2010Prop33
280
     0
102
RTVSPost2010PropOp33
 70
     1
102
RTVSPost2010Prop34
280
     0
102
RTVSPost2010PropOp34
 70
     1
102
RTVSPost2010Prop35
280
     0
102
RTVSPost2010PropOp35
 70
     1
102
RTVSPost2010Prop36
280
     0
102
RTVSPost2010PropOp36
 70
     1
102
RTVSPost2010Prop37
 90
       50
102
RTVSPost2010PropOp37
 70
     1
102
RTVSPost2010Prop38
140
0.0
102
RTVSPost2010PropOp38
 70
     1
102
RTVSPost2010Prop39
140
1.0
102
RTVSPost2010PropOp39
 70
     1
102
RTVSPost2010Prop40
 90
        0
102
RTVSPost2010PropOp40
 70
     1
102
RTVSPost2010Prop41ColorIndex
 90
       18
102
RTVSPost2010Prop41ColorRGB
 90
        0
102
RTVSPost2010PropOp41
 70
     1
102
RTVSPost2010Prop42
 90
       50
102
RTVSPost2010PropOp42
 70
     1
102
RTVSPost2010Prop43
 90
        3
102
RTVSPost2010PropOp43
 70
     1
102
RTVSPost2010Prop44ColorIndex
 90
        5
102
RTVSPost2010Prop44ColorRGB
 90
      255
102
RTVSPost2010PropOp44
 70
     1
102
RTVSPost2010Prop45
280
     0
102
RTVSPost2010PropOp45
 70
     1
102
RTVSPost2010Prop46
 90
       50
102
RTVSPost2010PropOp46
 70
     1
102
RTVSPost2010Prop47
 90
       50
102
RTVSPost2010PropOp47
 70
     1
102
RTVSPost2010Prop48
 90
       50
102
RTVSPost2010PropOp48
 70
     1
102
RTVSPost2010Prop49
280
     0
102
RTVSPost2010PropOp49
 70
     1
102
RTVSPost2010Prop50
 90
       50
102
RTVSPost2010PropOp50
 70
     1
102
RTVSPost2010Prop51ColorIndex
 90
      256
102
RTVSPost2010Prop51ColorRGB
 90
-16777216
102
RTVSPost2010PropOp51
 70
     0
102
RTVSPost2010Prop52
140
1.0
102
RTVSPost2010PropOp52
 70
     0
102
RTVSPost2010Prop53
 90
        2
102
RTVSPost2010PropOp53
 70
     1
102
RTVSPost2010Prop54
  1
strokes_ogs.tif
102
RTVSPost2010PropOp54
 70
     1
102
RTVSPost2010Prop55
280
     0
102
RTVSPost2010PropOp55
 70
     1
102
RTVSPost2010Prop56
140
1.0
102
RTVSPost2010PropOp56
 70
     1
102
RTVSPost2010Prop57
140
1.0
102
RTVSPost2010PropOp57
 70
     1
102
RTVSPropertyOp0
 70
     1
102
RTVSPropertyOp1
 70
     1
102
RTVSPropertyOp2
 70
     1
102
RTVSPropertyOp3
 70
     1
102
RTVSPropertyOp4
 70
     1
102
RTVSPropertyOp5
 70
     1
102
RTVSPropertyOp6
 70
     1
102
RTVSPropertyOp7
 70
     1
102
RTVSPropertyOp8
 70
     1
102
RTVSPropertyOp9
 70
     1
102
RTVSPropertyOp10
 70
     1
102
RTVSPropertyOp11
 70
     1
102
RTVSPropertyOp12
 70
     1
102
RTVSPropertyOp13
 70
     1
102
RTVSPropertyOp14
 70
     1
102
RTVSPropertyOp15
 70
     1
102
RTVSPropertyOp16
 70
     1
102
RTVSPropertyOp17
 70
     1
102
RTVSPropertyOp18
 70
     1
102
RTVSPropertyOp19
 70
     1
102
RTVSPropertyOp20
 70
     1
102
RTVSPropertyOp21
 70
     1
102
RTVSPropertyOp22
 70
     1
102
RTVSPropertyOp23
 70
     1
102
RTVSPropertyOp24
 70
     1
102
RTVSPropertyOp25
 70
     1
102
RTVSPropertyOp26
 70
     1
102
RTVSPropertyOp27
 70
     1
102
RTVSPropertyOp28
 70
     1
102
RTVSPropertyOp29
 70
     1
102
RTVSPropertyOp30
 70
     1
102
RTVSPropertyOp31
 70
     1
102
RTVSPropertyOp32
 70
     1
102
RTVSPropertyOp33
 70
     1
102
RTVSPropertyOp34
 70
     1
102
RTVSPropertyOp35
 70
     1
102
RTVSPropertyOp36
 70
     1
102
RTVSPropertyOp37
 70
     1
102
RTVSPropertyOp38
 70
     1
102
RTVSPropertyOp39
 70
     1
102
RTVSPropertyOp40
 70
     1
102
RTVSPropertyOp41
 70
     1
102
RTVSPropertyOp42
 70
     1
102
RTVSPropertyOp43
 70
     1
102
RTVSPropertyOp44
 70
     1
102
RTVSPropertyOp45
 70
     1
102
RTVSPropertyOp46
 70
     1
102
RTVSPropertyOp47
 70
     1
102
RTVSPropertyOp48
 70
     1
102
RTVSPropertyOp49
 70
     1
102
RTVSPropertyOp50
 70
     1
102
RTVSPropertyOp51
 70
     0
102
RTVSPropertyOp52
 70
     0
102
RTVSPropertyOp53
 70
     1
102
RTVSPropertyOp54
 70
     1
102
RTVSPropertyOp55
 70
     1
102
RTVSPropertyOp56
 70
     1
102
RTVSPropertyOp57
 70
     1
102
RTVSPropertyOp58
 70
     1
102
RTVSPropertyOp59
 70
     1
102
RTVSPropertyOp60
 70
     1
102
RTVSPropertyOp61
 70
     1
102
RTVSPropertyOp62
 70
     1
  0
XRECORD
  5
8F6
102
{ACAD_REACTORS
330
8F5
102
}
330
8F5
100
AcDbXrecord
280
     1
102
RTVSPost2010Prop28
280
     0
102
RTVSPost2010PropOp28
 70
     1
102
RTVSPost2010Prop29
280
     1
102
RTVSPost2010PropOp29
 70
     1
102
RTVSPost2010Prop30
280
     1
102
RTVSPost2010PropOp30
 70
     1
102
RTVSPost2010Prop31
280
     0
102
RTVSPost2010PropOp31
 70
     1
102
RTVSPost2010Prop32
280
     0
102
RTVSPost2010PropOp32
 70
     1
102
RTVSPost2010Prop33
280
     0
102
RTVSPost2010PropOp33
 70
     1
102
RTVSPost2010Prop34
280
     0
102
RTVSPost2010PropOp34
 70
     1
102
RTVSPost2010Prop35
280
     0
102
RTVSPost2010PropOp35
 70
     1
102
RTVSPost2010Prop36
280
     0
102
RTVSPost2010PropOp36
 70
     1
102
RTVSPost2010Prop37
 90
       50
102
RTVSPost2010PropOp37
 70
     1
102
RTVSPost2010Prop38
140
0.0
102
RTVSPost2010PropOp38
 70
     1
102
RTVSPost2010Prop39
140
1.0
102
RTVSPost2010PropOp39
 70
     1
102
RTVSPost2010Prop40
 90
        0
102
RTVSPost2010PropOp40
 70
     1
102
RTVSPost2010Prop41ColorIndex
 90
       18
102
RTVSPost2010Prop41ColorRGB
 90
        0
102
RTVSPost2010PropOp41
 70
     1
102
RTVSPost2010Prop42
 90
       50
102
RTVSPost2010PropOp42
 70
     1
102
RTVSPost2010Prop43
 90
        3
102
RTVSPost2010PropOp43
 70
     1
102
RTVSPost2010Prop44ColorIndex
 90
        5
102
RTVSPost2010Prop44ColorRGB
 90
      255
102
RTVSPost2010PropOp44
 70
     1
102
RTVSPost2010Prop45
280
     0
102
RTVSPost2010PropOp45
 70
     1
102
RTVSPost2010Prop46
 90
       50
102
RTVSPost2010PropOp46
 70
     1
102
RTVSPost2010Prop47
 90
       50
102
RTVSPost2010PropOp47
 70
     1
102
RTVSPost2010Prop48
 90
       50
102
RTVSPost2010PropOp48
 70
     1
102
RTVSPost2010Prop49
280
     0
102
RTVSPost2010PropOp49
 70
     1
102
RTVSPost2010Prop50
 90
       50
102
RTVSPost2010PropOp50
 70
     1
102
RTVSPost2010Prop51ColorIndex
 90
      256
102
RTVSPost2010Prop51ColorRGB
 90
-16777216
102
RTVSPost2010PropOp51
 70
     0
102
RTVSPost2010Prop52
140
1.0
102
RTVSPost2010PropOp52
 70
     0
102
RTVSPost2010Prop53
 90
        2
102
RTVSPost2010PropOp53
 70
     1
102
RTVSPost2010Prop54
  1
strokes_ogs.tif
102
RTVSPost2010PropOp54
 70
     1
102
RTVSPost2010Prop55
280
     0
102
RTVSPost2010PropOp55
 70
     1
102
RTVSPost2010Prop56
140
1.0
102
RTVSPost2010PropOp56
 70
     1
102
RTVSPost2010Prop57
140
1.0
102
RTVSPost2010PropOp57
 70
     1
102
RTVSPropertyOp0
 70
     1
102
RTVSPropertyOp1
 70
     1
102
RTVSPropertyOp2
 70
     1
102
RTVSPropertyOp3
 70
     1
102
RTVSPropertyOp4
 70
     1
102
RTVSPropertyOp5
 70
     1
102
RTVSPropertyOp6
 70
     1
102
RTVSPropertyOp7
 70
     1
102
RTVSPropertyOp8
 70
     1
102
RTVSPropertyOp9
 70
     1
102
RTVSPropertyOp10
 70
     1
102
RTVSPropertyOp11
 70
     1
102
RTVSPropertyOp12
 70
     1
102
RTVSPropertyOp13
 70
     1
102
RTVSPropertyOp14
 70
     1
102
RTVSPropertyOp15
 70
     1
102
RTVSPropertyOp16
 70
     1
102
RTVSPropertyOp17
 70
     1
102
RTVSPropertyOp18
 70
     1
102
RTVSPropertyOp19
 70
     1
102
RTVSPropertyOp20
 70
     1
102
RTVSPropertyOp21
 70
     1
102
RTVSPropertyOp22
 70
     1
102
RTVSPropertyOp23
 70
     1
102
RTVSPropertyOp24
 70
     1
102
RTVSPropertyOp25
 70
     1
102
RTVSPropertyOp26
 70
     1
102
RTVSPropertyOp27
 70
     1
102
RTVSPropertyOp28
 70
     1
102
RTVSPropertyOp29
 70
     1
102
RTVSPropertyOp30
 70
     1
102
RTVSPropertyOp31
 70
     1
102
RTVSPropertyOp32
 70
     1
102
RTVSPropertyOp33
 70
     1
102
RTVSPropertyOp34
 70
     1
102
RTVSPropertyOp35
 70
     1
102
RTVSPropertyOp36
 70
     1
102
RTVSPropertyOp37
 70
     1
102
RTVSPropertyOp38
 70
     1
102
RTVSPropertyOp39
 70
     1
102
RTVSPropertyOp40
 70
     1
102
RTVSPropertyOp41
 70
     1
102
RTVSPropertyOp42
 70
     1
102
RTVSPropertyOp43
 70
     1
102
RTVSPropertyOp44
 70
     1
102
RTVSPropertyOp45
 70
     1
102
RTVSPropertyOp46
 70
     1
102
RTVSPropertyOp47
 70
     1
102
RTVSPropertyOp48
 70
     1
102
RTVSPropertyOp49
 70
     1
102
RTVSPropertyOp50
 70
     1
102
RTVSPropertyOp51
 70
     0
102
RTVSPropertyOp52
 70
     0
102
RTVSPropertyOp53
 70
     1
102
RTVSPropertyOp54
 70
     1
102
RTVSPropertyOp55
 70
     1
102
RTVSPropertyOp56
 70
     1
102
RTVSPropertyOp57
 70
     1
102
RTVSPropertyOp58
 70
     1
102
RTVSPropertyOp59
 70
     1
102
RTVSPropertyOp60
 70
     1
102
RTVSPropertyOp61
 70
     1
102
RTVSPropertyOp62
 70
     1
  0
XRECORD
  5
8FA
102
{ACAD_REACTORS
330
8F9
102
}
330
8F9
100
AcDbXrecord
280
     1
102
RTVSPost2010Prop28
280
     0
102
RTVSPost2010PropOp28
 70
     1
102
RTVSPost2010Prop29
280
     1
102
RTVSPost2010PropOp29
 70
     1
102
RTVSPost2010Prop30
280
     1
102
RTVSPost2010PropOp30
 70
     1
102
RTVSPost2010Prop31
280
     0
102
RTVSPost2010PropOp31
 70
     1
102
RTVSPost2010Prop32
280
     0
102
RTVSPost2010PropOp32
 70
     1
102
RTVSPost2010Prop33
280
     0
102
RTVSPost2010PropOp33
 70
     1
102
RTVSPost2010Prop34
280
     0
102
RTVSPost2010PropOp34
 70
     1
102
RTVSPost2010Prop35
280
     0
102
RTVSPost2010PropOp35
 70
     1
102
RTVSPost2010Prop36
280
     0
102
RTVSPost2010PropOp36
 70
     1
102
RTVSPost2010Prop37
 90
       50
102
RTVSPost2010PropOp37
 70
     1
102
RTVSPost2010Prop38
140
0.0
102
RTVSPost2010PropOp38
 70
     1
102
RTVSPost2010Prop39
140
1.0
102
RTVSPost2010PropOp39
 70
     1
102
RTVSPost2010Prop40
 90
        0
102
RTVSPost2010PropOp40
 70
     1
102
RTVSPost2010Prop41ColorIndex
 90
       18
102
RTVSPost2010Prop41ColorRGB
 90
        0
102
RTVSPost2010PropOp41
 70
     1
102
RTVSPost2010Prop42
 90
       50
102
RTVSPost2010PropOp42
 70
     1
102
RTVSPost2010Prop43
 90
        3
102
RTVSPost2010PropOp43
 70
     1
102
RTVSPost2010Prop44ColorIndex
 90
        5
102
RTVSPost2010Prop44ColorRGB
 90
      255
102
RTVSPost2010PropOp44
 70
     1
102
RTVSPost2010Prop45
280
     0
102
RTVSPost2010PropOp45
 70
     1
102
RTVSPost2010Prop46
 90
       50
102
RTVSPost2010PropOp46
 70
     1
102
RTVSPost2010Prop47
 90
       50
102
RTVSPost2010PropOp47
 70
     1
102
RTVSPost2010Prop48
 90
       50
102
RTVSPost2010PropOp48
 70
     1
102
RTVSPost2010Prop49
280
     0
102
RTVSPost2010PropOp49
 70
     1
102
RTVSPost2010Prop50
 90
       50
102
RTVSPost2010PropOp50
 70
     1
102
RTVSPost2010Prop51ColorIndex
 90
      256
102
RTVSPost2010Prop51ColorRGB
 90
-16777216
102
RTVSPost2010PropOp51
 70
     0
102
RTVSPost2010Prop52
140
1.0
102
RTVSPost2010PropOp52
 70
     0
102
RTVSPost2010Prop53
 90
        2
102
RTVSPost2010PropOp53
 70
     1
102
RTVSPost2010Prop54
  1
strokes_ogs.tif
102
RTVSPost2010PropOp54
 70
     1
102
RTVSPost2010Prop55
280
     0
102
RTVSPost2010PropOp55
 70
     1
102
RTVSPost2010Prop56
140
1.0
102
RTVSPost2010PropOp56
 70
     1
102
RTVSPost2010Prop57
140
1.0
102
RTVSPost2010PropOp57
 70
     1
102
RTVSPropertyOp0
 70
     1
102
RTVSPropertyOp1
 70
     1
102
RTVSPropertyOp2
 70
     1
102
RTVSPropertyOp3
 70
     1
102
RTVSPropertyOp4
 70
     1
102
RTVSPropertyOp5
 70
     1
102
RTVSPropertyOp6
 70
     1
102
RTVSPropertyOp7
 70
     1
102
RTVSPropertyOp8
 70
     1
102
RTVSPropertyOp9
 70
     1
102
RTVSPropertyOp10
 70
     1
102
RTVSPropertyOp11
 70
     1
102
RTVSPropertyOp12
 70
     1
102
RTVSPropertyOp13
 70
     1
102
RTVSPropertyOp14
 70
     1
102
RTVSPropertyOp15
 70
     1
102
RTVSPropertyOp16
 70
     1
102
RTVSPropertyOp17
 70
     1
102
RTVSPropertyOp18
 70
     1
102
RTVSPropertyOp19
 70
     1
102
RTVSPropertyOp20
 70
     1
102
RTVSPropertyOp21
 70
     1
102
RTVSPropertyOp22
 70
     1
102
RTVSPropertyOp23
 70
     1
102
RTVSPropertyOp24
 70
     1
102
RTVSPropertyOp25
 70
     1
102
RTVSPropertyOp26
 70
     1
102
RTVSPropertyOp27
 70
     1
102
RTVSPropertyOp28
 70
     1
102
RTVSPropertyOp29
 70
     1
102
RTVSPropertyOp30
 70
     1
102
RTVSPropertyOp31
 70
     1
102
RTVSPropertyOp32
 70
     1
102
RTVSPropertyOp33
 70
     1
102
RTVSPropertyOp34
 70
     1
102
RTVSPropertyOp35
 70
     1
102
RTVSPropertyOp36
 70
     1
102
RTVSPropertyOp37
 70
     1
102
RTVSPropertyOp38
 70
     1
102
RTVSPropertyOp39
 70
     1
102
RTVSPropertyOp40
 70
     1
102
RTVSPropertyOp41
 70
     1
102
RTVSPropertyOp42
 70
     1
102
RTVSPropertyOp43
 70
     1
102
RTVSPropertyOp44
 70
     1
102
RTVSPropertyOp45
 70
     1
102
RTVSPropertyOp46
 70
     1
102
RTVSPropertyOp47
 70
     1
102
RTVSPropertyOp48
 70
     1
102
RTVSPropertyOp49
 70
     1
102
RTVSPropertyOp50
 70
     1
102
RTVSPropertyOp51
 70
     0
102
RTVSPropertyOp52
 70
     0
102
RTVSPropertyOp53
 70
     1
102
RTVSPropertyOp54
 70
     1
102
RTVSPropertyOp55
 70
     1
102
RTVSPropertyOp56
 70
     1
102
RTVSPropertyOp57
 70
     1
102
RTVSPropertyOp58
 70
     1
102
RTVSPropertyOp59
 70
     1
102
RTVSPropertyOp60
 70
     1
102
RTVSPropertyOp61
 70
     1
102
RTVSPropertyOp62
 70
     1
  0
XRECORD
  5
914
102
{ACAD_REACTORS
330
913
102
}
330
913
100
AcDbXrecord
280
     1
102
RTVSPost2010Prop28
280
     0
102
RTVSPost2010PropOp28
 70
     0
102
RTVSPost2010Prop29
280
     1
102
RTVSPost2010PropOp29
 70
     0
102
RTVSPost2010Prop30
280
     1
102
RTVSPost2010PropOp30
 70
     0
102
RTVSPost2010Prop31
280
     0
102
RTVSPost2010PropOp31
 70
     0
102
RTVSPost2010Prop32
280
     0
102
RTVSPost2010PropOp32
 70
     0
102
RTVSPost2010Prop33
280
     0
102
RTVSPost2010PropOp33
 70
     0
102
RTVSPost2010Prop34
280
     0
102
RTVSPost2010PropOp34
 70
     0
102
RTVSPost2010Prop35
280
     0
102
RTVSPost2010PropOp35
 70
     0
102
RTVSPost2010Prop36
280
     0
102
RTVSPost2010PropOp36
 70
     0
102
RTVSPost2010Prop37
 90
       50
102
RTVSPost2010PropOp37
 70
     0
102
RTVSPost2010Prop38
140
0.0
102
RTVSPost2010PropOp38
 70
     0
102
RTVSPost2010Prop39
140
1.0
102
RTVSPost2010PropOp39
 70
     0
102
RTVSPost2010Prop40
 90
        0
102
RTVSPost2010PropOp40
 70
     0
102
RTVSPost2010Prop41ColorIndex
 90
       18
102
RTVSPost2010Prop41ColorRGB
 90
        0
102
RTVSPost2010PropOp41
 70
     0
102
RTVSPost2010Prop42
 90
       50
102
RTVSPost2010PropOp42
 70
     0
102
RTVSPost2010Prop43
 90
        3
102
RTVSPost2010PropOp43
 70
     0
102
RTVSPost2010Prop44ColorIndex
 90
        5
102
RTVSPost2010Prop44ColorRGB
 90
      255
102
RTVSPost2010PropOp44
 70
     0
102
RTVSPost2010Prop45
280
     0
102
RTVSPost2010PropOp45
 70
     0
102
RTVSPost2010Prop46
 90
       50
102
RTVSPost2010PropOp46
 70
     0
102
RTVSPost2010Prop47
 90
       50
102
RTVSPost2010PropOp47
 70
     0
102
RTVSPost2010Prop48
 90
       50
102
RTVSPost2010PropOp48
 70
     0
102
RTVSPost2010Prop49
280
     0
102
RTVSPost2010PropOp49
 70
     0
102
RTVSPost2010Prop50
 90
       50
102
RTVSPost2010PropOp50
 70
     0
102
RTVSPost2010Prop51ColorIndex
 90
      256
102
RTVSPost2010Prop51ColorRGB
 90
-16777216
102
RTVSPost2010PropOp51
 70
     0
102
RTVSPost2010Prop52
140
1.0
102
RTVSPost2010PropOp52
 70
     0
102
RTVSPost2010Prop53
 90
        2
102
RTVSPost2010PropOp53
 70
     0
102
RTVSPost2010Prop54
  1
strokes_ogs.tif
102
RTVSPost2010PropOp54
 70
     0
102
RTVSPost2010Prop55
280
     0
102
RTVSPost2010PropOp55
 70
     0
102
RTVSPost2010Prop56
140
1.0
102
RTVSPost2010PropOp56
 70
     0
102
RTVSPost2010Prop57
140
1.0
102
RTVSPost2010PropOp57
 70
     0
102
RTVSPropertyOp0
 70
     0
102
RTVSPropertyOp1
 70
     0
102
RTVSPropertyOp2
 70
     0
102
RTVSPropertyOp3
 70
     0
102
RTVSPropertyOp4
 70
     0
102
RTVSPropertyOp5
 70
     0
102
RTVSPropertyOp6
 70
     0
102
RTVSPropertyOp7
 70
     0
102
RTVSPropertyOp8
 70
     0
102
RTVSPropertyOp9
 70
     0
102
RTVSPropertyOp10
 70
     0
102
RTVSPropertyOp11
 70
     0
102
RTVSPropertyOp12
 70
     0
102
RTVSPropertyOp13
 70
     0
102
RTVSPropertyOp14
 70
     2
102
RTVSPropertyOp15
 70
     0
102
RTVSPropertyOp16
 70
     0
102
RTVSPropertyOp17
 70
     0
102
RTVSPropertyOp18
 70
     0
102
RTVSPropertyOp19
 70
     0
102
RTVSPropertyOp20
 70
     0
102
RTVSPropertyOp21
 70
     0
102
RTVSPropertyOp22
 70
     0
102
RTVSPropertyOp23
 70
     0
102
RTVSPropertyOp24
 70
     0
102
RTVSPropertyOp25
 70
     0
102
RTVSPropertyOp26
 70
     0
102
RTVSPropertyOp27
 70
     0
102
RTVSPropertyOp28
 70
     0
102
RTVSPropertyOp29
 70
     0
102
RTVSPropertyOp30
 70
     0
102
RTVSPropertyOp31
 70
     0
102
RTVSPropertyOp32
 70
     0
102
RTVSPropertyOp33
 70
     0
102
RTVSPropertyOp34
 70
     0
102
RTVSPropertyOp35
 70
     0
102
RTVSPropertyOp36
 70
     0
102
RTVSPropertyOp37
 70
     0
102
RTVSPropertyOp38
 70
     0
102
RTVSPropertyOp39
 70
     0
102
RTVSPropertyOp40
 70
     0
102
RTVSPropertyOp41
 70
     0
102
RTVSPropertyOp42
 70
     0
102
RTVSPropertyOp43
 70
     0
102
RTVSPropertyOp44
 70
     0
102
RTVSPropertyOp45
 70
     0
102
RTVSPropertyOp46
 70
     0
102
RTVSPropertyOp47
 70
     0
102
RTVSPropertyOp48
 70
     0
102
RTVSPropertyOp49
 70
     0
102
RTVSPropertyOp50
 70
     0
102
RTVSPropertyOp51
 70
     0
102
RTVSPropertyOp52
 70
     0
102
RTVSPropertyOp53
 70
     0
102
RTVSPropertyOp54
 70
     0
102
RTVSPropertyOp55
 70
     0
102
RTVSPropertyOp56
 70
     0
102
RTVSPropertyOp57
 70
     0
102
RTVSPropertyOp58
 70
     0
102
RTVSPropertyOp59
 70
     0
102
RTVSPropertyOp60
 70
     0
102
RTVSPropertyOp61
 70
     0
102
RTVSPropertyOp62
 70
     0
  0
XRECORD
  5
902
102
{ACAD_REACTORS
330
901
102
}
330
901
100
AcDbXrecord
280
     1
102
RTVSPost2010Prop28
280
     0
102
RTVSPost2010PropOp28
 70
     1
102
RTVSPost2010Prop29
280
     1
102
RTVSPost2010PropOp29
 70
     1
102
RTVSPost2010Prop30
280
     1
102
RTVSPost2010PropOp30
 70
     1
102
RTVSPost2010Prop31
280
     0
102
RTVSPost2010PropOp31
 70
     1
102
RTVSPost2010Prop32
280
     0
102
RTVSPost2010PropOp32
 70
     1
102
RTVSPost2010Prop33
280
     0
102
RTVSPost2010PropOp33
 70
     1
102
RTVSPost2010Prop34
280
     0
102
RTVSPost2010PropOp34
 70
     1
102
RTVSPost2010Prop35
280
     0
102
RTVSPost2010PropOp35
 70
     1
102
RTVSPost2010Prop36
280
     0
102
RTVSPost2010PropOp36
 70
     1
102
RTVSPost2010Prop37
 90
       50
102
RTVSPost2010PropOp37
 70
     1
102
RTVSPost2010Prop38
140
0.0
102
RTVSPost2010PropOp38
 70
     1
102
RTVSPost2010Prop39
140
1.0
102
RTVSPost2010PropOp39
 70
     1
102
RTVSPost2010Prop40
 90
        0
102
RTVSPost2010PropOp40
 70
     1
102
RTVSPost2010Prop41ColorIndex
 90
       18
102
RTVSPost2010Prop41ColorRGB
 90
        0
102
RTVSPost2010PropOp41
 70
     1
102
RTVSPost2010Prop42
 90
       50
102
RTVSPost2010PropOp42
 70
     1
102
RTVSPost2010Prop43
 90
        3
102
RTVSPost2010PropOp43
 70
     1
102
RTVSPost2010Prop44ColorIndex
 90
        5
102
RTVSPost2010Prop44ColorRGB
 90
      255
102
RTVSPost2010PropOp44
 70
     1
102
RTVSPost2010Prop45
280
     0
102
RTVSPost2010PropOp45
 70
     1
102
RTVSPost2010Prop46
 90
       50
102
RTVSPost2010PropOp46
 70
     1
102
RTVSPost2010Prop47
 90
       50
102
RTVSPost2010PropOp47
 70
     1
102
RTVSPost2010Prop48
 90
       50
102
RTVSPost2010PropOp48
 70
     1
102
RTVSPost2010Prop49
280
     0
102
RTVSPost2010PropOp49
 70
     1
102
RTVSPost2010Prop50
 90
       50
102
RTVSPost2010PropOp50
 70
     1
102
RTVSPost2010Prop51ColorIndex
 90
      256
102
RTVSPost2010Prop51ColorRGB
 90
-16777216
102
RTVSPost2010PropOp51
 70
     0
102
RTVSPost2010Prop52
140
1.0
102
RTVSPost2010PropOp52
 70
     0
102
RTVSPost2010Prop53
 90
        2
102
RTVSPost2010PropOp53
 70
     1
102
RTVSPost2010Prop54
  1
strokes_ogs.tif
102
RTVSPost2010PropOp54
 70
     1
102
RTVSPost2010Prop55
280
     0
102
RTVSPost2010PropOp55
 70
     1
102
RTVSPost2010Prop56
140
1.0
102
RTVSPost2010PropOp56
 70
     1
102
RTVSPost2010Prop57
140
1.0
102
RTVSPost2010PropOp57
 70
     1
102
RTVSPropertyOp0
 70
     1
102
RTVSPropertyOp1
 70
     1
102
RTVSPropertyOp2
 70
     1
102
RTVSPropertyOp3
 70
     1
102
RTVSPropertyOp4
 70
     1
102
RTVSPropertyOp5
 70
     1
102
RTVSPropertyOp6
 70
     1
102
RTVSPropertyOp7
 70
     1
102
RTVSPropertyOp8
 70
     1
102
RTVSPropertyOp9
 70
     1
102
RTVSPropertyOp10
 70
     1
102
RTVSPropertyOp11
 70
     1
102
RTVSPropertyOp12
 70
     1
102
RTVSPropertyOp13
 70
     1
102
RTVSPropertyOp14
 70
     1
102
RTVSPropertyOp15
 70
     1
102
RTVSPropertyOp16
 70
     1
102
RTVSPropertyOp17
 70
     1
102
RTVSPropertyOp18
 70
     1
102
RTVSPropertyOp19
 70
     1
102
RTVSPropertyOp20
 70
     1
102
RTVSPropertyOp21
 70
     1
102
RTVSPropertyOp22
 70
     1
102
RTVSPropertyOp23
 70
     1
102
RTVSPropertyOp24
 70
     1
102
RTVSPropertyOp25
 70
     1
102
RTVSPropertyOp26
 70
     1
102
RTVSPropertyOp27
 70
     1
102
RTVSPropertyOp28
 70
     1
102
RTVSPropertyOp29
 70
     1
102
RTVSPropertyOp30
 70
     1
102
RTVSPropertyOp31
 70
     1
102
RTVSPropertyOp32
 70
     1
102
RTVSPropertyOp33
 70
     1
102
RTVSPropertyOp34
 70
     1
102
RTVSPropertyOp35
 70
     1
102
RTVSPropertyOp36
 70
     1
102
RTVSPropertyOp37
 70
     1
102
RTVSPropertyOp38
 70
     1
102
RTVSPropertyOp39
 70
     1
102
RTVSPropertyOp40
 70
     1
102
RTVSPropertyOp41
 70
     1
102
RTVSPropertyOp42
 70
     1
102
RTVSPropertyOp43
 70
     1
102
RTVSPropertyOp44
 70
     1
102
RTVSPropertyOp45
 70
     1
102
RTVSPropertyOp46
 70
     1
102
RTVSPropertyOp47
 70
     1
102
RTVSPropertyOp48
 70
     1
102
RTVSPropertyOp49
 70
     1
102
RTVSPropertyOp50
 70
     1
102
RTVSPropertyOp51
 70
     0
102
RTVSPropertyOp52
 70
     0
102
RTVSPropertyOp53
 70
     1
102
RTVSPropertyOp54
 70
     1
102
RTVSPropertyOp55
 70
     1
102
RTVSPropertyOp56
 70
     1
102
RTVSPropertyOp57
 70
     1
102
RTVSPropertyOp58
 70
     1
102
RTVSPropertyOp59
 70
     1
102
RTVSPropertyOp60
 70
     1
102
RTVSPropertyOp61
 70
     1
102
RTVSPropertyOp62
 70
     1
  0
XRECORD
  5
8E6
102
{ACAD_REACTORS
330
8E5
102
}
330
8E5
100
AcDbXrecord
280
     1
102
RTVSPost2010Prop28
280
     0
102
RTVSPost2010PropOp28
 70
     1
102
RTVSPost2010Prop29
280
     1
102
RTVSPost2010PropOp29
 70
     1
102
RTVSPost2010Prop30
280
     1
102
RTVSPost2010PropOp30
 70
     1
102
RTVSPost2010Prop31
280
     0
102
RTVSPost2010PropOp31
 70
     1
102
RTVSPost2010Prop32
280
     0
102
RTVSPost2010PropOp32
 70
     1
102
RTVSPost2010Prop33
280
     0
102
RTVSPost2010PropOp33
 70
     1
102
RTVSPost2010Prop34
280
     0
102
RTVSPost2010PropOp34
 70
     1
102
RTVSPost2010Prop35
280
     0
102
RTVSPost2010PropOp35
 70
     1
102
RTVSPost2010Prop36
280
     0
102
RTVSPost2010PropOp36
 70
     1
102
RTVSPost2010Prop37
 90
       50
102
RTVSPost2010PropOp37
 70
     1
102
RTVSPost2010Prop38
140
0.0
102
RTVSPost2010PropOp38
 70
     1
102
RTVSPost2010Prop39
140
1.0
102
RTVSPost2010PropOp39
 70
     1
102
RTVSPost2010Prop40
 90
        0
102
RTVSPost2010PropOp40
 70
     1
102
RTVSPost2010Prop41ColorIndex
 90
       18
102
RTVSPost2010Prop41ColorRGB
 90
        0
102
RTVSPost2010PropOp41
 70
     1
102
RTVSPost2010Prop42
 90
       50
102
RTVSPost2010PropOp42
 70
     1
102
RTVSPost2010Prop43
 90
        3
102
RTVSPost2010PropOp43
 70
     1
102
RTVSPost2010Prop44ColorIndex
 90
        5
102
RTVSPost2010Prop44ColorRGB
 90
      255
102
RTVSPost2010PropOp44
 70
     1
102
RTVSPost2010Prop45
280
     0
102
RTVSPost2010PropOp45
 70
     1
102
RTVSPost2010Prop46
 90
       50
102
RTVSPost2010PropOp46
 70
     1
102
RTVSPost2010Prop47
 90
       50
102
RTVSPost2010PropOp47
 70
     1
102
RTVSPost2010Prop48
 90
       50
102
RTVSPost2010PropOp48
 70
     1
102
RTVSPost2010Prop49
280
     0
102
RTVSPost2010PropOp49
 70
     1
102
RTVSPost2010Prop50
 90
       50
102
RTVSPost2010PropOp50
 70
     1
102
RTVSPost2010Prop51ColorIndex
 90
      256
102
RTVSPost2010Prop51ColorRGB
 90
-16777216
102
RTVSPost2010PropOp51
 70
     0
102
RTVSPost2010Prop52
140
1.0
102
RTVSPost2010PropOp52
 70
     0
102
RTVSPost2010Prop53
 90
        2
102
RTVSPost2010PropOp53
 70
     1
102
RTVSPost2010Prop54
  1
strokes_ogs.tif
102
RTVSPost2010PropOp54
 70
     1
102
RTVSPost2010Prop55
280
     0
102
RTVSPost2010PropOp55
 70
     1
102
RTVSPost2010Prop56
140
1.0
102
RTVSPost2010PropOp56
 70
     1
102
RTVSPost2010Prop57
140
1.0
102
RTVSPost2010PropOp57
 70
     1
102
RTVSPropertyOp0
 70
     1
102
RTVSPropertyOp1
 70
     1
102
RTVSPropertyOp2
 70
     1
102
RTVSPropertyOp3
 70
     1
102
RTVSPropertyOp4
 70
     1
102
RTVSPropertyOp5
 70
     1
102
RTVSPropertyOp6
 70
     1
102
RTVSPropertyOp7
 70
     1
102
RTVSPropertyOp8
 70
     1
102
RTVSPropertyOp9
 70
     1
102
RTVSPropertyOp10
 70
     1
102
RTVSPropertyOp11
 70
     1
102
RTVSPropertyOp12
 70
     1
102
RTVSPropertyOp13
 70
     1
102
RTVSPropertyOp14
 70
     1
102
RTVSPropertyOp15
 70
     1
102
RTVSPropertyOp16
 70
     1
102
RTVSPropertyOp17
 70
     1
102
RTVSPropertyOp18
 70
     1
102
RTVSPropertyOp19
 70
     1
102
RTVSPropertyOp20
 70
     1
102
RTVSPropertyOp21
 70
     1
102
RTVSPropertyOp22
 70
     1
102
RTVSPropertyOp23
 70
     1
102
RTVSPropertyOp24
 70
     1
102
RTVSPropertyOp25
 70
     1
102
RTVSPropertyOp26
 70
     1
102
RTVSPropertyOp27
 70
     1
102
RTVSPropertyOp28
 70
     1
102
RTVSPropertyOp29
 70
     1
102
RTVSPropertyOp30
 70
     1
102
RTVSPropertyOp31
 70
     1
102
RTVSPropertyOp32
 70
     1
102
RTVSPropertyOp33
 70
     1
102
RTVSPropertyOp34
 70
     1
102
RTVSPropertyOp35
 70
     1
102
RTVSPropertyOp36
 70
     1
102
RTVSPropertyOp37
 70
     1
102
RTVSPropertyOp38
 70
     1
102
RTVSPropertyOp39
 70
     1
102
RTVSPropertyOp40
 70
     1
102
RTVSPropertyOp41
 70
     1
102
RTVSPropertyOp42
 70
     1
102
RTVSPropertyOp43
 70
     1
102
RTVSPropertyOp44
 70
     1
102
RTVSPropertyOp45
 70
     1
102
RTVSPropertyOp46
 70
     1
102
RTVSPropertyOp47
 70
     1
102
RTVSPropertyOp48
 70
     1
102
RTVSPropertyOp49
 70
     1
102
RTVSPropertyOp50
 70
     1
102
RTVSPropertyOp51
 70
     0
102
RTVSPropertyOp52
 70
     0
102
RTVSPropertyOp53
 70
     1
102
RTVSPropertyOp54
 70
     1
102
RTVSPropertyOp55
 70
     1
102
RTVSPropertyOp56
 70
     1
102
RTVSPropertyOp57
 70
     1
102
RTVSPropertyOp58
 70
     1
102
RTVSPropertyOp59
 70
     1
102
RTVSPropertyOp60
 70
     1
102
RTVSPropertyOp61
 70
     1
102
RTVSPropertyOp62
 70
     1
  0
XRECORD
  5
8E8
102
{ACAD_REACTORS
330
8E7
102
}
330
8E7
100
AcDbXrecord
280
     1
102
RTVSPost2010Prop28
280
     0
102
RTVSPost2010PropOp28
 70
     1
102
RTVSPost2010Prop29
280
     1
102
RTVSPost2010PropOp29
 70
     1
102
RTVSPost2010Prop30
280
     1
102
RTVSPost2010PropOp30
 70
     1
102
RTVSPost2010Prop31
280
     0
102
RTVSPost2010PropOp31
 70
     1
102
RTVSPost2010Prop32
280
     0
102
RTVSPost2010PropOp32
 70
     1
102
RTVSPost2010Prop33
280
     0
102
RTVSPost2010PropOp33
 70
     1
102
RTVSPost2010Prop34
280
     0
102
RTVSPost2010PropOp34
 70
     1
102
RTVSPost2010Prop35
280
     0
102
RTVSPost2010PropOp35
 70
     1
102
RTVSPost2010Prop36
280
     0
102
RTVSPost2010PropOp36
 70
     1
102
RTVSPost2010Prop37
 90
       50
102
RTVSPost2010PropOp37
 70
     1
102
RTVSPost2010Prop38
140
0.0
102
RTVSPost2010PropOp38
 70
     1
102
RTVSPost2010Prop39
140
1.0
102
RTVSPost2010PropOp39
 70
     1
102
RTVSPost2010Prop40
 90
        0
102
RTVSPost2010PropOp40
 70
     1
102
RTVSPost2010Prop41ColorIndex
 90
       18
102
RTVSPost2010Prop41ColorRGB
 90
        0
102
RTVSPost2010PropOp41
 70
     1
102
RTVSPost2010Prop42
 90
       50
102
RTVSPost2010PropOp42
 70
     1
102
RTVSPost2010Prop43
 90
        3
102
RTVSPost2010PropOp43
 70
     1
102
RTVSPost2010Prop44ColorIndex
 90
        5
102
RTVSPost2010Prop44ColorRGB
 90
      255
102
RTVSPost2010PropOp44
 70
     1
102
RTVSPost2010Prop45
280
     0
102
RTVSPost2010PropOp45
 70
     1
102
RTVSPost2010Prop46
 90
       50
102
RTVSPost2010PropOp46
 70
     1
102
RTVSPost2010Prop47
 90
       50
102
RTVSPost2010PropOp47
 70
     1
102
RTVSPost2010Prop48
 90
       50
102
RTVSPost2010PropOp48
 70
     1
102
RTVSPost2010Prop49
280
     0
102
RTVSPost2010PropOp49
 70
     1
102
RTVSPost2010Prop50
 90
       50
102
RTVSPost2010PropOp50
 70
     1
102
RTVSPost2010Prop51ColorIndex
 90
      256
102
RTVSPost2010Prop51ColorRGB
 90
-16777216
102
RTVSPost2010PropOp51
 70
     0
102
RTVSPost2010Prop52
140
1.0
102
RTVSPost2010PropOp52
 70
     0
102
RTVSPost2010Prop53
 90
        2
102
RTVSPost2010PropOp53
 70
     1
102
RTVSPost2010Prop54
  1
strokes_ogs.tif
102
RTVSPost2010PropOp54
 70
     1
102
RTVSPost2010Prop55
280
     0
102
RTVSPost2010PropOp55
 70
     1
102
RTVSPost2010Prop56
140
1.0
102
RTVSPost2010PropOp56
 70
     1
102
RTVSPost2010Prop57
140
1.0
102
RTVSPost2010PropOp57
 70
     1
102
RTVSPropertyOp0
 70
     1
102
RTVSPropertyOp1
 70
     1
102
RTVSPropertyOp2
 70
     1
102
RTVSPropertyOp3
 70
     1
102
RTVSPropertyOp4
 70
     1
102
RTVSPropertyOp5
 70
     1
102
RTVSPropertyOp6
 70
     1
102
RTVSPropertyOp7
 70
     1
102
RTVSPropertyOp8
 70
     1
102
RTVSPropertyOp9
 70
     1
102
RTVSPropertyOp10
 70
     1
102
RTVSPropertyOp11
 70
     1
102
RTVSPropertyOp12
 70
     1
102
RTVSPropertyOp13
 70
     1
102
RTVSPropertyOp14
 70
     1
102
RTVSPropertyOp15
 70
     1
102
RTVSPropertyOp16
 70
     1
102
RTVSPropertyOp17
 70
     1
102
RTVSPropertyOp18
 70
     1
102
RTVSPropertyOp19
 70
     1
102
RTVSPropertyOp20
 70
     1
102
RTVSPropertyOp21
 70
     1
102
RTVSPropertyOp22
 70
     1
102
RTVSPropertyOp23
 70
     1
102
RTVSPropertyOp24
 70
     1
102
RTVSPropertyOp25
 70
     1
102
RTVSPropertyOp26
 70
     1
102
RTVSPropertyOp27
 70
     1
102
RTVSPropertyOp28
 70
     1
102
RTVSPropertyOp29
 70
     1
102
RTVSPropertyOp30
 70
     1
102
RTVSPropertyOp31
 70
     1
102
RTVSPropertyOp32
 70
     1
102
RTVSPropertyOp33
 70
     1
102
RTVSPropertyOp34
 70
     1
102
RTVSPropertyOp35
 70
     1
102
RTVSPropertyOp36
 70
     1
102
RTVSPropertyOp37
 70
     1
102
RTVSPropertyOp38
 70
     1
102
RTVSPropertyOp39
 70
     1
102
RTVSPropertyOp40
 70
     1
102
RTVSPropertyOp41
 70
     1
102
RTVSPropertyOp42
 70
     1
102
RTVSPropertyOp43
 70
     1
102
RTVSPropertyOp44
 70
     1
102
RTVSPropertyOp45
 70
     1
102
RTVSPropertyOp46
 70
     1
102
RTVSPropertyOp47
 70
     1
102
RTVSPropertyOp48
 70
     1
102
RTVSPropertyOp49
 70
     1
102
RTVSPropertyOp50
 70
     1
102
RTVSPropertyOp51
 70
     0
102
RTVSPropertyOp52
 70
     0
102
RTVSPropertyOp53
 70
     1
102
RTVSPropertyOp54
 70
     1
102
RTVSPropertyOp55
 70
     1
102
RTVSPropertyOp56
 70
     1
102
RTVSPropertyOp57
 70
     1
102
RTVSPropertyOp58
 70
     1
102
RTVSPropertyOp59
 70
     1
102
RTVSPropertyOp60
 70
     1
102
RTVSPropertyOp61
 70
     1
102
RTVSPropertyOp62
 70
     1
  0
XRECORD
  5
8EA
102
{ACAD_REACTORS
330
8E9
102
}
330
8E9
100
AcDbXrecord
280
     1
102
RTVSPost2010Prop28
280
     0
102
RTVSPost2010PropOp28
 70
     1
102
RTVSPost2010Prop29
280
     1
102
RTVSPost2010PropOp29
 70
     1
102
RTVSPost2010Prop30
280
     1
102
RTVSPost2010PropOp30
 70
     1
102
RTVSPost2010Prop31
280
     0
102
RTVSPost2010PropOp31
 70
     1
102
RTVSPost2010Prop32
280
     0
102
RTVSPost2010PropOp32
 70
     1
102
RTVSPost2010Prop33
280
     0
102
RTVSPost2010PropOp33
 70
     1
102
RTVSPost2010Prop34
280
     0
102
RTVSPost2010PropOp34
 70
     1
102
RTVSPost2010Prop35
280
     0
102
RTVSPost2010PropOp35
 70
     1
102
RTVSPost2010Prop36
280
     0
102
RTVSPost2010PropOp36
 70
     1
102
RTVSPost2010Prop37
 90
       50
102
RTVSPost2010PropOp37
 70
     1
102
RTVSPost2010Prop38
140
0.0
102
RTVSPost2010PropOp38
 70
     1
102
RTVSPost2010Prop39
140
1.0
102
RTVSPost2010PropOp39
 70
     1
102
RTVSPost2010Prop40
 90
        0
102
RTVSPost2010PropOp40
 70
     1
102
RTVSPost2010Prop41ColorIndex
 90
       18
102
RTVSPost2010Prop41ColorRGB
 90
        0
102
RTVSPost2010PropOp41
 70
     1
102
RTVSPost2010Prop42
 90
       50
102
RTVSPost2010PropOp42
 70
     1
102
RTVSPost2010Prop43
 90
        3
102
RTVSPost2010PropOp43
 70
     1
102
RTVSPost2010Prop44ColorIndex
 90
        5
102
RTVSPost2010Prop44ColorRGB
 90
      255
102
RTVSPost2010PropOp44
 70
     1
102
RTVSPost2010Prop45
280
     0
102
RTVSPost2010PropOp45
 70
     1
102
RTVSPost2010Prop46
 90
       50
102
RTVSPost2010PropOp46
 70
     1
102
RTVSPost2010Prop47
 90
       50
102
RTVSPost2010PropOp47
 70
     1
102
RTVSPost2010Prop48
 90
       50
102
RTVSPost2010PropOp48
 70
     1
102
RTVSPost2010Prop49
280
     0
102
RTVSPost2010PropOp49
 70
     1
102
RTVSPost2010Prop50
 90
       50
102
RTVSPost2010PropOp50
 70
     1
102
RTVSPost2010Prop51ColorIndex
 90
      256
102
RTVSPost2010Prop51ColorRGB
 90
-16777216
102
RTVSPost2010PropOp51
 70
     0
102
RTVSPost2010Prop52
140
1.0
102
RTVSPost2010PropOp52
 70
     0
102
RTVSPost2010Prop53
 90
        2
102
RTVSPost2010PropOp53
 70
     1
102
RTVSPost2010Prop54
  1
strokes_ogs.tif
102
RTVSPost2010PropOp54
 70
     1
102
RTVSPost2010Prop55
280
     0
102
RTVSPost2010PropOp55
 70
     1
102
RTVSPost2010Prop56
140
1.0
102
RTVSPost2010PropOp56
 70
     1
102
RTVSPost2010Prop57
140
1.0
102
RTVSPost2010PropOp57
 70
     1
102
RTVSPropertyOp0
 70
     1
102
RTVSPropertyOp1
 70
     1
102
RTVSPropertyOp2
 70
     1
102
RTVSPropertyOp3
 70
     1
102
RTVSPropertyOp4
 70
     1
102
RTVSPropertyOp5
 70
     1
102
RTVSPropertyOp6
 70
     1
102
RTVSPropertyOp7
 70
     1
102
RTVSPropertyOp8
 70
     1
102
RTVSPropertyOp9
 70
     1
102
RTVSPropertyOp10
 70
     1
102
RTVSPropertyOp11
 70
     1
102
RTVSPropertyOp12
 70
     1
102
RTVSPropertyOp13
 70
     1
102
RTVSPropertyOp14
 70
     1
102
RTVSPropertyOp15
 70
     1
102
RTVSPropertyOp16
 70
     1
102
RTVSPropertyOp17
 70
     1
102
RTVSPropertyOp18
 70
     1
102
RTVSPropertyOp19
 70
     1
102
RTVSPropertyOp20
 70
     1
102
RTVSPropertyOp21
 70
     1
102
RTVSPropertyOp22
 70
     1
102
RTVSPropertyOp23
 70
     1
102
RTVSPropertyOp24
 70
     1
102
RTVSPropertyOp25
 70
     1
102
RTVSPropertyOp26
 70
     1
102
RTVSPropertyOp27
 70
     1
102
RTVSPropertyOp28
 70
     1
102
RTVSPropertyOp29
 70
     1
102
RTVSPropertyOp30
 70
     1
102
RTVSPropertyOp31
 70
     1
102
RTVSPropertyOp32
 70
     1
102
RTVSPropertyOp33
 70
     1
102
RTVSPropertyOp34
 70
     1
102
RTVSPropertyOp35
 70
     1
102
RTVSPropertyOp36
 70
     1
102
RTVSPropertyOp37
 70
     1
102
RTVSPropertyOp38
 70
     1
102
RTVSPropertyOp39
 70
     1
102
RTVSPropertyOp40
 70
     1
102
RTVSPropertyOp41
 70
     1
102
RTVSPropertyOp42
 70
     1
102
RTVSPropertyOp43
 70
     1
102
RTVSPropertyOp44
 70
     1
102
RTVSPropertyOp45
 70
     1
102
RTVSPropertyOp46
 70
     1
102
RTVSPropertyOp47
 70
     1
102
RTVSPropertyOp48
 70
     1
102
RTVSPropertyOp49
 70
     1
102
RTVSPropertyOp50
 70
     1
102
RTVSPropertyOp51
 70
     0
102
RTVSPropertyOp52
 70
     0
102
RTVSPropertyOp53
 70
     1
102
RTVSPropertyOp54
 70
     1
102
RTVSPropertyOp55
 70
     1
102
RTVSPropertyOp56
 70
     1
102
RTVSPropertyOp57
 70
     1
102
RTVSPropertyOp58
 70
     1
102
RTVSPropertyOp59
 70
     1
102
RTVSPropertyOp60
 70
     1
102
RTVSPropertyOp61
 70
     1
102
RTVSPropertyOp62
 70
     1
  0
XRECORD
  5
8EC
102
{ACAD_REACTORS
330
8EB
102
}
330
8EB
100
AcDbXrecord
280
     1
102
RTVSPost2010Prop28
280
     0
102
RTVSPost2010PropOp28
 70
     1
102
RTVSPost2010Prop29
280
     1
102
RTVSPost2010PropOp29
 70
     1
102
RTVSPost2010Prop30
280
     1
102
RTVSPost2010PropOp30
 70
     1
102
RTVSPost2010Prop31
280
     0
102
RTVSPost2010PropOp31
 70
     1
102
RTVSPost2010Prop32
280
     0
102
RTVSPost2010PropOp32
 70
     1
102
RTVSPost2010Prop33
280
     0
102
RTVSPost2010PropOp33
 70
     1
102
RTVSPost2010Prop34
280
     0
102
RTVSPost2010PropOp34
 70
     1
102
RTVSPost2010Prop35
280
     0
102
RTVSPost2010PropOp35
 70
     1
102
RTVSPost2010Prop36
280
     0
102
RTVSPost2010PropOp36
 70
     1
102
RTVSPost2010Prop37
 90
       50
102
RTVSPost2010PropOp37
 70
     1
102
RTVSPost2010Prop38
140
0.0
102
RTVSPost2010PropOp38
 70
     1
102
RTVSPost2010Prop39
140
1.0
102
RTVSPost2010PropOp39
 70
     1
102
RTVSPost2010Prop40
 90
        0
102
RTVSPost2010PropOp40
 70
     1
102
RTVSPost2010Prop41ColorIndex
 90
       18
102
RTVSPost2010Prop41ColorRGB
 90
        0
102
RTVSPost2010PropOp41
 70
     1
102
RTVSPost2010Prop42
 90
       50
102
RTVSPost2010PropOp42
 70
     1
102
RTVSPost2010Prop43
 90
        3
102
RTVSPost2010PropOp43
 70
     1
102
RTVSPost2010Prop44ColorIndex
 90
        5
102
RTVSPost2010Prop44ColorRGB
 90
      255
102
RTVSPost2010PropOp44
 70
     1
102
RTVSPost2010Prop45
280
     0
102
RTVSPost2010PropOp45
 70
     1
102
RTVSPost2010Prop46
 90
       50
102
RTVSPost2010PropOp46
 70
     1
102
RTVSPost2010Prop47
 90
       50
102
RTVSPost2010PropOp47
 70
     1
102
RTVSPost2010Prop48
 90
       50
102
RTVSPost2010PropOp48
 70
     1
102
RTVSPost2010Prop49
280
     0
102
RTVSPost2010PropOp49
 70
     1
102
RTVSPost2010Prop50
 90
       50
102
RTVSPost2010PropOp50
 70
     1
102
RTVSPost2010Prop51ColorIndex
 90
      256
102
RTVSPost2010Prop51ColorRGB
 90
-16777216
102
RTVSPost2010PropOp51
 70
     0
102
RTVSPost2010Prop52
140
1.0
102
RTVSPost2010PropOp52
 70
     0
102
RTVSPost2010Prop53
 90
        2
102
RTVSPost2010PropOp53
 70
     1
102
RTVSPost2010Prop54
  1
strokes_ogs.tif
102
RTVSPost2010PropOp54
 70
     1
102
RTVSPost2010Prop55
280
     0
102
RTVSPost2010PropOp55
 70
     1
102
RTVSPost2010Prop56
140
1.0
102
RTVSPost2010PropOp56
 70
     1
102
RTVSPost2010Prop57
140
1.0
102
RTVSPost2010PropOp57
 70
     1
102
RTVSPropertyOp0
 70
     1
102
RTVSPropertyOp1
 70
     1
102
RTVSPropertyOp2
 70
     1
102
RTVSPropertyOp3
 70
     1
102
RTVSPropertyOp4
 70
     1
102
RTVSPropertyOp5
 70
     1
102
RTVSPropertyOp6
 70
     1
102
RTVSPropertyOp7
 70
     1
102
RTVSPropertyOp8
 70
     1
102
RTVSPropertyOp9
 70
     1
102
RTVSPropertyOp10
 70
     1
102
RTVSPropertyOp11
 70
     1
102
RTVSPropertyOp12
 70
     1
102
RTVSPropertyOp13
 70
     1
102
RTVSPropertyOp14
 70
     1
102
RTVSPropertyOp15
 70
     1
102
RTVSPropertyOp16
 70
     1
102
RTVSPropertyOp17
 70
     1
102
RTVSPropertyOp18
 70
     1
102
RTVSPropertyOp19
 70
     1
102
RTVSPropertyOp20
 70
     1
102
RTVSPropertyOp21
 70
     1
102
RTVSPropertyOp22
 70
     1
102
RTVSPropertyOp23
 70
     1
102
RTVSPropertyOp24
 70
     1
102
RTVSPropertyOp25
 70
     1
102
RTVSPropertyOp26
 70
     1
102
RTVSPropertyOp27
 70
     1
102
RTVSPropertyOp28
 70
     1
102
RTVSPropertyOp29
 70
     1
102
RTVSPropertyOp30
 70
     1
102
RTVSPropertyOp31
 70
     1
102
RTVSPropertyOp32
 70
     1
102
RTVSPropertyOp33
 70
     1
102
RTVSPropertyOp34
 70
     1
102
RTVSPropertyOp35
 70
     1
102
RTVSPropertyOp36
 70
     1
102
RTVSPropertyOp37
 70
     1
102
RTVSPropertyOp38
 70
     1
102
RTVSPropertyOp39
 70
     1
102
RTVSPropertyOp40
 70
     1
102
RTVSPropertyOp41
 70
     1
102
RTVSPropertyOp42
 70
     1
102
RTVSPropertyOp43
 70
     1
102
RTVSPropertyOp44
 70
     1
102
RTVSPropertyOp45
 70
     1
102
RTVSPropertyOp46
 70
     1
102
RTVSPropertyOp47
 70
     1
102
RTVSPropertyOp48
 70
     1
102
RTVSPropertyOp49
 70
     1
102
RTVSPropertyOp50
 70
     1
102
RTVSPropertyOp51
 70
     0
102
RTVSPropertyOp52
 70
     0
102
RTVSPropertyOp53
 70
     1
102
RTVSPropertyOp54
 70
     1
102
RTVSPropertyOp55
 70
     1
102
RTVSPropertyOp56
 70
     1
102
RTVSPropertyOp57
 70
     1
102
RTVSPropertyOp58
 70
     1
102
RTVSPropertyOp59
 70
     1
102
RTVSPropertyOp60
 70
     1
102
RTVSPropertyOp61
 70
     1
102
RTVSPropertyOp62
 70
     1
  0
XRECORD
  5
8F4
102
{ACAD_REACTORS
330
8F3
102
}
330
8F3
100
AcDbXrecord
280
     1
102
RTVSPost2010Prop28
280
     0
102
RTVSPost2010PropOp28
 70
     1
102
RTVSPost2010Prop29
280
     1
102
RTVSPost2010PropOp29
 70
     1
102
RTVSPost2010Prop30
280
     1
102
RTVSPost2010PropOp30
 70
     1
102
RTVSPost2010Prop31
280
     0
102
RTVSPost2010PropOp31
 70
     1
102
RTVSPost2010Prop32
280
     0
102
RTVSPost2010PropOp32
 70
     1
102
RTVSPost2010Prop33
280
     0
102
RTVSPost2010PropOp33
 70
     1
102
RTVSPost2010Prop34
280
     0
102
RTVSPost2010PropOp34
 70
     1
102
RTVSPost2010Prop35
280
     0
102
RTVSPost2010PropOp35
 70
     1
102
RTVSPost2010Prop36
280
     0
102
RTVSPost2010PropOp36
 70
     1
102
RTVSPost2010Prop37
 90
       50
102
RTVSPost2010PropOp37
 70
     1
102
RTVSPost2010Prop38
140
0.0
102
RTVSPost2010PropOp38
 70
     1
102
RTVSPost2010Prop39
140
1.0
102
RTVSPost2010PropOp39
 70
     1
102
RTVSPost2010Prop40
 90
        0
102
RTVSPost2010PropOp40
 70
     1
102
RTVSPost2010Prop41ColorIndex
 90
       18
102
RTVSPost2010Prop41ColorRGB
 90
        0
102
RTVSPost2010PropOp41
 70
     1
102
RTVSPost2010Prop42
 90
       50
102
RTVSPost2010PropOp42
 70
     1
102
RTVSPost2010Prop43
 90
        3
102
RTVSPost2010PropOp43
 70
     1
102
RTVSPost2010Prop44ColorIndex
 90
        5
102
RTVSPost2010Prop44ColorRGB
 90
      255
102
RTVSPost2010PropOp44
 70
     1
102
RTVSPost2010Prop45
280
     0
102
RTVSPost2010PropOp45
 70
     1
102
RTVSPost2010Prop46
 90
       50
102
RTVSPost2010PropOp46
 70
     1
102
RTVSPost2010Prop47
 90
       50
102
RTVSPost2010PropOp47
 70
     1
102
RTVSPost2010Prop48
 90
       50
102
RTVSPost2010PropOp48
 70
     1
102
RTVSPost2010Prop49
280
     0
102
RTVSPost2010PropOp49
 70
     1
102
RTVSPost2010Prop50
 90
       50
102
RTVSPost2010PropOp50
 70
     1
102
RTVSPost2010Prop51ColorIndex
 90
      256
102
RTVSPost2010Prop51ColorRGB
 90
-16777216
102
RTVSPost2010PropOp51
 70
     0
102
RTVSPost2010Prop52
140
1.0
102
RTVSPost2010PropOp52
 70
     0
102
RTVSPost2010Prop53
 90
        2
102
RTVSPost2010PropOp53
 70
     1
102
RTVSPost2010Prop54
  1
strokes_ogs.tif
102
RTVSPost2010PropOp54
 70
     1
102
RTVSPost2010Prop55
280
     0
102
RTVSPost2010PropOp55
 70
     1
102
RTVSPost2010Prop56
140
1.0
102
RTVSPost2010PropOp56
 70
     1
102
RTVSPost2010Prop57
140
1.0
102
RTVSPost2010PropOp57
 70
     1
102
RTVSPropertyOp0
 70
     1
102
RTVSPropertyOp1
 70
     1
102
RTVSPropertyOp2
 70
     1
102
RTVSPropertyOp3
 70
     1
102
RTVSPropertyOp4
 70
     1
102
RTVSPropertyOp5
 70
     1
102
RTVSPropertyOp6
 70
     1
102
RTVSPropertyOp7
 70
     1
102
RTVSPropertyOp8
 70
     1
102
RTVSPropertyOp9
 70
     1
102
RTVSPropertyOp10
 70
     1
102
RTVSPropertyOp11
 70
     1
102
RTVSPropertyOp12
 70
     1
102
RTVSPropertyOp13
 70
     1
102
RTVSPropertyOp14
 70
     1
102
RTVSPropertyOp15
 70
     1
102
RTVSPropertyOp16
 70
     1
102
RTVSPropertyOp17
 70
     1
102
RTVSPropertyOp18
 70
     1
102
RTVSPropertyOp19
 70
     1
102
RTVSPropertyOp20
 70
     1
102
RTVSPropertyOp21
 70
     1
102
RTVSPropertyOp22
 70
     1
102
RTVSPropertyOp23
 70
     1
102
RTVSPropertyOp24
 70
     1
102
RTVSPropertyOp25
 70
     1
102
RTVSPropertyOp26
 70
     1
102
RTVSPropertyOp27
 70
     1
102
RTVSPropertyOp28
 70
     1
102
RTVSPropertyOp29
 70
     1
102
RTVSPropertyOp30
 70
     1
102
RTVSPropertyOp31
 70
     1
102
RTVSPropertyOp32
 70
     1
102
RTVSPropertyOp33
 70
     1
102
RTVSPropertyOp34
 70
     1
102
RTVSPropertyOp35
 70
     1
102
RTVSPropertyOp36
 70
     1
102
RTVSPropertyOp37
 70
     1
102
RTVSPropertyOp38
 70
     1
102
RTVSPropertyOp39
 70
     1
102
RTVSPropertyOp40
 70
     1
102
RTVSPropertyOp41
 70
     1
102
RTVSPropertyOp42
 70
     1
102
RTVSPropertyOp43
 70
     1
102
RTVSPropertyOp44
 70
     1
102
RTVSPropertyOp45
 70
     1
102
RTVSPropertyOp46
 70
     1
102
RTVSPropertyOp47
 70
     1
102
RTVSPropertyOp48
 70
     1
102
RTVSPropertyOp49
 70
     1
102
RTVSPropertyOp50
 70
     1
102
RTVSPropertyOp51
 70
     0
102
RTVSPropertyOp52
 70
     0
102
RTVSPropertyOp53
 70
     1
102
RTVSPropertyOp54
 70
     1
102
RTVSPropertyOp55
 70
     1
102
RTVSPropertyOp56
 70
     1
102
RTVSPropertyOp57
 70
     1
102
RTVSPropertyOp58
 70
     1
102
RTVSPropertyOp59
 70
     1
102
RTVSPropertyOp60
 70
     1
102
RTVSPropertyOp61
 70
     1
102
RTVSPropertyOp62
 70
     1
  0
XRECORD
  5
910
102
{ACAD_REACTORS
330
90F
102
}
330
90F
100
AcDbXrecord
280
     1
102
RTVSPost2010Prop28
280
     0
102
RTVSPost2010PropOp28
 70
     0
102
RTVSPost2010Prop29
280
     1
102
RTVSPost2010PropOp29
 70
     0
102
RTVSPost2010Prop30
280
     1
102
RTVSPost2010PropOp30
 70
     0
102
RTVSPost2010Prop31
280
     0
102
RTVSPost2010PropOp31
 70
     0
102
RTVSPost2010Prop32
280
     0
102
RTVSPost2010PropOp32
 70
     0
102
RTVSPost2010Prop33
280
     0
102
RTVSPost2010PropOp33
 70
     0
102
RTVSPost2010Prop34
280
     0
102
RTVSPost2010PropOp34
 70
     0
102
RTVSPost2010Prop35
280
     0
102
RTVSPost2010PropOp35
 70
     0
102
RTVSPost2010Prop36
280
     0
102
RTVSPost2010PropOp36
 70
     0
102
RTVSPost2010Prop37
 90
       50
102
RTVSPost2010PropOp37
 70
     0
102
RTVSPost2010Prop38
140
0.0
102
RTVSPost2010PropOp38
 70
     0
102
RTVSPost2010Prop39
140
1.0
102
RTVSPost2010PropOp39
 70
     0
102
RTVSPost2010Prop40
 90
        0
102
RTVSPost2010PropOp40
 70
     0
102
RTVSPost2010Prop41ColorIndex
 90
       18
102
RTVSPost2010Prop41ColorRGB
 90
        0
102
RTVSPost2010PropOp41
 70
     0
102
RTVSPost2010Prop42
 90
       50
102
RTVSPost2010PropOp42
 70
     0
102
RTVSPost2010Prop43
 90
        3
102
RTVSPost2010PropOp43
 70
     0
102
RTVSPost2010Prop44ColorIndex
 90
        5
102
RTVSPost2010Prop44ColorRGB
 90
      255
102
RTVSPost2010PropOp44
 70
     0
102
RTVSPost2010Prop45
280
     0
102
RTVSPost2010PropOp45
 70
     0
102
RTVSPost2010Prop46
 90
       50
102
RTVSPost2010PropOp46
 70
     0
102
RTVSPost2010Prop47
 90
       50
102
RTVSPost2010PropOp47
 70
     0
102
RTVSPost2010Prop48
 90
       50
102
RTVSPost2010PropOp48
 70
     0
102
RTVSPost2010Prop49
280
     0
102
RTVSPost2010PropOp49
 70
     0
102
RTVSPost2010Prop50
 90
       50
102
RTVSPost2010PropOp50
 70
     0
102
RTVSPost2010Prop51ColorIndex
 90
      256
102
RTVSPost2010Prop51ColorRGB
 90
-16777216
102
RTVSPost2010PropOp51
 70
     0
102
RTVSPost2010Prop52
140
1.0
102
RTVSPost2010PropOp52
 70
     0
102
RTVSPost2010Prop53
 90
        2
102
RTVSPost2010PropOp53
 70
     0
102
RTVSPost2010Prop54
  1
strokes_ogs.tif
102
RTVSPost2010PropOp54
 70
     0
102
RTVSPost2010Prop55
280
     0
102
RTVSPost2010PropOp55
 70
     0
102
RTVSPost2010Prop56
140
1.0
102
RTVSPost2010PropOp56
 70
     0
102
RTVSPost2010Prop57
140
1.0
102
RTVSPost2010PropOp57
 70
     0
102
RTVSPropertyOp0
 70
     0
102
RTVSPropertyOp1
 70
     0
102
RTVSPropertyOp2
 70
     0
102
RTVSPropertyOp3
 70
     0
102
RTVSPropertyOp4
 70
     0
102
RTVSPropertyOp5
 70
     0
102
RTVSPropertyOp6
 70
     0
102
RTVSPropertyOp7
 70
     0
102
RTVSPropertyOp8
 70
     0
102
RTVSPropertyOp9
 70
     0
102
RTVSPropertyOp10
 70
     0
102
RTVSPropertyOp11
 70
     0
102
RTVSPropertyOp12
 70
     0
102
RTVSPropertyOp13
 70
     0
102
RTVSPropertyOp14
 70
     2
102
RTVSPropertyOp15
 70
     0
102
RTVSPropertyOp16
 70
     0
102
RTVSPropertyOp17
 70
     0
102
RTVSPropertyOp18
 70
     0
102
RTVSPropertyOp19
 70
     0
102
RTVSPropertyOp20
 70
     0
102
RTVSPropertyOp21
 70
     0
102
RTVSPropertyOp22
 70
     0
102
RTVSPropertyOp23
 70
     0
102
RTVSPropertyOp24
 70
     0
102
RTVSPropertyOp25
 70
     0
102
RTVSPropertyOp26
 70
     0
102
RTVSPropertyOp27
 70
     0
102
RTVSPropertyOp28
 70
     0
102
RTVSPropertyOp29
 70
     0
102
RTVSPropertyOp30
 70
     0
102
RTVSPropertyOp31
 70
     0
102
RTVSPropertyOp32
 70
     0
102
RTVSPropertyOp33
 70
     0
102
RTVSPropertyOp34
 70
     0
102
RTVSPropertyOp35
 70
     0
102
RTVSPropertyOp36
 70
     0
102
RTVSPropertyOp37
 70
     0
102
RTVSPropertyOp38
 70
     0
102
RTVSPropertyOp39
 70
     0
102
RTVSPropertyOp40
 70
     0
102
RTVSPropertyOp41
 70
     0
102
RTVSPropertyOp42
 70
     0
102
RTVSPropertyOp43
 70
     0
102
RTVSPropertyOp44
 70
     0
102
RTVSPropertyOp45
 70
     0
102
RTVSPropertyOp46
 70
     0
102
RTVSPropertyOp47
 70
     0
102
RTVSPropertyOp48
 70
     0
102
RTVSPropertyOp49
 70
     0
102
RTVSPropertyOp50
 70
     0
102
RTVSPropertyOp51
 70
     0
102
RTVSPropertyOp52
 70
     0
102
RTVSPropertyOp53
 70
     0
102
RTVSPropertyOp54
 70
     0
102
RTVSPropertyOp55
 70
     0
102
RTVSPropertyOp56
 70
     0
102
RTVSPropertyOp57
 70
     0
102
RTVSPropertyOp58
 70
     0
102
RTVSPropertyOp59
 70
     0
102
RTVSPropertyOp60
 70
     0
102
RTVSPropertyOp61
 70
     0
102
RTVSPropertyOp62
 70
     0
  0
XRECORD
  5
900
102
{ACAD_REACTORS
330
8FF
102
}
330
8FF
100
AcDbXrecord
280
     1
102
RTVSPost2010Prop28
280
     0
102
RTVSPost2010PropOp28
 70
     1
102
RTVSPost2010Prop29
280
     1
102
RTVSPost2010PropOp29
 70
     1
102
RTVSPost2010Prop30
280
     1
102
RTVSPost2010PropOp30
 70
     1
102
RTVSPost2010Prop31
280
     0
102
RTVSPost2010PropOp31
 70
     1
102
RTVSPost2010Prop32
280
     0
102
RTVSPost2010PropOp32
 70
     1
102
RTVSPost2010Prop33
280
     0
102
RTVSPost2010PropOp33
 70
     1
102
RTVSPost2010Prop34
280
     0
102
RTVSPost2010PropOp34
 70
     1
102
RTVSPost2010Prop35
280
     0
102
RTVSPost2010PropOp35
 70
     1
102
RTVSPost2010Prop36
280
     0
102
RTVSPost2010PropOp36
 70
     1
102
RTVSPost2010Prop37
 90
       50
102
RTVSPost2010PropOp37
 70
     1
102
RTVSPost2010Prop38
140
0.0
102
RTVSPost2010PropOp38
 70
     1
102
RTVSPost2010Prop39
140
1.0
102
RTVSPost2010PropOp39
 70
     1
102
RTVSPost2010Prop40
 90
        0
102
RTVSPost2010PropOp40
 70
     1
102
RTVSPost2010Prop41ColorIndex
 90
       18
102
RTVSPost2010Prop41ColorRGB
 90
        0
102
RTVSPost2010PropOp41
 70
     1
102
RTVSPost2010Prop42
 90
       50
102
RTVSPost2010PropOp42
 70
     1
102
RTVSPost2010Prop43
 90
        3
102
RTVSPost2010PropOp43
 70
     1
102
RTVSPost2010Prop44ColorIndex
 90
        5
102
RTVSPost2010Prop44ColorRGB
 90
      255
102
RTVSPost2010PropOp44
 70
     1
102
RTVSPost2010Prop45
280
     0
102
RTVSPost2010PropOp45
 70
     1
102
RTVSPost2010Prop46
 90
       50
102
RTVSPost2010PropOp46
 70
     1
102
RTVSPost2010Prop47
 90
       50
102
RTVSPost2010PropOp47
 70
     1
102
RTVSPost2010Prop48
 90
       50
102
RTVSPost2010PropOp48
 70
     1
102
RTVSPost2010Prop49
280
     0
102
RTVSPost2010PropOp49
 70
     1
102
RTVSPost2010Prop50
 90
       50
102
RTVSPost2010PropOp50
 70
     1
102
RTVSPost2010Prop51ColorIndex
 90
      256
102
RTVSPost2010Prop51ColorRGB
 90
-16777216
102
RTVSPost2010PropOp51
 70
     0
102
RTVSPost2010Prop52
140
1.0
102
RTVSPost2010PropOp52
 70
     0
102
RTVSPost2010Prop53
 90
        2
102
RTVSPost2010PropOp53
 70
     1
102
RTVSPost2010Prop54
  1
strokes_ogs.tif
102
RTVSPost2010PropOp54
 70
     1
102
RTVSPost2010Prop55
280
     0
102
RTVSPost2010PropOp55
 70
     1
102
RTVSPost2010Prop56
140
1.0
102
RTVSPost2010PropOp56
 70
     1
102
RTVSPost2010Prop57
140
1.0
102
RTVSPost2010PropOp57
 70
     1
102
RTVSPropertyOp0
 70
     1
102
RTVSPropertyOp1
 70
     1
102
RTVSPropertyOp2
 70
     1
102
RTVSPropertyOp3
 70
     1
102
RTVSPropertyOp4
 70
     1
102
RTVSPropertyOp5
 70
     1
102
RTVSPropertyOp6
 70
     1
102
RTVSPropertyOp7
 70
     1
102
RTVSPropertyOp8
 70
     1
102
RTVSPropertyOp9
 70
     1
102
RTVSPropertyOp10
 70
     1
102
RTVSPropertyOp11
 70
     1
102
RTVSPropertyOp12
 70
     1
102
RTVSPropertyOp13
 70
     1
102
RTVSPropertyOp14
 70
     1
102
RTVSPropertyOp15
 70
     1
102
RTVSPropertyOp16
 70
     1
102
RTVSPropertyOp17
 70
     1
102
RTVSPropertyOp18
 70
     1
102
RTVSPropertyOp19
 70
     1
102
RTVSPropertyOp20
 70
     1
102
RTVSPropertyOp21
 70
     1
102
RTVSPropertyOp22
 70
     1
102
RTVSPropertyOp23
 70
     1
102
RTVSPropertyOp24
 70
     1
102
RTVSPropertyOp25
 70
     1
102
RTVSPropertyOp26
 70
     1
102
RTVSPropertyOp27
 70
     1
102
RTVSPropertyOp28
 70
     1
102
RTVSPropertyOp29
 70
     1
102
RTVSPropertyOp30
 70
     1
102
RTVSPropertyOp31
 70
     1
102
RTVSPropertyOp32
 70
     1
102
RTVSPropertyOp33
 70
     1
102
RTVSPropertyOp34
 70
     1
102
RTVSPropertyOp35
 70
     1
102
RTVSPropertyOp36
 70
     1
102
RTVSPropertyOp37
 70
     1
102
RTVSPropertyOp38
 70
     1
102
RTVSPropertyOp39
 70
     1
102
RTVSPropertyOp40
 70
     1
102
RTVSPropertyOp41
 70
     1
102
RTVSPropertyOp42
 70
     1
102
RTVSPropertyOp43
 70
     1
102
RTVSPropertyOp44
 70
     1
102
RTVSPropertyOp45
 70
     1
102
RTVSPropertyOp46
 70
     1
102
RTVSPropertyOp47
 70
     1
102
RTVSPropertyOp48
 70
     1
102
RTVSPropertyOp49
 70
     1
102
RTVSPropertyOp50
 70
     1
102
RTVSPropertyOp51
 70
     0
102
RTVSPropertyOp52
 70
     0
102
RTVSPropertyOp53
 70
     1
102
RTVSPropertyOp54
 70
     1
102
RTVSPropertyOp55
 70
     1
102
RTVSPropertyOp56
 70
     1
102
RTVSPropertyOp57
 70
     1
102
RTVSPropertyOp58
 70
     1
102
RTVSPropertyOp59
 70
     1
102
RTVSPropertyOp60
 70
     1
102
RTVSPropertyOp61
 70
     1
102
RTVSPropertyOp62
 70
     1
  0
XRECORD
  5
912
102
{ACAD_REACTORS
330
911
102
}
330
911
100
AcDbXrecord
280
     1
102
RTVSPost2010Prop28
280
     0
102
RTVSPost2010PropOp28
 70
     0
102
RTVSPost2010Prop29
280
     1
102
RTVSPost2010PropOp29
 70
     0
102
RTVSPost2010Prop30
280
     1
102
RTVSPost2010PropOp30
 70
     0
102
RTVSPost2010Prop31
280
     0
102
RTVSPost2010PropOp31
 70
     0
102
RTVSPost2010Prop32
280
     0
102
RTVSPost2010PropOp32
 70
     0
102
RTVSPost2010Prop33
280
     0
102
RTVSPost2010PropOp33
 70
     0
102
RTVSPost2010Prop34
280
     0
102
RTVSPost2010PropOp34
 70
     0
102
RTVSPost2010Prop35
280
     0
102
RTVSPost2010PropOp35
 70
     0
102
RTVSPost2010Prop36
280
     0
102
RTVSPost2010PropOp36
 70
     0
102
RTVSPost2010Prop37
 90
       50
102
RTVSPost2010PropOp37
 70
     0
102
RTVSPost2010Prop38
140
0.0
102
RTVSPost2010PropOp38
 70
     0
102
RTVSPost2010Prop39
140
1.0
102
RTVSPost2010PropOp39
 70
     0
102
RTVSPost2010Prop40
 90
        0
102
RTVSPost2010PropOp40
 70
     0
102
RTVSPost2010Prop41ColorIndex
 90
       18
102
RTVSPost2010Prop41ColorRGB
 90
        0
102
RTVSPost2010PropOp41
 70
     0
102
RTVSPost2010Prop42
 90
       50
102
RTVSPost2010PropOp42
 70
     0
102
RTVSPost2010Prop43
 90
        3
102
RTVSPost2010PropOp43
 70
     0
102
RTVSPost2010Prop44ColorIndex
 90
        5
102
RTVSPost2010Prop44ColorRGB
 90
      255
102
RTVSPost2010PropOp44
 70
     0
102
RTVSPost2010Prop45
280
     0
102
RTVSPost2010PropOp45
 70
     0
102
RTVSPost2010Prop46
 90
       50
102
RTVSPost2010PropOp46
 70
     0
102
RTVSPost2010Prop47
 90
       50
102
RTVSPost2010PropOp47
 70
     0
102
RTVSPost2010Prop48
 90
       50
102
RTVSPost2010PropOp48
 70
     0
102
RTVSPost2010Prop49
280
     0
102
RTVSPost2010PropOp49
 70
     0
102
RTVSPost2010Prop50
 90
       50
102
RTVSPost2010PropOp50
 70
     0
102
RTVSPost2010Prop51ColorIndex
 90
      256
102
RTVSPost2010Prop51ColorRGB
 90
-16777216
102
RTVSPost2010PropOp51
 70
     0
102
RTVSPost2010Prop52
140
1.0
102
RTVSPost2010PropOp52
 70
     0
102
RTVSPost2010Prop53
 90
        2
102
RTVSPost2010PropOp53
 70
     0
102
RTVSPost2010Prop54
  1
strokes_ogs.tif
102
RTVSPost2010PropOp54
 70
     0
102
RTVSPost2010Prop55
280
     0
102
RTVSPost2010PropOp55
 70
     0
102
RTVSPost2010Prop56
140
1.0
102
RTVSPost2010PropOp56
 70
     0
102
RTVSPost2010Prop57
140
1.0
102
RTVSPost2010PropOp57
 70
     0
102
RTVSPropertyOp0
 70
     0
102
RTVSPropertyOp1
 70
     0
102
RTVSPropertyOp2
 70
     0
102
RTVSPropertyOp3
 70
     0
102
RTVSPropertyOp4
 70
     0
102
RTVSPropertyOp5
 70
     0
102
RTVSPropertyOp6
 70
     0
102
RTVSPropertyOp7
 70
     0
102
RTVSPropertyOp8
 70
     0
102
RTVSPropertyOp9
 70
     0
102
RTVSPropertyOp10
 70
     0
102
RTVSPropertyOp11
 70
     0
102
RTVSPropertyOp12
 70
     0
102
RTVSPropertyOp13
 70
     0
102
RTVSPropertyOp14
 70
     2
102
RTVSPropertyOp15
 70
     0
102
RTVSPropertyOp16
 70
     0
102
RTVSPropertyOp17
 70
     0
102
RTVSPropertyOp18
 70
     0
102
RTVSPropertyOp19
 70
     0
102
RTVSPropertyOp20
 70
     0
102
RTVSPropertyOp21
 70
     0
102
RTVSPropertyOp22
 70
     0
102
RTVSPropertyOp23
 70
     0
102
RTVSPropertyOp24
 70
     0
102
RTVSPropertyOp25
 70
     0
102
RTVSPropertyOp26
 70
     0
102
RTVSPropertyOp27
 70
     0
102
RTVSPropertyOp28
 70
     0
102
RTVSPropertyOp29
 70
     0
102
RTVSPropertyOp30
 70
     0
102
RTVSPropertyOp31
 70
     0
102
RTVSPropertyOp32
 70
     0
102
RTVSPropertyOp33
 70
     0
102
RTVSPropertyOp34
 70
     0
102
RTVSPropertyOp35
 70
     0
102
RTVSPropertyOp36
 70
     0
102
RTVSPropertyOp37
 70
     0
102
RTVSPropertyOp38
 70
     0
102
RTVSPropertyOp39
 70
     0
102
RTVSPropertyOp40
 70
     0
102
RTVSPropertyOp41
 70
     0
102
RTVSPropertyOp42
 70
     0
102
RTVSPropertyOp43
 70
     0
102
RTVSPropertyOp44
 70
     0
102
RTVSPropertyOp45
 70
     0
102
RTVSPropertyOp46
 70
     0
102
RTVSPropertyOp47
 70
     0
102
RTVSPropertyOp48
 70
     0
102
RTVSPropertyOp49
 70
     0
102
RTVSPropertyOp50
 70
     0
102
RTVSPropertyOp51
 70
     0
102
RTVSPropertyOp52
 70
     0
102
RTVSPropertyOp53
 70
     0
102
RTVSPropertyOp54
 70
     0
102
RTVSPropertyOp55
 70
     0
102
RTVSPropertyOp56
 70
     0
102
RTVSPropertyOp57
 70
     0
102
RTVSPropertyOp58
 70
     0
102
RTVSPropertyOp59
 70
     0
102
RTVSPropertyOp60
 70
     0
102
RTVSPropertyOp61
 70
     0
102
RTVSPropertyOp62
 70
     0
  0
XRECORD
  5
8F8
102
{ACAD_REACTORS
330
8F7
102
}
330
8F7
100
AcDbXrecord
280
     1
102
RTVSPost2010Prop28
280
     0
102
RTVSPost2010PropOp28
 70
     1
102
RTVSPost2010Prop29
280
     1
102
RTVSPost2010PropOp29
 70
     1
102
RTVSPost2010Prop30
280
     1
102
RTVSPost2010PropOp30
 70
     1
102
RTVSPost2010Prop31
280
     0
102
RTVSPost2010PropOp31
 70
     1
102
RTVSPost2010Prop32
280
     0
102
RTVSPost2010PropOp32
 70
     1
102
RTVSPost2010Prop33
280
     0
102
RTVSPost2010PropOp33
 70
     1
102
RTVSPost2010Prop34
280
     0
102
RTVSPost2010PropOp34
 70
     1
102
RTVSPost2010Prop35
280
     0
102
RTVSPost2010PropOp35
 70
     1
102
RTVSPost2010Prop36
280
     0
102
RTVSPost2010PropOp36
 70
     1
102
RTVSPost2010Prop37
 90
       50
102
RTVSPost2010PropOp37
 70
     1
102
RTVSPost2010Prop38
140
0.0
102
RTVSPost2010PropOp38
 70
     1
102
RTVSPost2010Prop39
140
1.0
102
RTVSPost2010PropOp39
 70
     1
102
RTVSPost2010Prop40
 90
        0
102
RTVSPost2010PropOp40
 70
     1
102
RTVSPost2010Prop41ColorIndex
 90
       18
102
RTVSPost2010Prop41ColorRGB
 90
        0
102
RTVSPost2010PropOp41
 70
     1
102
RTVSPost2010Prop42
 90
       50
102
RTVSPost2010PropOp42
 70
     1
102
RTVSPost2010Prop43
 90
        3
102
RTVSPost2010PropOp43
 70
     1
102
RTVSPost2010Prop44ColorIndex
 90
        5
102
RTVSPost2010Prop44ColorRGB
 90
      255
102
RTVSPost2010PropOp44
 70
     1
102
RTVSPost2010Prop45
280
     0
102
RTVSPost2010PropOp45
 70
     1
102
RTVSPost2010Prop46
 90
       50
102
RTVSPost2010PropOp46
 70
     1
102
RTVSPost2010Prop47
 90
       50
102
RTVSPost2010PropOp47
 70
     1
102
RTVSPost2010Prop48
 90
       50
102
RTVSPost2010PropOp48
 70
     1
102
RTVSPost2010Prop49
280
     0
102
RTVSPost2010PropOp49
 70
     1
102
RTVSPost2010Prop50
 90
       50
102
RTVSPost2010PropOp50
 70
     1
102
RTVSPost2010Prop51ColorIndex
 90
      256
102
RTVSPost2010Prop51ColorRGB
 90
-16777216
102
RTVSPost2010PropOp51
 70
     0
102
RTVSPost2010Prop52
140
1.0
102
RTVSPost2010PropOp52
 70
     0
102
RTVSPost2010Prop53
 90
        2
102
RTVSPost2010PropOp53
 70
     1
102
RTVSPost2010Prop54
  1
strokes_ogs.tif
102
RTVSPost2010PropOp54
 70
     1
102
RTVSPost2010Prop55
280
     0
102
RTVSPost2010PropOp55
 70
     1
102
RTVSPost2010Prop56
140
1.0
102
RTVSPost2010PropOp56
 70
     1
102
RTVSPost2010Prop57
140
1.0
102
RTVSPost2010PropOp57
 70
     1
102
RTVSPropertyOp0
 70
     1
102
RTVSPropertyOp1
 70
     1
102
RTVSPropertyOp2
 70
     1
102
RTVSPropertyOp3
 70
     1
102
RTVSPropertyOp4
 70
     1
102
RTVSPropertyOp5
 70
     1
102
RTVSPropertyOp6
 70
     1
102
RTVSPropertyOp7
 70
     1
102
RTVSPropertyOp8
 70
     1
102
RTVSPropertyOp9
 70
     1
102
RTVSPropertyOp10
 70
     1
102
RTVSPropertyOp11
 70
     1
102
RTVSPropertyOp12
 70
     1
102
RTVSPropertyOp13
 70
     1
102
RTVSPropertyOp14
 70
     1
102
RTVSPropertyOp15
 70
     1
102
RTVSPropertyOp16
 70
     1
102
RTVSPropertyOp17
 70
     1
102
RTVSPropertyOp18
 70
     1
102
RTVSPropertyOp19
 70
     1
102
RTVSPropertyOp20
 70
     1
102
RTVSPropertyOp21
 70
     1
102
RTVSPropertyOp22
 70
     1
102
RTVSPropertyOp23
 70
     1
102
RTVSPropertyOp24
 70
     1
102
RTVSPropertyOp25
 70
     1
102
RTVSPropertyOp26
 70
     1
102
RTVSPropertyOp27
 70
     1
102
RTVSPropertyOp28
 70
     1
102
RTVSPropertyOp29
 70
     1
102
RTVSPropertyOp30
 70
     1
102
RTVSPropertyOp31
 70
     1
102
RTVSPropertyOp32
 70
     1
102
RTVSPropertyOp33
 70
     1
102
RTVSPropertyOp34
 70
     1
102
RTVSPropertyOp35
 70
     1
102
RTVSPropertyOp36
 70
     1
102
RTVSPropertyOp37
 70
     1
102
RTVSPropertyOp38
 70
     1
102
RTVSPropertyOp39
 70
     1
102
RTVSPropertyOp40
 70
     1
102
RTVSPropertyOp41
 70
     1
102
RTVSPropertyOp42
 70
     1
102
RTVSPropertyOp43
 70
     1
102
RTVSPropertyOp44
 70
     1
102
RTVSPropertyOp45
 70
     1
102
RTVSPropertyOp46
 70
     1
102
RTVSPropertyOp47
 70
     1
102
RTVSPropertyOp48
 70
     1
102
RTVSPropertyOp49
 70
     1
102
RTVSPropertyOp50
 70
     1
102
RTVSPropertyOp51
 70
     0
102
RTVSPropertyOp52
 70
     0
102
RTVSPropertyOp53
 70
     1
102
RTVSPropertyOp54
 70
     1
102
RTVSPropertyOp55
 70
     1
102
RTVSPropertyOp56
 70
     1
102
RTVSPropertyOp57
 70
     1
102
RTVSPropertyOp58
 70
     1
102
RTVSPropertyOp59
 70
     1
102
RTVSPropertyOp60
 70
     1
102
RTVSPropertyOp61
 70
     1
102
RTVSPropertyOp62
 70
     1
  0
XRECORD
  5
90E
102
{ACAD_REACTORS
330
90D
102
}
330
90D
100
AcDbXrecord
280
     1
102
RTVSPost2010Prop28
280
     0
102
RTVSPost2010PropOp28
 70
     1
102
RTVSPost2010Prop29
280
     1
102
RTVSPost2010PropOp29
 70
     1
102
RTVSPost2010Prop30
280
     1
102
RTVSPost2010PropOp30
 70
     1
102
RTVSPost2010Prop31
280
     0
102
RTVSPost2010PropOp31
 70
     1
102
RTVSPost2010Prop32
280
     0
102
RTVSPost2010PropOp32
 70
     1
102
RTVSPost2010Prop33
280
     0
102
RTVSPost2010PropOp33
 70
     1
102
RTVSPost2010Prop34
280
     0
102
RTVSPost2010PropOp34
 70
     1
102
RTVSPost2010Prop35
280
     0
102
RTVSPost2010PropOp35
 70
     1
102
RTVSPost2010Prop36
280
     0
102
RTVSPost2010PropOp36
 70
     1
102
RTVSPost2010Prop37
 90
       50
102
RTVSPost2010PropOp37
 70
     1
102
RTVSPost2010Prop38
140
0.0
102
RTVSPost2010PropOp38
 70
     1
102
RTVSPost2010Prop39
140
1.0
102
RTVSPost2010PropOp39
 70
     1
102
RTVSPost2010Prop40
 90
        0
102
RTVSPost2010PropOp40
 70
     1
102
RTVSPost2010Prop41ColorIndex
 90
       18
102
RTVSPost2010Prop41ColorRGB
 90
        0
102
RTVSPost2010PropOp41
 70
     1
102
RTVSPost2010Prop42
 90
       50
102
RTVSPost2010PropOp42
 70
     1
102
RTVSPost2010Prop43
 90
        3
102
RTVSPost2010PropOp43
 70
     1
102
RTVSPost2010Prop44ColorIndex
 90
        5
102
RTVSPost2010Prop44ColorRGB
 90
      255
102
RTVSPost2010PropOp44
 70
     1
102
RTVSPost2010Prop45
280
     0
102
RTVSPost2010PropOp45
 70
     1
102
RTVSPost2010Prop46
 90
       50
102
RTVSPost2010PropOp46
 70
     1
102
RTVSPost2010Prop47
 90
       50
102
RTVSPost2010PropOp47
 70
     1
102
RTVSPost2010Prop48
 90
       50
102
RTVSPost2010PropOp48
 70
     1
102
RTVSPost2010Prop49
280
     0
102
RTVSPost2010PropOp49
 70
     1
102
RTVSPost2010Prop50
 90
       50
102
RTVSPost2010PropOp50
 70
     1
102
RTVSPost2010Prop51ColorIndex
 90
      256
102
RTVSPost2010Prop51ColorRGB
 90
-16777216
102
RTVSPost2010PropOp51
 70
     0
102
RTVSPost2010Prop52
140
1.0
102
RTVSPost2010PropOp52
 70
     0
102
RTVSPost2010Prop53
 90
        2
102
RTVSPost2010PropOp53
 70
     1
102
RTVSPost2010Prop54
  1
strokes_ogs.tif
102
RTVSPost2010PropOp54
 70
     1
102
RTVSPost2010Prop55
280
     0
102
RTVSPost2010PropOp55
 70
     1
102
RTVSPost2010Prop56
140
1.0
102
RTVSPost2010PropOp56
 70
     1
102
RTVSPost2010Prop57
140
1.0
102
RTVSPost2010PropOp57
 70
     1
102
RTVSPropertyOp0
 70
     1
102
RTVSPropertyOp1
 70
     1
102
RTVSPropertyOp2
 70
     1
102
RTVSPropertyOp3
 70
     1
102
RTVSPropertyOp4
 70
     1
102
RTVSPropertyOp5
 70
     1
102
RTVSPropertyOp6
 70
     1
102
RTVSPropertyOp7
 70
     1
102
RTVSPropertyOp8
 70
     1
102
RTVSPropertyOp9
 70
     1
102
RTVSPropertyOp10
 70
     1
102
RTVSPropertyOp11
 70
     1
102
RTVSPropertyOp12
 70
     1
102
RTVSPropertyOp13
 70
     1
102
RTVSPropertyOp14
 70
     1
102
RTVSPropertyOp15
 70
     1
102
RTVSPropertyOp16
 70
     1
102
RTVSPropertyOp17
 70
     1
102
RTVSPropertyOp18
 70
     1
102
RTVSPropertyOp19
 70
     1
102
RTVSPropertyOp20
 70
     1
102
RTVSPropertyOp21
 70
     1
102
RTVSPropertyOp22
 70
     1
102
RTVSPropertyOp23
 70
     1
102
RTVSPropertyOp24
 70
     1
102
RTVSPropertyOp25
 70
     1
102
RTVSPropertyOp26
 70
     1
102
RTVSPropertyOp27
 70
     1
102
RTVSPropertyOp28
 70
     1
102
RTVSPropertyOp29
 70
     1
102
RTVSPropertyOp30
 70
     1
102
RTVSPropertyOp31
 70
     1
102
RTVSPropertyOp32
 70
     1
102
RTVSPropertyOp33
 70
     1
102
RTVSPropertyOp34
 70
     1
102
RTVSPropertyOp35
 70
     1
102
RTVSPropertyOp36
 70
     1
102
RTVSPropertyOp37
 70
     1
102
RTVSPropertyOp38
 70
     1
102
RTVSPropertyOp39
 70
     1
102
RTVSPropertyOp40
 70
     1
102
RTVSPropertyOp41
 70
     1
102
RTVSPropertyOp42
 70
     1
102
RTVSPropertyOp43
 70
     1
102
RTVSPropertyOp44
 70
     1
102
RTVSPropertyOp45
 70
     1
102
RTVSPropertyOp46
 70
     1
102
RTVSPropertyOp47
 70
     1
102
RTVSPropertyOp48
 70
     1
102
RTVSPropertyOp49
 70
     1
102
RTVSPropertyOp50
 70
     1
102
RTVSPropertyOp51
 70
     0
102
RTVSPropertyOp52
 70
     0
102
RTVSPropertyOp53
 70
     1
102
RTVSPropertyOp54
 70
     1
102
RTVSPropertyOp55
 70
     1
102
RTVSPropertyOp56
 70
     1
102
RTVSPropertyOp57
 70
     1
102
RTVSPropertyOp58
 70
     1
102
RTVSPropertyOp59
 70
     1
102
RTVSPropertyOp60
 70
     1
102
RTVSPropertyOp61
 70
     1
102
RTVSPropertyOp62
 70
     1
  0
XRECORD
  5
90C
102
{ACAD_REACTORS
330
90B
102
}
330
90B
100
AcDbXrecord
280
     1
102
RTVSPost2010Prop28
280
     0
102
RTVSPost2010PropOp28
 70
     1
102
RTVSPost2010Prop29
280
     1
102
RTVSPost2010PropOp29
 70
     1
102
RTVSPost2010Prop30
280
     1
102
RTVSPost2010PropOp30
 70
     1
102
RTVSPost2010Prop31
280
     0
102
RTVSPost2010PropOp31
 70
     1
102
RTVSPost2010Prop32
280
     0
102
RTVSPost2010PropOp32
 70
     1
102
RTVSPost2010Prop33
280
     0
102
RTVSPost2010PropOp33
 70
     1
102
RTVSPost2010Prop34
280
     0
102
RTVSPost2010PropOp34
 70
     1
102
RTVSPost2010Prop35
280
     0
102
RTVSPost2010PropOp35
 70
     1
102
RTVSPost2010Prop36
280
     0
102
RTVSPost2010PropOp36
 70
     1
102
RTVSPost2010Prop37
 90
       50
102
RTVSPost2010PropOp37
 70
     1
102
RTVSPost2010Prop38
140
0.0
102
RTVSPost2010PropOp38
 70
     1
102
RTVSPost2010Prop39
140
1.0
102
RTVSPost2010PropOp39
 70
     1
102
RTVSPost2010Prop40
 90
        0
102
RTVSPost2010PropOp40
 70
     1
102
RTVSPost2010Prop41ColorIndex
 90
       18
102
RTVSPost2010Prop41ColorRGB
 90
        0
102
RTVSPost2010PropOp41
 70
     1
102
RTVSPost2010Prop42
 90
       50
102
RTVSPost2010PropOp42
 70
     1
102
RTVSPost2010Prop43
 90
        3
102
RTVSPost2010PropOp43
 70
     1
102
RTVSPost2010Prop44ColorIndex
 90
        5
102
RTVSPost2010Prop44ColorRGB
 90
      255
102
RTVSPost2010PropOp44
 70
     1
102
RTVSPost2010Prop45
280
     0
102
RTVSPost2010PropOp45
 70
     1
102
RTVSPost2010Prop46
 90
       50
102
RTVSPost2010PropOp46
 70
     1
102
RTVSPost2010Prop47
 90
       50
102
RTVSPost2010PropOp47
 70
     1
102
RTVSPost2010Prop48
 90
       50
102
RTVSPost2010PropOp48
 70
     1
102
RTVSPost2010Prop49
280
     0
102
RTVSPost2010PropOp49
 70
     1
102
RTVSPost2010Prop50
 90
       50
102
RTVSPost2010PropOp50
 70
     1
102
RTVSPost2010Prop51ColorIndex
 90
      256
102
RTVSPost2010Prop51ColorRGB
 90
-16777216
102
RTVSPost2010PropOp51
 70
     0
102
RTVSPost2010Prop52
140
1.0
102
RTVSPost2010PropOp52
 70
     0
102
RTVSPost2010Prop53
 90
        2
102
RTVSPost2010PropOp53
 70
     1
102
RTVSPost2010Prop54
  1
strokes_ogs.tif
102
RTVSPost2010PropOp54
 70
     1
102
RTVSPost2010Prop55
280
     0
102
RTVSPost2010PropOp55
 70
     1
102
RTVSPost2010Prop56
140
1.0
102
RTVSPost2010PropOp56
 70
     1
102
RTVSPost2010Prop57
140
1.0
102
RTVSPost2010PropOp57
 70
     1
102
RTVSPropertyOp0
 70
     1
102
RTVSPropertyOp1
 70
     1
102
RTVSPropertyOp2
 70
     1
102
RTVSPropertyOp3
 70
     1
102
RTVSPropertyOp4
 70
     1
102
RTVSPropertyOp5
 70
     1
102
RTVSPropertyOp6
 70
     1
102
RTVSPropertyOp7
 70
     1
102
RTVSPropertyOp8
 70
     1
102
RTVSPropertyOp9
 70
     1
102
RTVSPropertyOp10
 70
     1
102
RTVSPropertyOp11
 70
     1
102
RTVSPropertyOp12
 70
     1
102
RTVSPropertyOp13
 70
     1
102
RTVSPropertyOp14
 70
     1
102
RTVSPropertyOp15
 70
     1
102
RTVSPropertyOp16
 70
     1
102
RTVSPropertyOp17
 70
     1
102
RTVSPropertyOp18
 70
     1
102
RTVSPropertyOp19
 70
     1
102
RTVSPropertyOp20
 70
     1
102
RTVSPropertyOp21
 70
     1
102
RTVSPropertyOp22
 70
     1
102
RTVSPropertyOp23
 70
     1
102
RTVSPropertyOp24
 70
     1
102
RTVSPropertyOp25
 70
     1
102
RTVSPropertyOp26
 70
     1
102
RTVSPropertyOp27
 70
     1
102
RTVSPropertyOp28
 70
     1
102
RTVSPropertyOp29
 70
     1
102
RTVSPropertyOp30
 70
     1
102
RTVSPropertyOp31
 70
     1
102
RTVSPropertyOp32
 70
     1
102
RTVSPropertyOp33
 70
     1
102
RTVSPropertyOp34
 70
     1
102
RTVSPropertyOp35
 70
     1
102
RTVSPropertyOp36
 70
     1
102
RTVSPropertyOp37
 70
     1
102
RTVSPropertyOp38
 70
     1
102
RTVSPropertyOp39
 70
     1
102
RTVSPropertyOp40
 70
     1
102
RTVSPropertyOp41
 70
     1
102
RTVSPropertyOp42
 70
     1
102
RTVSPropertyOp43
 70
     1
102
RTVSPropertyOp44
 70
     1
102
RTVSPropertyOp45
 70
     1
102
RTVSPropertyOp46
 70
     1
102
RTVSPropertyOp47
 70
     1
102
RTVSPropertyOp48
 70
     1
102
RTVSPropertyOp49
 70
     1
102
RTVSPropertyOp50
 70
     1
102
RTVSPropertyOp51
 70
     0
102
RTVSPropertyOp52
 70
     0
102
RTVSPropertyOp53
 70
     1
102
RTVSPropertyOp54
 70
     1
102
RTVSPropertyOp55
 70
     1
102
RTVSPropertyOp56
 70
     1
102
RTVSPropertyOp57
 70
     1
102
RTVSPropertyOp58
 70
     1
102
RTVSPropertyOp59
 70
     1
102
RTVSPropertyOp60
 70
     1
102
RTVSPropertyOp61
 70
     1
102
RTVSPropertyOp62
 70
     1
  0
XRECORD
  5
906
102
{ACAD_REACTORS
330
905
102
}
330
905
100
AcDbXrecord
280
     1
102
RTVSPost2010Prop28
280
     0
102
RTVSPost2010PropOp28
 70
     1
102
RTVSPost2010Prop29
280
     1
102
RTVSPost2010PropOp29
 70
     1
102
RTVSPost2010Prop30
280
     1
102
RTVSPost2010PropOp30
 70
     1
102
RTVSPost2010Prop31
280
     0
102
RTVSPost2010PropOp31
 70
     1
102
RTVSPost2010Prop32
280
     0
102
RTVSPost2010PropOp32
 70
     1
102
RTVSPost2010Prop33
280
     0
102
RTVSPost2010PropOp33
 70
     1
102
RTVSPost2010Prop34
280
     0
102
RTVSPost2010PropOp34
 70
     1
102
RTVSPost2010Prop35
280
     0
102
RTVSPost2010PropOp35
 70
     1
102
RTVSPost2010Prop36
280
     0
102
RTVSPost2010PropOp36
 70
     1
102
RTVSPost2010Prop37
 90
       50
102
RTVSPost2010PropOp37
 70
     1
102
RTVSPost2010Prop38
140
0.0
102
RTVSPost2010PropOp38
 70
     1
102
RTVSPost2010Prop39
140
1.0
102
RTVSPost2010PropOp39
 70
     1
102
RTVSPost2010Prop40
 90
        0
102
RTVSPost2010PropOp40
 70
     1
102
RTVSPost2010Prop41ColorIndex
 90
       18
102
RTVSPost2010Prop41ColorRGB
 90
        0
102
RTVSPost2010PropOp41
 70
     1
102
RTVSPost2010Prop42
 90
       50
102
RTVSPost2010PropOp42
 70
     1
102
RTVSPost2010Prop43
 90
        3
102
RTVSPost2010PropOp43
 70
     1
102
RTVSPost2010Prop44ColorIndex
 90
        5
102
RTVSPost2010Prop44ColorRGB
 90
      255
102
RTVSPost2010PropOp44
 70
     1
102
RTVSPost2010Prop45
280
     0
102
RTVSPost2010PropOp45
 70
     1
102
RTVSPost2010Prop46
 90
       50
102
RTVSPost2010PropOp46
 70
     1
102
RTVSPost2010Prop47
 90
       50
102
RTVSPost2010PropOp47
 70
     1
102
RTVSPost2010Prop48
 90
       50
102
RTVSPost2010PropOp48
 70
     1
102
RTVSPost2010Prop49
280
     0
102
RTVSPost2010PropOp49
 70
     1
102
RTVSPost2010Prop50
 90
       50
102
RTVSPost2010PropOp50
 70
     1
102
RTVSPost2010Prop51ColorIndex
 90
      256
102
RTVSPost2010Prop51ColorRGB
 90
-16777216
102
RTVSPost2010PropOp51
 70
     0
102
RTVSPost2010Prop52
140
1.0
102
RTVSPost2010PropOp52
 70
     0
102
RTVSPost2010Prop53
 90
        2
102
RTVSPost2010PropOp53
 70
     1
102
RTVSPost2010Prop54
  1
strokes_ogs.tif
102
RTVSPost2010PropOp54
 70
     1
102
RTVSPost2010Prop55
280
     0
102
RTVSPost2010PropOp55
 70
     1
102
RTVSPost2010Prop56
140
1.0
102
RTVSPost2010PropOp56
 70
     1
102
RTVSPost2010Prop57
140
1.0
102
RTVSPost2010PropOp57
 70
     1
102
RTVSPropertyOp0
 70
     1
102
RTVSPropertyOp1
 70
     1
102
RTVSPropertyOp2
 70
     1
102
RTVSPropertyOp3
 70
     1
102
RTVSPropertyOp4
 70
     1
102
RTVSPropertyOp5
 70
     1
102
RTVSPropertyOp6
 70
     1
102
RTVSPropertyOp7
 70
     1
102
RTVSPropertyOp8
 70
     1
102
RTVSPropertyOp9
 70
     1
102
RTVSPropertyOp10
 70
     1
102
RTVSPropertyOp11
 70
     1
102
RTVSPropertyOp12
 70
     1
102
RTVSPropertyOp13
 70
     1
102
RTVSPropertyOp14
 70
     1
102
RTVSPropertyOp15
 70
     1
102
RTVSPropertyOp16
 70
     1
102
RTVSPropertyOp17
 70
     1
102
RTVSPropertyOp18
 70
     1
102
RTVSPropertyOp19
 70
     1
102
RTVSPropertyOp20
 70
     1
102
RTVSPropertyOp21
 70
     1
102
RTVSPropertyOp22
 70
     1
102
RTVSPropertyOp23
 70
     1
102
RTVSPropertyOp24
 70
     1
102
RTVSPropertyOp25
 70
     1
102
RTVSPropertyOp26
 70
     1
102
RTVSPropertyOp27
 70
     1
102
RTVSPropertyOp28
 70
     1
102
RTVSPropertyOp29
 70
     1
102
RTVSPropertyOp30
 70
     1
102
RTVSPropertyOp31
 70
     1
102
RTVSPropertyOp32
 70
     1
102
RTVSPropertyOp33
 70
     1
102
RTVSPropertyOp34
 70
     1
102
RTVSPropertyOp35
 70
     1
102
RTVSPropertyOp36
 70
     1
102
RTVSPropertyOp37
 70
     1
102
RTVSPropertyOp38
 70
     1
102
RTVSPropertyOp39
 70
     1
102
RTVSPropertyOp40
 70
     1
102
RTVSPropertyOp41
 70
     1
102
RTVSPropertyOp42
 70
     1
102
RTVSPropertyOp43
 70
     1
102
RTVSPropertyOp44
 70
     1
102
RTVSPropertyOp45
 70
     1
102
RTVSPropertyOp46
 70
     1
102
RTVSPropertyOp47
 70
     1
102
RTVSPropertyOp48
 70
     1
102
RTVSPropertyOp49
 70
     1
102
RTVSPropertyOp50
 70
     1
102
RTVSPropertyOp51
 70
     0
102
RTVSPropertyOp52
 70
     0
102
RTVSPropertyOp53
 70
     1
102
RTVSPropertyOp54
 70
     1
102
RTVSPropertyOp55
 70
     1
102
RTVSPropertyOp56
 70
     1
102
RTVSPropertyOp57
 70
     1
102
RTVSPropertyOp58
 70
     1
102
RTVSPropertyOp59
 70
     1
102
RTVSPropertyOp60
 70
     1
102
RTVSPropertyOp61
 70
     1
102
RTVSPropertyOp62
 70
     1
  0
XRECORD
  5
908
102
{ACAD_REACTORS
330
907
102
}
330
907
100
AcDbXrecord
280
     1
102
RTVSPost2010Prop28
280
     0
102
RTVSPost2010PropOp28
 70
     1
102
RTVSPost2010Prop29
280
     1
102
RTVSPost2010PropOp29
 70
     1
102
RTVSPost2010Prop30
280
     1
102
RTVSPost2010PropOp30
 70
     1
102
RTVSPost2010Prop31
280
     0
102
RTVSPost2010PropOp31
 70
     1
102
RTVSPost2010Prop32
280
     0
102
RTVSPost2010PropOp32
 70
     1
102
RTVSPost2010Prop33
280
     0
102
RTVSPost2010PropOp33
 70
     1
102
RTVSPost2010Prop34
280
     0
102
RTVSPost2010PropOp34
 70
     1
102
RTVSPost2010Prop35
280
     0
102
RTVSPost2010PropOp35
 70
     1
102
RTVSPost2010Prop36
280
     0
102
RTVSPost2010PropOp36
 70
     1
102
RTVSPost2010Prop37
 90
       50
102
RTVSPost2010PropOp37
 70
     1
102
RTVSPost2010Prop38
140
0.0
102
RTVSPost2010PropOp38
 70
     1
102
RTVSPost2010Prop39
140
1.0
102
RTVSPost2010PropOp39
 70
     1
102
RTVSPost2010Prop40
 90
        0
102
RTVSPost2010PropOp40
 70
     1
102
RTVSPost2010Prop41ColorIndex
 90
       18
102
RTVSPost2010Prop41ColorRGB
 90
        0
102
RTVSPost2010PropOp41
 70
     1
102
RTVSPost2010Prop42
 90
       50
102
RTVSPost2010PropOp42
 70
     1
102
RTVSPost2010Prop43
 90
        3
102
RTVSPost2010PropOp43
 70
     1
102
RTVSPost2010Prop44ColorIndex
 90
        5
102
RTVSPost2010Prop44ColorRGB
 90
      255
102
RTVSPost2010PropOp44
 70
     1
102
RTVSPost2010Prop45
280
     0
102
RTVSPost2010PropOp45
 70
     1
102
RTVSPost2010Prop46
 90
       50
102
RTVSPost2010PropOp46
 70
     1
102
RTVSPost2010Prop47
 90
       50
102
RTVSPost2010PropOp47
 70
     1
102
RTVSPost2010Prop48
 90
       50
102
RTVSPost2010PropOp48
 70
     1
102
RTVSPost2010Prop49
280
     0
102
RTVSPost2010PropOp49
 70
     1
102
RTVSPost2010Prop50
 90
       50
102
RTVSPost2010PropOp50
 70
     1
102
RTVSPost2010Prop51ColorIndex
 90
      256
102
RTVSPost2010Prop51ColorRGB
 90
-16777216
102
RTVSPost2010PropOp51
 70
     0
102
RTVSPost2010Prop52
140
1.0
102
RTVSPost2010PropOp52
 70
     0
102
RTVSPost2010Prop53
 90
        2
102
RTVSPost2010PropOp53
 70
     1
102
RTVSPost2010Prop54
  1
strokes_ogs.tif
102
RTVSPost2010PropOp54
 70
     1
102
RTVSPost2010Prop55
280
     0
102
RTVSPost2010PropOp55
 70
     1
102
RTVSPost2010Prop56
140
1.0
102
RTVSPost2010PropOp56
 70
     1
102
RTVSPost2010Prop57
140
1.0
102
RTVSPost2010PropOp57
 70
     1
102
RTVSPropertyOp0
 70
     1
102
RTVSPropertyOp1
 70
     1
102
RTVSPropertyOp2
 70
     1
102
RTVSPropertyOp3
 70
     1
102
RTVSPropertyOp4
 70
     1
102
RTVSPropertyOp5
 70
     1
102
RTVSPropertyOp6
 70
     1
102
RTVSPropertyOp7
 70
     1
102
RTVSPropertyOp8
 70
     1
102
RTVSPropertyOp9
 70
     1
102
RTVSPropertyOp10
 70
     1
102
RTVSPropertyOp11
 70
     1
102
RTVSPropertyOp12
 70
     1
102
RTVSPropertyOp13
 70
     1
102
RTVSPropertyOp14
 70
     1
102
RTVSPropertyOp15
 70
     1
102
RTVSPropertyOp16
 70
     1
102
RTVSPropertyOp17
 70
     1
102
RTVSPropertyOp18
 70
     1
102
RTVSPropertyOp19
 70
     1
102
RTVSPropertyOp20
 70
     1
102
RTVSPropertyOp21
 70
     1
102
RTVSPropertyOp22
 70
     1
102
RTVSPropertyOp23
 70
     1
102
RTVSPropertyOp24
 70
     1
102
RTVSPropertyOp25
 70
     1
102
RTVSPropertyOp26
 70
     1
102
RTVSPropertyOp27
 70
     1
102
RTVSPropertyOp28
 70
     1
102
RTVSPropertyOp29
 70
     1
102
RTVSPropertyOp30
 70
     1
102
RTVSPropertyOp31
 70
     1
102
RTVSPropertyOp32
 70
     1
102
RTVSPropertyOp33
 70
     1
102
RTVSPropertyOp34
 70
     1
102
RTVSPropertyOp35
 70
     1
102
RTVSPropertyOp36
 70
     1
102
RTVSPropertyOp37
 70
     1
102
RTVSPropertyOp38
 70
     1
102
RTVSPropertyOp39
 70
     1
102
RTVSPropertyOp40
 70
     1
102
RTVSPropertyOp41
 70
     1
102
RTVSPropertyOp42
 70
     1
102
RTVSPropertyOp43
 70
     1
102
RTVSPropertyOp44
 70
     1
102
RTVSPropertyOp45
 70
     1
102
RTVSPropertyOp46
 70
     1
102
RTVSPropertyOp47
 70
     1
102
RTVSPropertyOp48
 70
     1
102
RTVSPropertyOp49
 70
     1
102
RTVSPropertyOp50
 70
     1
102
RTVSPropertyOp51
 70
     0
102
RTVSPropertyOp52
 70
     0
102
RTVSPropertyOp53
 70
     1
102
RTVSPropertyOp54
 70
     1
102
RTVSPropertyOp55
 70
     1
102
RTVSPropertyOp56
 70
     1
102
RTVSPropertyOp57
 70
     1
102
RTVSPropertyOp58
 70
     1
102
RTVSPropertyOp59
 70
     1
102
RTVSPropertyOp60
 70
     1
102
RTVSPropertyOp61
 70
     1
102
RTVSPropertyOp62
 70
     1
  0
XRECORD
  5
8FE
102
{ACAD_REACTORS
330
8FD
102
}
330
8FD
100
AcDbXrecord
280
     1
102
RTVSPost2010Prop28
280
     0
102
RTVSPost2010PropOp28
 70
     1
102
RTVSPost2010Prop29
280
     1
102
RTVSPost2010PropOp29
 70
     1
102
RTVSPost2010Prop30
280
     1
102
RTVSPost2010PropOp30
 70
     1
102
RTVSPost2010Prop31
280
     0
102
RTVSPost2010PropOp31
 70
     1
102
RTVSPost2010Prop32
280
     0
102
RTVSPost2010PropOp32
 70
     1
102
RTVSPost2010Prop33
280
     0
102
RTVSPost2010PropOp33
 70
     1
102
RTVSPost2010Prop34
280
     0
102
RTVSPost2010PropOp34
 70
     1
102
RTVSPost2010Prop35
280
     0
102
RTVSPost2010PropOp35
 70
     1
102
RTVSPost2010Prop36
280
     0
102
RTVSPost2010PropOp36
 70
     1
102
RTVSPost2010Prop37
 90
       50
102
RTVSPost2010PropOp37
 70
     1
102
RTVSPost2010Prop38
140
0.0
102
RTVSPost2010PropOp38
 70
     1
102
RTVSPost2010Prop39
140
1.0
102
RTVSPost2010PropOp39
 70
     1
102
RTVSPost2010Prop40
 90
        0
102
RTVSPost2010PropOp40
 70
     1
102
RTVSPost2010Prop41ColorIndex
 90
       18
102
RTVSPost2010Prop41ColorRGB
 90
        0
102
RTVSPost2010PropOp41
 70
     1
102
RTVSPost2010Prop42
 90
       50
102
RTVSPost2010PropOp42
 70
     1
102
RTVSPost2010Prop43
 90
        3
102
RTVSPost2010PropOp43
 70
     1
102
RTVSPost2010Prop44ColorIndex
 90
        5
102
RTVSPost2010Prop44ColorRGB
 90
      255
102
RTVSPost2010PropOp44
 70
     1
102
RTVSPost2010Prop45
280
     0
102
RTVSPost2010PropOp45
 70
     1
102
RTVSPost2010Prop46
 90
       50
102
RTVSPost2010PropOp46
 70
     1
102
RTVSPost2010Prop47
 90
       50
102
RTVSPost2010PropOp47
 70
     1
102
RTVSPost2010Prop48
 90
       50
102
RTVSPost2010PropOp48
 70
     1
102
RTVSPost2010Prop49
280
     0
102
RTVSPost2010PropOp49
 70
     1
102
RTVSPost2010Prop50
 90
       50
102
RTVSPost2010PropOp50
 70
     1
102
RTVSPost2010Prop51ColorIndex
 90
      256
102
RTVSPost2010Prop51ColorRGB
 90
-16777216
102
RTVSPost2010PropOp51
 70
     0
102
RTVSPost2010Prop52
140
1.0
102
RTVSPost2010PropOp52
 70
     0
102
RTVSPost2010Prop53
 90
        2
102
RTVSPost2010PropOp53
 70
     1
102
RTVSPost2010Prop54
  1
strokes_ogs.tif
102
RTVSPost2010PropOp54
 70
     1
102
RTVSPost2010Prop55
280
     0
102
RTVSPost2010PropOp55
 70
     1
102
RTVSPost2010Prop56
140
1.0
102
RTVSPost2010PropOp56
 70
     1
102
RTVSPost2010Prop57
140
1.0
102
RTVSPost2010PropOp57
 70
     1
102
RTVSPropertyOp0
 70
     1
102
RTVSPropertyOp1
 70
     1
102
RTVSPropertyOp2
 70
     1
102
RTVSPropertyOp3
 70
     1
102
RTVSPropertyOp4
 70
     1
102
RTVSPropertyOp5
 70
     1
102
RTVSPropertyOp6
 70
     1
102
RTVSPropertyOp7
 70
     1
102
RTVSPropertyOp8
 70
     1
102
RTVSPropertyOp9
 70
     1
102
RTVSPropertyOp10
 70
     1
102
RTVSPropertyOp11
 70
     1
102
RTVSPropertyOp12
 70
     1
102
RTVSPropertyOp13
 70
     1
102
RTVSPropertyOp14
 70
     1
102
RTVSPropertyOp15
 70
     1
102
RTVSPropertyOp16
 70
     1
102
RTVSPropertyOp17
 70
     1
102
RTVSPropertyOp18
 70
     1
102
RTVSPropertyOp19
 70
     1
102
RTVSPropertyOp20
 70
     1
102
RTVSPropertyOp21
 70
     1
102
RTVSPropertyOp22
 70
     1
102
RTVSPropertyOp23
 70
     1
102
RTVSPropertyOp24
 70
     1
102
RTVSPropertyOp25
 70
     1
102
RTVSPropertyOp26
 70
     1
102
RTVSPropertyOp27
 70
     1
102
RTVSPropertyOp28
 70
     1
102
RTVSPropertyOp29
 70
     1
102
RTVSPropertyOp30
 70
     1
102
RTVSPropertyOp31
 70
     1
102
RTVSPropertyOp32
 70
     1
102
RTVSPropertyOp33
 70
     1
102
RTVSPropertyOp34
 70
     1
102
RTVSPropertyOp35
 70
     1
102
RTVSPropertyOp36
 70
     1
102
RTVSPropertyOp37
 70
     1
102
RTVSPropertyOp38
 70
     1
102
RTVSPropertyOp39
 70
     1
102
RTVSPropertyOp40
 70
     1
102
RTVSPropertyOp41
 70
     1
102
RTVSPropertyOp42
 70
     1
102
RTVSPropertyOp43
 70
     1
102
RTVSPropertyOp44
 70
     1
102
RTVSPropertyOp45
 70
     1
102
RTVSPropertyOp46
 70
     1
102
RTVSPropertyOp47
 70
     1
102
RTVSPropertyOp48
 70
     1
102
RTVSPropertyOp49
 70
     1
102
RTVSPropertyOp50
 70
     1
102
RTVSPropertyOp51
 70
     0
102
RTVSPropertyOp52
 70
     0
102
RTVSPropertyOp53
 70
     1
102
RTVSPropertyOp54
 70
     1
102
RTVSPropertyOp55
 70
     1
102
RTVSPropertyOp56
 70
     1
102
RTVSPropertyOp57
 70
     1
102
RTVSPropertyOp58
 70
     1
102
RTVSPropertyOp59
 70
     1
102
RTVSPropertyOp60
 70
     1
102
RTVSPropertyOp61
 70
     1
102
RTVSPropertyOp62
 70
     1
  0
XRECORD
  5
8F2
102
{ACAD_REACTORS
330
8F1
102
}
330
8F1
100
AcDbXrecord
280
     1
102
RTVSPost2010Prop28
280
     0
102
RTVSPost2010PropOp28
 70
     1
102
RTVSPost2010Prop29
280
     1
102
RTVSPost2010PropOp29
 70
     1
102
RTVSPost2010Prop30
280
     1
102
RTVSPost2010PropOp30
 70
     1
102
RTVSPost2010Prop31
280
     0
102
RTVSPost2010PropOp31
 70
     1
102
RTVSPost2010Prop32
280
     0
102
RTVSPost2010PropOp32
 70
     1
102
RTVSPost2010Prop33
280
     0
102
RTVSPost2010PropOp33
 70
     1
102
RTVSPost2010Prop34
280
     0
102
RTVSPost2010PropOp34
 70
     1
102
RTVSPost2010Prop35
280
     0
102
RTVSPost2010PropOp35
 70
     1
102
RTVSPost2010Prop36
280
     0
102
RTVSPost2010PropOp36
 70
     1
102
RTVSPost2010Prop37
 90
       50
102
RTVSPost2010PropOp37
 70
     1
102
RTVSPost2010Prop38
140
0.0
102
RTVSPost2010PropOp38
 70
     1
102
RTVSPost2010Prop39
140
1.0
102
RTVSPost2010PropOp39
 70
     1
102
RTVSPost2010Prop40
 90
        0
102
RTVSPost2010PropOp40
 70
     1
102
RTVSPost2010Prop41ColorIndex
 90
       18
102
RTVSPost2010Prop41ColorRGB
 90
        0
102
RTVSPost2010PropOp41
 70
     1
102
RTVSPost2010Prop42
 90
       50
102
RTVSPost2010PropOp42
 70
     1
102
RTVSPost2010Prop43
 90
        3
102
RTVSPost2010PropOp43
 70
     1
102
RTVSPost2010Prop44ColorIndex
 90
        5
102
RTVSPost2010Prop44ColorRGB
 90
      255
102
RTVSPost2010PropOp44
 70
     1
102
RTVSPost2010Prop45
280
     0
102
RTVSPost2010PropOp45
 70
     1
102
RTVSPost2010Prop46
 90
       50
102
RTVSPost2010PropOp46
 70
     1
102
RTVSPost2010Prop47
 90
       50
102
RTVSPost2010PropOp47
 70
     1
102
RTVSPost2010Prop48
 90
       50
102
RTVSPost2010PropOp48
 70
     1
102
RTVSPost2010Prop49
280
     0
102
RTVSPost2010PropOp49
 70
     1
102
RTVSPost2010Prop50
 90
       50
102
RTVSPost2010PropOp50
 70
     1
102
RTVSPost2010Prop51ColorIndex
 90
      256
102
RTVSPost2010Prop51ColorRGB
 90
-16777216
102
RTVSPost2010PropOp51
 70
     0
102
RTVSPost2010Prop52
140
1.0
102
RTVSPost2010PropOp52
 70
     0
102
RTVSPost2010Prop53
 90
        2
102
RTVSPost2010PropOp53
 70
     1
102
RTVSPost2010Prop54
  1
strokes_ogs.tif
102
RTVSPost2010PropOp54
 70
     1
102
RTVSPost2010Prop55
280
     0
102
RTVSPost2010PropOp55
 70
     1
102
RTVSPost2010Prop56
140
1.0
102
RTVSPost2010PropOp56
 70
     1
102
RTVSPost2010Prop57
140
1.0
102
RTVSPost2010PropOp57
 70
     1
102
RTVSPropertyOp0
 70
     1
102
RTVSPropertyOp1
 70
     1
102
RTVSPropertyOp2
 70
     1
102
RTVSPropertyOp3
 70
     1
102
RTVSPropertyOp4
 70
     1
102
RTVSPropertyOp5
 70
     1
102
RTVSPropertyOp6
 70
     1
102
RTVSPropertyOp7
 70
     1
102
RTVSPropertyOp8
 70
     1
102
RTVSPropertyOp9
 70
     1
102
RTVSPropertyOp10
 70
     1
102
RTVSPropertyOp11
 70
     1
102
RTVSPropertyOp12
 70
     1
102
RTVSPropertyOp13
 70
     1
102
RTVSPropertyOp14
 70
     1
102
RTVSPropertyOp15
 70
     1
102
RTVSPropertyOp16
 70
     1
102
RTVSPropertyOp17
 70
     1
102
RTVSPropertyOp18
 70
     1
102
RTVSPropertyOp19
 70
     1
102
RTVSPropertyOp20
 70
     1
102
RTVSPropertyOp21
 70
     1
102
RTVSPropertyOp22
 70
     1
102
RTVSPropertyOp23
 70
     1
102
RTVSPropertyOp24
 70
     1
102
RTVSPropertyOp25
 70
     1
102
RTVSPropertyOp26
 70
     1
102
RTVSPropertyOp27
 70
     1
102
RTVSPropertyOp28
 70
     1
102
RTVSPropertyOp29
 70
     1
102
RTVSPropertyOp30
 70
     1
102
RTVSPropertyOp31
 70
     1
102
RTVSPropertyOp32
 70
     1
102
RTVSPropertyOp33
 70
     1
102
RTVSPropertyOp34
 70
     1
102
RTVSPropertyOp35
 70
     1
102
RTVSPropertyOp36
 70
     1
102
RTVSPropertyOp37
 70
     1
102
RTVSPropertyOp38
 70
     1
102
RTVSPropertyOp39
 70
     1
102
RTVSPropertyOp40
 70
     1
102
RTVSPropertyOp41
 70
     1
102
RTVSPropertyOp42
 70
     1
102
RTVSPropertyOp43
 70
     1
102
RTVSPropertyOp44
 70
     1
102
RTVSPropertyOp45
 70
     1
102
RTVSPropertyOp46
 70
     1
102
RTVSPropertyOp47
 70
     1
102
RTVSPropertyOp48
 70
     1
102
RTVSPropertyOp49
 70
     1
102
RTVSPropertyOp50
 70
     1
102
RTVSPropertyOp51
 70
     0
102
RTVSPropertyOp52
 70
     0
102
RTVSPropertyOp53
 70
     1
102
RTVSPropertyOp54
 70
     1
102
RTVSPropertyOp55
 70
     1
102
RTVSPropertyOp56
 70
     1
102
RTVSPropertyOp57
 70
     1
102
RTVSPropertyOp58
 70
     1
102
RTVSPropertyOp59
 70
     1
102
RTVSPropertyOp60
 70
     1
102
RTVSPropertyOp61
 70
     1
102
RTVSPropertyOp62
 70
     1
  0
XRECORD
  5
90A
102
{ACAD_REACTORS
330
909
102
}
330
909
100
AcDbXrecord
280
     1
102
RTVSPost2010Prop28
280
     0
102
RTVSPost2010PropOp28
 70
     1
102
RTVSPost2010Prop29
280
     1
102
RTVSPost2010PropOp29
 70
     1
102
RTVSPost2010Prop30
280
     1
102
RTVSPost2010PropOp30
 70
     1
102
RTVSPost2010Prop31
280
     0
102
RTVSPost2010PropOp31
 70
     1
102
RTVSPost2010Prop32
280
     0
102
RTVSPost2010PropOp32
 70
     1
102
RTVSPost2010Prop33
280
     0
102
RTVSPost2010PropOp33
 70
     1
102
RTVSPost2010Prop34
280
     0
102
RTVSPost2010PropOp34
 70
     1
102
RTVSPost2010Prop35
280
     0
102
RTVSPost2010PropOp35
 70
     1
102
RTVSPost2010Prop36
280
     0
102
RTVSPost2010PropOp36
 70
     1
102
RTVSPost2010Prop37
 90
       50
102
RTVSPost2010PropOp37
 70
     1
102
RTVSPost2010Prop38
140
0.0
102
RTVSPost2010PropOp38
 70
     1
102
RTVSPost2010Prop39
140
1.0
102
RTVSPost2010PropOp39
 70
     1
102
RTVSPost2010Prop40
 90
        0
102
RTVSPost2010PropOp40
 70
     1
102
RTVSPost2010Prop41ColorIndex
 90
       18
102
RTVSPost2010Prop41ColorRGB
 90
        0
102
RTVSPost2010PropOp41
 70
     1
102
RTVSPost2010Prop42
 90
       50
102
RTVSPost2010PropOp42
 70
     1
102
RTVSPost2010Prop43
 90
        3
102
RTVSPost2010PropOp43
 70
     1
102
RTVSPost2010Prop44ColorIndex
 90
        5
102
RTVSPost2010Prop44ColorRGB
 90
      255
102
RTVSPost2010PropOp44
 70
     1
102
RTVSPost2010Prop45
280
     0
102
RTVSPost2010PropOp45
 70
     1
102
RTVSPost2010Prop46
 90
       50
102
RTVSPost2010PropOp46
 70
     1
102
RTVSPost2010Prop47
 90
       50
102
RTVSPost2010PropOp47
 70
     1
102
RTVSPost2010Prop48
 90
       50
102
RTVSPost2010PropOp48
 70
     1
102
RTVSPost2010Prop49
280
     0
102
RTVSPost2010PropOp49
 70
     1
102
RTVSPost2010Prop50
 90
       50
102
RTVSPost2010PropOp50
 70
     1
102
RTVSPost2010Prop51ColorIndex
 90
      256
102
RTVSPost2010Prop51ColorRGB
 90
-16777216
102
RTVSPost2010PropOp51
 70
     0
102
RTVSPost2010Prop52
140
1.0
102
RTVSPost2010PropOp52
 70
     0
102
RTVSPost2010Prop53
 90
        2
102
RTVSPost2010PropOp53
 70
     1
102
RTVSPost2010Prop54
  1
strokes_ogs.tif
102
RTVSPost2010PropOp54
 70
     1
102
RTVSPost2010Prop55
280
     0
102
RTVSPost2010PropOp55
 70
     1
102
RTVSPost2010Prop56
140
1.0
102
RTVSPost2010PropOp56
 70
     1
102
RTVSPost2010Prop57
140
1.0
102
RTVSPost2010PropOp57
 70
     1
102
RTVSPropertyOp0
 70
     1
102
RTVSPropertyOp1
 70
     1
102
RTVSPropertyOp2
 70
     1
102
RTVSPropertyOp3
 70
     1
102
RTVSPropertyOp4
 70
     1
102
RTVSPropertyOp5
 70
     1
102
RTVSPropertyOp6
 70
     1
102
RTVSPropertyOp7
 70
     1
102
RTVSPropertyOp8
 70
     1
102
RTVSPropertyOp9
 70
     1
102
RTVSPropertyOp10
 70
     1
102
RTVSPropertyOp11
 70
     1
102
RTVSPropertyOp12
 70
     1
102
RTVSPropertyOp13
 70
     1
102
RTVSPropertyOp14
 70
     1
102
RTVSPropertyOp15
 70
     1
102
RTVSPropertyOp16
 70
     1
102
RTVSPropertyOp17
 70
     1
102
RTVSPropertyOp18
 70
     1
102
RTVSPropertyOp19
 70
     1
102
RTVSPropertyOp20
 70
     1
102
RTVSPropertyOp21
 70
     1
102
RTVSPropertyOp22
 70
     1
102
RTVSPropertyOp23
 70
     1
102
RTVSPropertyOp24
 70
     1
102
RTVSPropertyOp25
 70
     1
102
RTVSPropertyOp26
 70
     1
102
RTVSPropertyOp27
 70
     1
102
RTVSPropertyOp28
 70
     1
102
RTVSPropertyOp29
 70
     1
102
RTVSPropertyOp30
 70
     1
102
RTVSPropertyOp31
 70
     1
102
RTVSPropertyOp32
 70
     1
102
RTVSPropertyOp33
 70
     1
102
RTVSPropertyOp34
 70
     1
102
RTVSPropertyOp35
 70
     1
102
RTVSPropertyOp36
 70
     1
102
RTVSPropertyOp37
 70
     1
102
RTVSPropertyOp38
 70
     1
102
RTVSPropertyOp39
 70
     1
102
RTVSPropertyOp40
 70
     1
102
RTVSPropertyOp41
 70
     1
102
RTVSPropertyOp42
 70
     1
102
RTVSPropertyOp43
 70
     1
102
RTVSPropertyOp44
 70
     1
102
RTVSPropertyOp45
 70
     1
102
RTVSPropertyOp46
 70
     1
102
RTVSPropertyOp47
 70
     1
102
RTVSPropertyOp48
 70
     1
102
RTVSPropertyOp49
 70
     1
102
RTVSPropertyOp50
 70
     1
102
RTVSPropertyOp51
 70
     0
102
RTVSPropertyOp52
 70
     0
102
RTVSPropertyOp53
 70
     1
102
RTVSPropertyOp54
 70
     1
102
RTVSPropertyOp55
 70
     1
102
RTVSPropertyOp56
 70
     1
102
RTVSPropertyOp57
 70
     1
102
RTVSPropertyOp58
 70
     1
102
RTVSPropertyOp59
 70
     1
102
RTVSPropertyOp60
 70
     1
102
RTVSPropertyOp61
 70
     1
102
RTVSPropertyOp62
 70
     1
  0
ENDSEC
  0
EOF
